  0
SECTION
  2
HEADER
  9
$ACADVER
  1
AC1015
  9
$ACADMAINTVER
 70
     6
  9
$DWGCODEPAGE
  3
ANSI_1252
  9
$INSBASE
 10
0.0
 20
0.0
 30
0.0
  9
$EXTMIN
 10
-1483.641732283465
 20
-923.1791338582677
 30
-15.2625
  9
$EXTMAX
 10
1476.358267716535
 20
926.8208661417324
 30
15.2625
  9
$LIMMIN
 10
0.0
 20
0.0
  9
$LIMMAX
 10
12.0
 20
9.0
  9
$ORTHOMODE
 70
     0
  9
$REGENMODE
 70
     1
  9
$FILLMODE
 70
     1
  9
$QTEXTMODE
 70
     0
  9
$MIRRTEXT
 70
     1
  9
$LTSCALE
 40
37.0
  9
$ATTMODE
 70
     1
  9
$TEXTSIZE
 40
0.2
  9
$TRACEWID
 40
1.0
  9
$TEXTSTYLE
  7
STANDARD
  9
$CLAYER
  8
None
  9
$CELTYPE
  6
ByLayer
  9
$CECOLOR
 62
   256
  9
$CELTSCALE
 40
1.0
  9
$DISPSILH
 70
     0
  9
$DIMSCALE
 40
1.0
  9
$DIMASZ
 40
23.125
  9
$DIMEXO
 40
11.5625
  9
$DIMDLI
 40
0.4
  9
$DIMRND
 40
0.0
  9
$DIMDLE
 40
11.5625
  9
$DIMEXE
 40
23.125
  9
$DIMTP
 40
0.0
  9
$DIMTM
 40
0.0
  9
$DIMTXT
 40
22.11764227146026
  9
$DIMCEN
 40
0.0
  9
$DIMTSZ
 40
0.0
  9
$DIMTOL
 70
     0
  9
$DIMLIM
 70
     0
  9
$DIMTIH
 70
     0
  9
$DIMTOH
 70
     0
  9
$DIMSE1
 70
     0
  9
$DIMSE2
 70
     0
  9
$DIMTAD
 70
     1
  9
$DIMZIN
 70
     8
  9
$DIMBLK
  1
VW_SLASH
  9
$DIMASO
 70
     1
  9
$DIMSHO
 70
     1
  9
$DIMPOST
  1
<>
  9
$DIMAPOST
  1
[]
  9
$DIMALT
 70
     0
  9
$DIMALTD
 70
     3
  9
$DIMALTF
 40
1.0
  9
$DIMLFAC
 40
1.0
  9
$DIMTOFL
 70
     1
  9
$DIMTVP
 40
0.0
  9
$DIMTIX
 70
     1
  9
$DIMSOXD
 70
     0
  9
$DIMSAH
 70
     0
  9
$DIMBLK1
  1
VW_SLASH
  9
$DIMBLK2
  1
VW_SLASH
  9
$DIMSTYLE
  2
Arch
  9
$DIMCLRD
 70
     0
  9
$DIMCLRE
 70
     0
  9
$DIMCLRT
 70
     0
  9
$DIMTFAC
 40
1.0
  9
$DIMGAP
 40
0.0625
  9
$DIMJUST
 70
     0
  9
$DIMSD1
 70
     0
  9
$DIMSD2
 70
     0
  9
$DIMTOLJ
 70
     1
  9
$DIMTZIN
 70
     8
  9
$DIMALTZ
 70
     8
  9
$DIMALTTZ
 70
     8
  9
$DIMUPT
 70
     0
  9
$DIMDEC
 70
     3
  9
$DIMTDEC
 70
     3
  9
$DIMALTU
 70
     4
  9
$DIMALTTD
 70
     2
  9
$DIMTXSTY
  7
Helvetica
  9
$DIMAUNIT
 70
     0
  9
$DIMADEC
 70
     2
  9
$DIMALTRND
 40
0.0
  9
$DIMAZIN
 70
     0
  9
$DIMDSEP
 70
    46
  9
$DIMATFIT
 70
     0
  9
$DIMFRAC
 70
     2
  9
$DIMLDRBLK
  1
VW_FILLEDARROW
  9
$DIMLUNIT
 70
     4
  9
$DIMLWD
 70
    -2
  9
$DIMLWE
 70
    -2
  9
$DIMTMOVE
 70
     0
  9
$LUNITS
 70
     4
  9
$LUPREC
 70
     4
  9
$SKETCHINC
 40
0.1
  9
$FILLETRAD
 40
0.5
  9
$AUNITS
 70
     0
  9
$AUPREC
 70
     0
  9
$MENU
  1
.
  9
$ELEVATION
 40
0.0
  9
$PELEVATION
 40
0.0
  9
$THICKNESS
 40
0.0
  9
$LIMCHECK
 70
     0
  9
$CHAMFERA
 40
0.5
  9
$CHAMFERB
 40
0.5
  9
$CHAMFERC
 40
1.0
  9
$CHAMFERD
 40
0.0
  9
$SKPOLY
 70
     0
  9
$TDCREATE
 40
2455711.787743032
  9
$TDUCREATE
 40
2455712.121076377
  9
$TDUPDATE
 40
2455711.787743044
  9
$TDUUPDATE
 40
2455712.121076389
  9
$TDINDWG
 40
0.0000000116
  9
$TDUSRTIMER
 40
0.0000000116
  9
$USRTIMER
 70
     1
  9
$ANGBASE
 50
0.0
  9
$ANGDIR
 70
     0
  9
$PDMODE
 70
     1
  9
$PDSIZE
 40
-2.0
  9
$PLINEWID
 40
0.0
  9
$SPLFRAME
 70
     0
  9
$SPLINETYPE
 70
     6
  9
$SPLINESEGS
 70
     8
  9
$HANDSEED
  5
51E
  9
$SURFTAB1
 70
     6
  9
$SURFTAB2
 70
     6
  9
$SURFTYPE
 70
     6
  9
$SURFU
 70
     6
  9
$SURFV
 70
     6
  9
$UCSBASE
  2

  9
$UCSNAME
  2

  9
$UCSORG
 10
0.0
 20
0.0
 30
0.0
  9
$UCSXDIR
 10
1.0
 20
0.0
 30
0.0
  9
$UCSYDIR
 10
0.0
 20
1.0
 30
0.0
  9
$UCSORTHOREF
  2

  9
$UCSORTHOVIEW
 70
     0
  9
$UCSORGTOP
 10
0.0
 20
0.0
 30
0.0
  9
$UCSORGBOTTOM
 10
0.0
 20
0.0
 30
0.0
  9
$UCSORGLEFT
 10
0.0
 20
0.0
 30
0.0
  9
$UCSORGRIGHT
 10
0.0
 20
0.0
 30
0.0
  9
$UCSORGFRONT
 10
0.0
 20
0.0
 30
0.0
  9
$UCSORGBACK
 10
0.0
 20
0.0
 30
0.0
  9
$PUCSBASE
  2

  9
$PUCSNAME
  2

  9
$PUCSORG
 10
0.0
 20
0.0
 30
0.0
  9
$PUCSXDIR
 10
1.0
 20
0.0
 30
0.0
  9
$PUCSYDIR
 10
0.0
 20
1.0
 30
0.0
  9
$PUCSORTHOREF
  2

  9
$PUCSORTHOVIEW
 70
     0
  9
$PUCSORGTOP
 10
0.0
 20
0.0
 30
0.0
  9
$PUCSORGBOTTOM
 10
0.0
 20
0.0
 30
0.0
  9
$PUCSORGLEFT
 10
0.0
 20
0.0
 30
0.0
  9
$PUCSORGRIGHT
 10
0.0
 20
0.0
 30
0.0
  9
$PUCSORGFRONT
 10
0.0
 20
0.0
 30
0.0
  9
$PUCSORGBACK
 10
0.0
 20
0.0
 30
0.0
  9
$USERI1
 70
     0
  9
$USERI2
 70
     0
  9
$USERI3
 70
     0
  9
$USERI4
 70
     0
  9
$USERI5
 70
     0
  9
$USERR1
 40
0.0
  9
$USERR2
 40
0.0
  9
$USERR3
 40
0.0
  9
$USERR4
 40
0.0
  9
$USERR5
 40
0.0
  9
$WORLDVIEW
 70
     1
  9
$SHADEDGE
 70
     3
  9
$SHADEDIF
 70
    70
  9
$TILEMODE
 70
     1
  9
$MAXACTVP
 70
    64
  9
$PINSBASE
 10
0.0
 20
0.0
 30
0.0
  9
$PLIMCHECK
 70
     0
  9
$PEXTMIN
 10
1.000000000000000E+20
 20
1.000000000000000E+20
 30
1.000000000000000E+20
  9
$PEXTMAX
 10
-1.000000000000000E+20
 20
-1.000000000000000E+20
 30
-1.000000000000000E+20
  9
$PLIMMIN
 10
-0.25
 20
-0.25
  9
$PLIMMAX
 10
10.75
 20
8.25
  9
$UNITMODE
 70
     0
  9
$VISRETAIN
 70
     1
  9
$PLINEGEN
 70
     0
  9
$PSLTSCALE
 70
     1
  9
$TREEDEPTH
 70
  3020
  9
$CMLSTYLE
  2
Standard
  9
$CMLJUST
 70
     0
  9
$CMLSCALE
 40
1.0
  9
$PROXYGRAPHICS
 70
     1
  9
$MEASUREMENT
 70
     0
  9
$CELWEIGHT
370
    -1
  9
$ENDCAPS
280
     0
  9
$JOINSTYLE
280
     0
  9
$LWDISPLAY
290
     1
  9
$INSUNITS
 70
     1
  9
$HYPERLINKBASE
  1

  9
$STYLESHEET
  1

  9
$XEDIT
290
     1
  9
$CEPSNTYPE
380
     0
  9
$PSTYLEMODE
290
     1
  9
$FINGERPRINTGUID
  2
{ED73C9CD-BA04-5C9A-8C84-35BEE60FA252}
  9
$VERSIONGUID
  2
{FAEB1C32-E019-11D5-929B-00C0DF256EC4}
  9
$EXTNAMES
290
     1
  9
$PSVPSCALE
 40
0.0
  9
$OLESTARTUP
290
     0
  0
ENDSEC
  0
SECTION
  2
CLASSES
  0
CLASS
  1
ACDBDICTIONARYWDFLT
  2
AcDbDictionaryWithDefault
  3
ObjectDBX Classes
 90
        0
280
     0
281
     0
  0
CLASS
  1
VISUALSTYLE
  2
AcDbVisualStyle
  3
ObjectDBX Classes
 90
     4095
280
     0
281
     0
  0
CLASS
  1
MATERIAL
  2
AcDbMaterial
  3
ObjectDBX Classes
 90
     1153
280
     0
281
     0
  0
CLASS
  1
WIPEOUTVARIABLES
  2
AcDbWipeoutVariables
  3
WipeOut|AutoCAD Express Tool|expresstools@autodesk.com
 90
        0
280
     0
281
     0
  0
CLASS
  1
WIPEOUT
  2
AcDbWipeout
  3
WipeOut|AutoCAD Express Tool|expresstools@autodesk.com
 90
      127
280
     0
281
     1
  0
CLASS
  1
SCALE
  2
AcDbScale
  3
ObjectDBX Classes
 90
     1153
280
     0
281
     0
  0
CLASS
  1
DICTIONARYVAR
  2
AcDbDictionaryVar
  3
ObjectDBX Classes
 90
        0
280
     0
281
     0
  0
CLASS
  1
ACDBPLACEHOLDER
  2
AcDbPlaceHolder
  3
ObjectDBX Classes
 90
        0
280
     0
281
     0
  0
CLASS
  1
LAYOUT
  2
AcDbLayout
  3
ObjectDBX Classes
 90
        0
280
     0
281
     0
  0
ENDSEC
  0
SECTION
  2
TABLES
  0
TABLE
  2
VPORT
  5
8
330
0
100
AcDbSymbolTable
 70
     1
  0
VPORT
  5
29
330
8
100
AcDbSymbolTableRecord
100
AcDbViewportTableRecord
  2
*Active
 70
     0
 10
0.0
 20
0.0
 11
1.0
 21
1.0
 12
-3.641732283464762
 22
1.820866141732267
 13
0.0
 23
0.0
 14
0.5
 24
0.5
 15
0.5
 25
0.5
 16
0.0
 26
0.0
 36
1.0
 17
0.0
 27
0.0
 37
0.0
 40
1850.0
 41
0.0095982468949475
 42
2000.0
 43
0.0
 44
0.0
 50
0.0
 51
0.0
 71
     0
 72
   100
 73
     1
 74
     3
 75
     0
 76
     0
 77
     0
 78
     0
281
     0
 65
     1
110
0.0
120
0.0
130
0.0
111
1.0
121
0.0
131
0.0
112
0.0
122
1.0
132
0.0
 79
     0
146
0.0
  0
ENDTAB
  0
TABLE
  2
LTYPE
  5
5
330
0
100
AcDbSymbolTable
 70
    11
  0
LTYPE
  5
14
330
5
100
AcDbSymbolTableRecord
100
AcDbLinetypeTableRecord
  2
ByBlock
 70
     0
  3

 72
    65
 73
     0
 40
0.0
  0
LTYPE
  5
15
330
5
100
AcDbSymbolTableRecord
100
AcDbLinetypeTableRecord
  2
ByLayer
 70
     0
  3

 72
    65
 73
     0
 40
0.0
  0
LTYPE
  5
16
330
5
100
AcDbSymbolTableRecord
100
AcDbLinetypeTableRecord
  2
Continuous
 70
     0
  3
Solid line
 72
    65
 73
     0
 40
0.0
  0
LTYPE
  5
7F
330
5
100
AcDbSymbolTableRecord
100
AcDbLinetypeTableRecord
  2
Dash Style-1
 70
     0
  3

 72
    65
 73
     2
 40
0.20828
 49
0.20828
 74
     0
 49
-0.20836
 74
     0
  0
LTYPE
  5
80
330
5
100
AcDbSymbolTableRecord
100
AcDbLinetypeTableRecord
  2
Dash Style-2
 70
     0
  3

 72
    65
 73
     2
 40
0.48607
 49
0.48607
 74
     0
 49
-0.2083550000000001
 74
     0
  0
LTYPE
  5
81
330
5
100
AcDbSymbolTableRecord
100
AcDbLinetypeTableRecord
  2
Dash Style-3
 70
     0
  3

 72
    65
 73
     2
 40
1.04164
 49
1.04164
 74
     0
 49
-0.2083599999999999
 74
     0
  0
LTYPE
  5
82
330
5
100
AcDbSymbolTableRecord
100
AcDbLinetypeTableRecord
  2
Dash Style-4
 70
     0
  3

 72
    65
 73
     2
 40
1.319425
 49
1.319425
 74
     0
 49
-0.208285
 74
     0
  0
LTYPE
  5
83
330
5
100
AcDbSymbolTableRecord
100
AcDbLinetypeTableRecord
  2
Dash Style-5
 70
     0
  3

 72
    65
 73
     2
 40
0.069425
 49
0.069425
 74
     0
 49
-0.138855
 74
     0
  0
LTYPE
  5
84
330
5
100
AcDbSymbolTableRecord
100
AcDbLinetypeTableRecord
  2
Dash Style-6
 70
     0
  3

 72
    65
 73
     4
 40
0.625
 49
0.625
 74
     0
 49
-0.20828
 74
     0
 49
0.06943
 74
     0
 49
-0.13893
 74
     0
  0
LTYPE
  5
85
330
5
100
AcDbSymbolTableRecord
100
AcDbLinetypeTableRecord
  2
Dash Style-7
 70
     0
  3

 72
    65
 73
     6
 40
0.625
 49
0.625
 74
     0
 49
-0.20828
 74
     0
 49
0.6250000000000001
 74
     0
 49
-0.2083599999999999
 74
     0
 49
0.06943
 74
     0
 49
-0.1389299999999999
 74
     0
  0
LTYPE
  5
86
330
5
100
AcDbSymbolTableRecord
100
AcDbLinetypeTableRecord
  2
Dash Style-8
 70
     0
  3

 72
    65
 73
     6
 40
0.625
 49
0.625
 74
     0
 49
-0.20828
 74
     0
 49
0.06943
 74
     0
 49
-0.13893
 74
     0
 49
0.0694299999999999
 74
     0
 49
-0.13893
 74
     0
  0
LTYPE
  5
87
330
5
100
AcDbSymbolTableRecord
100
AcDbLinetypeTableRecord
  2
Dash Style-9
 70
     0
  3

 72
    65
 73
     4
 40
3.75
 49
3.75
 74
     0
 49
-0.2777849999999998
 74
     0
 49
0.6944300000000003
 74
     0
 49
-0.2777849999999998
 74
     0
  0
LTYPE
  5
88
330
5
100
AcDbSymbolTableRecord
100
AcDbLinetypeTableRecord
  2
Dash Style-10
 70
     0
  3

 72
    65
 73
     6
 40
3.75
 49
3.75
 74
     0
 49
-0.2777849999999998
 74
     0
 49
0.6944300000000003
 74
     0
 49
-0.2777849999999998
 74
     0
 49
0.625
 74
     0
 49
-0.3125
 74
     0
  0
ENDTAB
  0
TABLE
  2
LAYER
  5
2
330
0
100
AcDbSymbolTable
 70
     9
  0
LAYER
  5
10
330
2
100
AcDbSymbolTableRecord
100
AcDbLayerTableRecord
  2
0
 70
     0
 62
     7
  6
Continuous
370
    -3
390
F
  0
LAYER
  5
89
330
2
100
AcDbSymbolTableRecord
100
AcDbLayerTableRecord
  2
None
 70
     0
 62
     7
  6
Continuous
370
     5
390
F
  0
LAYER
  5
8A
330
2
100
AcDbSymbolTableRecord
100
AcDbLayerTableRecord
  2
Dimension
 70
     0
 62
     7
  6
Continuous
370
     5
390
F
  0
LAYER
  5
8B
330
2
100
AcDbSymbolTableRecord
100
AcDbLayerTableRecord
  2
elements-ojects
 70
     0
 62
     7
  6
Continuous
370
    15
390
F
  0
LAYER
  5
8C
330
2
100
AcDbSymbolTableRecord
100
AcDbLayerTableRecord
  2
Layer0
 70
     0
 62
     1
  6
Continuous
370
    15
390
F
  0
LAYER
  5
8D
330
2
100
AcDbSymbolTableRecord
100
AcDbLayerTableRecord
  2
A-ARCH
 70
     0
 62
   251
  6
Continuous
370
    15
390
F
  0
LAYER
  5
8E
330
2
100
AcDbSymbolTableRecord
100
AcDbLayerTableRecord
  2
WINDOW
 70
     0
 62
     2
  6
Continuous
370
    15
390
F
  0
LAYER
  5
8F
330
2
100
AcDbSymbolTableRecord
100
AcDbLayerTableRecord
  2
FIXT
 70
     0
 62
     7
  6
Continuous
370
    15
390
F
  0
LAYER
  5
90
330
2
100
AcDbSymbolTableRecord
100
AcDbLayerTableRecord
  2
Defpoints
 70
     0
 62
     7
  6
Continuous
290
     0
370
    -3
390
F
  0
ENDTAB
  0
TABLE
  2
STYLE
  5
3
330
0
100
AcDbSymbolTable
 70
     4
  0
STYLE
  5
11
330
3
100
AcDbSymbolTableRecord
100
AcDbTextStyleTableRecord
  2
STANDARD
 70
     0
 40
0.0
 41
1.0
 50
0.0
 71
     0
 42
0.2
  3
txt
  4

  0
STYLE
  5
7C
330
3
100
AcDbSymbolTableRecord
100
AcDbTextStyleTableRecord
  2
Arial Narrow
 70
     0
 40
0.0
 41
1.0
 50
0.0
 71
     0
 42
0.0
  3
Arial Narrow
  4

1001
ACAD
1000
Arial Narrow
1071
        0
  0
STYLE
  5
7D
330
3
100
AcDbSymbolTableRecord
100
AcDbTextStyleTableRecord
  2
Arial Narrow (bold)
 70
     0
 40
0.0
 41
1.0
 50
0.0
 71
     0
 42
0.0
  3
Arial Narrow
  4

1001
ACAD
1000
Arial Narrow
1071
 33554432
  0
STYLE
  5
7E
330
3
100
AcDbSymbolTableRecord
100
AcDbTextStyleTableRecord
  2
Helvetica
 70
     0
 40
0.0
 41
1.0
 50
0.0
 71
     0
 42
0.0
  3
Helvetica
  4

1001
ACAD
1000
Helvetica
1071
        0
  0
ENDTAB
  0
TABLE
  2
VIEW
  5
6
330
0
100
AcDbSymbolTable
 70
     0
  0
ENDTAB
  0
TABLE
  2
UCS
  5
7
330
0
100
AcDbSymbolTable
 70
     0
  0
ENDTAB
  0
TABLE
  2
APPID
  5
9
330
0
100
AcDbSymbolTable
 70
     1
  0
APPID
  5
12
330
9
100
AcDbSymbolTableRecord
100
AcDbRegAppTableRecord
  2
ACAD
 70
     0
  0
ENDTAB
  0
TABLE
  2
DIMSTYLE
  5
A
330
0
100
AcDbSymbolTable
 70
     3
100
AcDbDimStyleTable
  0
DIMSTYLE
105
27
330
A
100
AcDbSymbolTableRecord
100
AcDbDimStyleTableRecord
  2
Standard
 70
     0
340
11
  0
DIMSTYLE
105
91
330
A
100
AcDbSymbolTableRecord
100
AcDbDimStyleTableRecord
  2
Arch
 70
     0
  3
<>
  4
[]
 41
23.125
 42
11.5625
 43
0.4
 44
23.125
 46
11.5625
 73
     0
 74
     0
 77
     1
 78
     8
140
22.11764227146026
141
0.0
143
1.0
147
0.0625
171
     3
172
     1
174
     1
179
     2
271
     3
272
     3
273
     4
276
     2
277
     4
284
     8
285
     8
286
     8
289
     0
340
7E
341
9B
342
92
343
92
344
92
  0
DIMSTYLE
105
A5
102
{ACAD_REACTORS
330
4C6
330
4C7
330
4C8
330
4C9
102
}
330
A
100
AcDbSymbolTableRecord
100
AcDbDimStyleTableRecord
  2
ASME
 70
     0
  3
<>
  4
[]
 41
23.125
 42
11.5625
 43
0.4
 44
23.125
 78
     8
140
22.11764227146026
141
0.0
143
1.0
147
0.0
171
     3
174
     1
179
     2
271
     3
272
     3
273
     4
276
     2
277
     4
284
     8
285
     8
286
     8
289
     0
340
7E
341
9B
342
9B
343
9B
344
9B
  0
ENDTAB
  0
TABLE
  2
BLOCK_RECORD
  5
1
330
0
100
AcDbSymbolTable
 70
    23
  0
BLOCK_RECORD
  5
1F
330
1
100
AcDbSymbolTableRecord
100
AcDbBlockTableRecord
  2
*Model_Space
340
22
  0
BLOCK_RECORD
  5
1B
330
1
100
AcDbSymbolTableRecord
100
AcDbBlockTableRecord
  2
*Paper_Space
340
1E
  0
BLOCK_RECORD
  5
3F
330
1
100
AcDbSymbolTableRecord
100
AcDbBlockTableRecord
  2
Group-1
340
0
102
{BLKREFS
331
4C0
102
}
  0
BLOCK_RECORD
  5
42
330
1
100
AcDbSymbolTableRecord
100
AcDbBlockTableRecord
  2
Group-2-1
340
0
102
{BLKREFS
331
1C5
102
}
  0
BLOCK_RECORD
  5
45
330
1
100
AcDbSymbolTableRecord
100
AcDbBlockTableRecord
  2
Group-3-1
340
0
102
{BLKREFS
331
249
102
}
  0
BLOCK_RECORD
  5
48
330
1
100
AcDbSymbolTableRecord
100
AcDbBlockTableRecord
  2
Group-4-1
340
0
102
{BLKREFS
331
4C5
102
}
  0
BLOCK_RECORD
  5
4B
330
1
100
AcDbSymbolTableRecord
100
AcDbBlockTableRecord
  2
*D5
340
0
  0
BLOCK_RECORD
  5
4E
330
1
100
AcDbSymbolTableRecord
100
AcDbBlockTableRecord
  2
*D6
340
0
  0
BLOCK_RECORD
  5
51
330
1
100
AcDbSymbolTableRecord
100
AcDbBlockTableRecord
  2
*D7
340
0
  0
BLOCK_RECORD
  5
54
330
1
100
AcDbSymbolTableRecord
100
AcDbBlockTableRecord
  2
*D8
340
0
  0
BLOCK_RECORD
  5
57
330
1
100
AcDbSymbolTableRecord
100
AcDbBlockTableRecord
  2
Group-5-1
340
0
102
{BLKREFS
331
3EF
102
}
  0
BLOCK_RECORD
  5
5A
330
1
100
AcDbSymbolTableRecord
100
AcDbBlockTableRecord
  2
Group-6-1
340
0
102
{BLKREFS
331
3F4
102
}
  0
BLOCK_RECORD
  5
5D
330
1
100
AcDbSymbolTableRecord
100
AcDbBlockTableRecord
  2
Group-7-1
340
0
102
{BLKREFS
331
3F5
102
}
  0
BLOCK_RECORD
  5
60
330
1
100
AcDbSymbolTableRecord
100
AcDbBlockTableRecord
  2
Group-8-1
340
0
102
{BLKREFS
331
3FE
102
}
  0
BLOCK_RECORD
  5
63
330
1
100
AcDbSymbolTableRecord
100
AcDbBlockTableRecord
  2
Group-9-1
340
0
102
{BLKREFS
331
417
102
}
  0
BLOCK_RECORD
  5
66
330
1
100
AcDbSymbolTableRecord
100
AcDbBlockTableRecord
  2
Group-10-1
340
0
102
{BLKREFS
331
447
102
}
  0
BLOCK_RECORD
  5
69
330
1
100
AcDbSymbolTableRecord
100
AcDbBlockTableRecord
  2
Group-11-1
340
0
102
{BLKREFS
331
4CC
102
}
  0
BLOCK_RECORD
  5
6C
330
1
100
AcDbSymbolTableRecord
100
AcDbBlockTableRecord
  2
Group-12-1
340
0
102
{BLKREFS
331
4ED
102
}
  0
BLOCK_RECORD
  5
6F
330
1
100
AcDbSymbolTableRecord
100
AcDbBlockTableRecord
  2
Group-13-1
340
0
102
{BLKREFS
331
498
102
}
  0
BLOCK_RECORD
  5
72
330
1
100
AcDbSymbolTableRecord
100
AcDbBlockTableRecord
  2
Group-14-1
340
0
102
{BLKREFS
331
4A5
102
}
  0
BLOCK_RECORD
  5
75
330
1
100
AcDbSymbolTableRecord
100
AcDbBlockTableRecord
  2
Group-15-1
340
0
102
{BLKREFS
331
4A8
102
}
  0
BLOCK_RECORD
  5
78
330
1
100
AcDbSymbolTableRecord
100
AcDbBlockTableRecord
  2
Group-16-1
340
0
102
{BLKREFS
331
4EE
102
}
  0
BLOCK_RECORD
  5
92
330
1
100
AcDbSymbolTableRecord
100
AcDbBlockTableRecord
  2
VW_SLASH
340
0
  0
BLOCK_RECORD
  5
9B
330
1
100
AcDbSymbolTableRecord
100
AcDbBlockTableRecord
  2
VW_FILLEDARROW
340
0
102
{BLKREFS
331
26F
331
26E
331
283
331
282
331
297
331
296
331
2AB
331
2AA
102
}
  0
ENDTAB
  0
ENDSEC
  0
SECTION
  2
BLOCKS
  0
BLOCK
  5
20
330
1F
100
AcDbEntity
  8
0
100
AcDbBlockBegin
  2
*Model_Space
 70
     0
 10
0.0
 20
0.0
 30
0.0
  3
*Model_Space
  1

  0
ENDBLK
  5
21
330
1F
100
AcDbEntity
  8
0
100
AcDbBlockEnd
  0
BLOCK
  5
1C
330
1B
100
AcDbEntity
 67
     1
  8
0
100
AcDbBlockBegin
  2
*Paper_Space
 70
     0
 10
0.0
 20
0.0
 30
0.0
  3
*Paper_Space
  1

  0
ENDBLK
  5
1D
330
1B
100
AcDbEntity
 67
     1
  8
0
100
AcDbBlockEnd
  0
BLOCK
  5
40
330
3F
100
AcDbEntity
  8
0
100
AcDbBlockBegin
  2
Group-1
 70
     0
 10
0.0
 20
0.0
 30
0.0
  3
Group-1
  1

  0
ELLIPSE
  5
A6
330
3F
100
AcDbEntity
  8
None
  6
Continuous
 62
     7
370
    20
100
AcDbEllipse
 10
-7.452929080540777
 20
4.461161964625585
 30
0.0
 11
0.3453220542379974
 21
0.0
 31
0.0
210
0.0
220
0.0
230
1.0
 40
1.0
 41
0.0
 42
6.283185307179586
  0
POLYLINE
  5
A7
102
{ACAD_REACTORS
330
B2
102
}
330
3F
100
AcDbEntity
  8
None
  6
Continuous
 62
     7
370
    20
100
AcDb2dPolyline
 66
     1
 10
0.0
 20
0.0
 30
0.0
 70
     1
  0
VERTEX
  5
A8
330
A7
100
AcDbEntity
  8
None
  6
Continuous
 62
     7
370
    20
100
AcDbVertex
100
AcDb2dVertex
 10
-7.483269766870236
 20
4.180979528895537
 30
0.0
  0
VERTEX
  5
A9
330
A7
100
AcDbEntity
  8
None
  6
Continuous
 62
     7
370
    20
100
AcDbVertex
100
AcDb2dVertex
 10
-7.413147841763736
 20
4.180979528895537
 30
0.0
  0
VERTEX
  5
AA
330
A7
100
AcDbEntity
  8
None
  6
Continuous
 62
     7
370
    20
100
AcDbVertex
100
AcDb2dVertex
 10
-7.413147841763736
 20
4.617134820022656
 30
0.0
  0
VERTEX
  5
AB
330
A7
100
AcDbEntity
  8
None
  6
Continuous
 62
     7
370
    20
100
AcDbVertex
100
AcDb2dVertex
 10
-7.170642528469851
 20
4.374629368599948
 30
0.0
  0
VERTEX
  5
AC
330
A7
100
AcDbEntity
  8
None
  6
Continuous
 62
     7
370
    20
100
AcDbVertex
100
AcDb2dVertex
 10
-7.170642528469851
 20
4.464115158833429
 30
0.0
  0
VERTEX
  5
AD
330
A7
100
AcDbEntity
  8
None
  6
Continuous
 62
     7
370
    20
100
AcDbVertex
100
AcDb2dVertex
 10
-7.448208804316989
 20
4.74168143468057
 30
0.0
  0
VERTEX
  5
AE
330
A7
100
AcDbEntity
  8
None
  6
Continuous
 62
     7
370
    20
100
AcDbVertex
100
AcDb2dVertex
 10
-7.73161820557948
 20
4.458272033418078
 30
0.0
  0
VERTEX
  5
AF
330
A7
100
AcDbEntity
  8
None
  6
Continuous
 62
     7
370
    20
100
AcDbVertex
100
AcDb2dVertex
 10
-7.73161820557948
 20
4.368785276282842
 30
0.0
  0
VERTEX
  5
B0
330
A7
100
AcDbEntity
  8
None
  6
Continuous
 62
     7
370
    20
100
AcDbVertex
100
AcDb2dVertex
 10
-7.483269766870236
 20
4.617134820022656
 30
0.0
  0
SEQEND
  5
B1
330
A7
100
AcDbEntity
  8
None
  6
Continuous
 62
     7
370
    20
  0
HATCH
  5
B2
330
3F
100
AcDbEntity
  8
None
  6
Continuous
 62
     7
370
     0
100
AcDbHatch
 10
0.0
 20
0.0
 30
0.0
210
0.0
220
0.0
230
1.0
  2
SOLID
 70
     1
 71
     1
 91
        1
 92
        1
 93
        9
 72
     1
 10
-7.483269766870236
 20
4.180979528895537
 11
-7.413147841763736
 21
4.180979528895537
 72
     1
 10
-7.413147841763736
 20
4.180979528895537
 11
-7.413147841763736
 21
4.617134820022656
 72
     1
 10
-7.413147841763736
 20
4.617134820022656
 11
-7.170642528469851
 21
4.374629368599948
 72
     1
 10
-7.170642528469851
 20
4.374629368599948
 11
-7.170642528469851
 21
4.464115158833429
 72
     1
 10
-7.170642528469851
 20
4.464115158833429
 11
-7.448208804316989
 21
4.74168143468057
 72
     1
 10
-7.448208804316989
 20
4.74168143468057
 11
-7.73161820557948
 21
4.458272033418078
 72
     1
 10
-7.73161820557948
 20
4.458272033418078
 11
-7.73161820557948
 21
4.368785276282842
 72
     1
 10
-7.73161820557948
 20
4.368785276282842
 11
-7.483269766870236
 21
4.617134820022656
 72
     1
 10
-7.483269766870236
 20
4.617134820022656
 11
-7.483269766870236
 21
4.180979528895537
 97
        1
330
A7
 75
     0
 76
     1
 98
        1
 10
0.0
 20
0.0
  0
ENDBLK
  5
41
330
3F
100
AcDbEntity
  8
0
100
AcDbBlockEnd
  0
BLOCK
  5
43
330
42
100
AcDbEntity
  8
0
100
AcDbBlockBegin
  2
Group-2-1
 70
     0
 10
0.0
 20
0.0
 30
0.0
  3
Group-2-1
  1

  0
LINE
  5
B3
330
42
100
AcDbEntity
  8
A-ARCH
  6
Continuous
 62
   250
370
     9
100
AcDbLine
 10
7.863555103975447
 20
-3.424102189536526
 30
0.0
 11
7.863555103975447
 21
-4.701284458089557
 31
0.0
  0
POLYLINE
  5
B4
330
42
100
AcDbEntity
  8
WINDOW
  6
Continuous
 62
   250
370
     9
100
AcDb2dPolyline
 66
     1
 10
0.0
 20
0.0
 30
0.0
 70
     1
  0
VERTEX
  5
B5
330
B4
100
AcDbEntity
  8
WINDOW
  6
Continuous
 62
   250
370
     9
100
AcDbVertex
100
AcDb2dVertex
 10
5.440053378592385
 20
-3.678295151429747
 30
0.0
  0
VERTEX
  5
B6
330
B4
100
AcDbEntity
  8
WINDOW
  6
Continuous
 62
   250
370
     9
100
AcDbVertex
100
AcDb2dVertex
 10
5.547409834694519
 20
-3.661923859915148
 30
0.0
  0
VERTEX
  5
B7
330
B4
100
AcDbEntity
  8
WINDOW
  6
Continuous
 62
   250
370
     9
100
AcDbVertex
100
AcDb2dVertex
 10
5.649637126465617
 20
-3.625881138295007
 30
0.0
  0
VERTEX
  5
B8
330
B4
100
AcDbEntity
  8
WINDOW
  6
Continuous
 62
   250
370
     9
100
AcDbVertex
100
AcDb2dVertex
 10
5.754114163761181
 20
-3.573900338677198
 30
0.0
  0
VERTEX
  5
B9
330
B4
100
AcDbEntity
  8
WINDOW
  6
Continuous
 62
   250
370
     9
100
AcDbVertex
100
AcDb2dVertex
 10
5.923262810258285
 20
-3.643564729196933
 30
0.0
  0
VERTEX
  5
BA
330
B4
100
AcDbEntity
  8
WINDOW
  6
Continuous
 62
   250
370
     9
100
AcDbVertex
100
AcDb2dVertex
 10
5.923262810258285
 20
-3.726262697998546
 30
0.0
  0
VERTEX
  5
BB
330
B4
100
AcDbEntity
  8
WINDOW
  6
Continuous
 62
   250
370
     9
100
AcDbVertex
100
AcDb2dVertex
 10
5.3514519375272
 20
-3.726262697998546
 30
0.0
  0
VERTEX
  5
BC
330
B4
100
AcDbEntity
  8
WINDOW
  6
Continuous
 62
   250
370
     9
100
AcDbVertex
100
AcDb2dVertex
 10
5.3514519375272
 20
-3.702450924143875
 30
0.0
  0
VERTEX
  5
BD
330
B4
100
AcDbEntity
  8
WINDOW
  6
Continuous
 62
   250
370
     9
100
AcDbVertex
100
AcDb2dVertex
 10
5.351204396922495
 20
-3.678893934491183
 30
0.0
  0
SEQEND
  5
BE
330
B4
100
AcDbEntity
  8
WINDOW
  6
Continuous
 62
   250
370
     9
  0
POLYLINE
  5
BF
330
42
100
AcDbEntity
  8
None
  6
Continuous
 62
   250
370
     9
100
AcDb2dPolyline
 66
     1
 10
0.0
 20
0.0
 30
0.0
 70
     1
  0
VERTEX
  5
C0
330
BF
100
AcDbEntity
  8
None
  6
Continuous
 62
   250
370
     9
100
AcDbVertex
100
AcDb2dVertex
 10
6.008229334465643
 20
-3.844487077747153
 30
0.0
  0
VERTEX
  5
C1
330
BF
100
AcDbEntity
  8
None
  6
Continuous
 62
   250
370
     9
100
AcDbVertex
100
AcDb2dVertex
 10
6.008229334465643
 20
-3.927601057945823
 30
0.0
  0
VERTEX
  5
C2
330
BF
100
AcDbEntity
  8
None
  6
Continuous
 62
   250
370
     9
100
AcDbVertex
100
AcDb2dVertex
 10
5.955510926651987
 20
-3.927601057945823
 30
0.0
  0
VERTEX
  5
C3
330
BF
100
AcDbEntity
  8
None
  6
Continuous
 62
   250
370
     9
100
AcDbVertex
100
AcDb2dVertex
 10
5.955510926651987
 20
-3.844487077747153
 30
0.0
  0
SEQEND
  5
C4
330
BF
100
AcDbEntity
  8
None
  6
Continuous
 62
   250
370
     9
  0
POLYLINE
  5
C5
330
42
100
AcDbEntity
  8
WINDOW
  6
Continuous
 62
   250
370
     9
100
AcDb2dPolyline
 66
     1
 10
0.0
 20
0.0
 30
0.0
 70
     1
  0
VERTEX
  5
C6
330
C5
100
AcDbEntity
  8
WINDOW
  6
Continuous
 62
   250
370
     9
100
AcDbVertex
100
AcDb2dVertex
 10
5.979663384592793
 20
-3.44825464747733
 30
0.0
  0
VERTEX
  5
C7
330
C5
100
AcDbEntity
  8
WINDOW
  6
Continuous
 62
   250
370
     9
100
AcDbVertex
100
AcDb2dVertex
 10
5.979203884080467
 20
-3.440725319984767
 30
0.0
  0
VERTEX
  5
C8
330
C5
100
AcDbEntity
  8
WINDOW
  6
Continuous
 62
   250
370
     9
100
AcDbVertex
100
AcDb2dVertex
 10
6.07684401944534
 20
-3.387585484564378
 30
0.0
  0
VERTEX
  5
C9
330
C5
100
AcDbEntity
  8
WINDOW
  6
Continuous
 62
   250
370
     9
100
AcDbVertex
100
AcDb2dVertex
 10
6.102405773306988
 20
-3.376074221839308
 30
0.0
  0
VERTEX
  5
CA
330
C5
100
AcDbEntity
  8
WINDOW
  6
Continuous
 62
   250
370
     9
100
AcDbVertex
100
AcDb2dVertex
 10
6.118434552019402
 20
-3.370905998380941
 30
0.0
  0
VERTEX
  5
CB
330
C5
100
AcDbEntity
  8
WINDOW
  6
Continuous
 62
   250
370
     9
100
AcDbVertex
100
AcDb2dVertex
 10
6.14548953159324
 20
-3.36580117512467
 30
0.0
  0
VERTEX
  5
CC
330
C5
100
AcDbEntity
  8
WINDOW
  6
Continuous
 62
   250
370
     9
100
AcDbVertex
100
AcDb2dVertex
 10
6.18845816316331
 20
-3.36383597013022
 30
0.0
  0
VERTEX
  5
CD
330
C5
100
AcDbEntity
  8
WINDOW
  6
Continuous
 62
   250
370
     9
100
AcDbVertex
100
AcDb2dVertex
 10
7.51063797965105
 20
-3.36383597013022
 30
0.0
  0
VERTEX
  5
CE
330
C5
100
AcDbEntity
  8
WINDOW
  6
Continuous
 62
   250
370
     9
100
AcDbVertex
100
AcDb2dVertex
 10
7.510944313325931
 20
-3.382110726160646
 30
0.0
  0
VERTEX
  5
CF
330
C5
100
AcDbEntity
  8
WINDOW
  6
Continuous
 62
   250
370
     9
100
AcDbVertex
100
AcDb2dVertex
 10
6.119098140801325
 20
-3.382263691727604
 30
0.0
  0
SEQEND
  5
D0
330
C5
100
AcDbEntity
  8
WINDOW
  6
Continuous
 62
   250
370
     9
  0
POLYLINE
  5
D1
330
42
100
AcDbEntity
  8
WINDOW
  6
Continuous
 62
   250
370
     9
100
AcDb2dPolyline
 66
     1
 10
0.0
 20
0.0
 30
0.0
 70
     1
  0
VERTEX
  5
D2
330
D1
100
AcDbEntity
  8
WINDOW
  6
Continuous
 62
   250
370
     9
100
AcDbVertex
100
AcDb2dVertex
 10
7.509771912763388
 20
-3.419652099160933
 30
0.0
  0
VERTEX
  5
D3
330
D1
100
AcDbEntity
  8
WINDOW
  6
Continuous
 62
   250
370
     9
100
AcDbVertex
100
AcDb2dVertex
 10
6.552029137955878
 20
-3.419652099160934
 30
0.0
  0
VERTEX
  5
D4
330
D1
100
AcDbEntity
  8
WINDOW
  6
Continuous
 62
   250
370
     9
100
AcDbVertex
100
AcDb2dVertex
 10
6.552029137955878
 20
-3.404886695269306
 30
0.0
  0
VERTEX
  5
D5
330
D1
100
AcDbEntity
  8
WINDOW
  6
Continuous
 62
   250
370
     9
100
AcDbVertex
100
AcDb2dVertex
 10
7.509771912763388
 20
-3.404874015228887
 30
0.0
  0
SEQEND
  5
D6
330
D1
100
AcDbEntity
  8
WINDOW
  6
Continuous
 62
   250
370
     9
  0
POLYLINE
  5
D7
330
42
100
AcDbEntity
  8
WINDOW
  6
Continuous
 62
   250
370
     9
100
AcDb2dPolyline
 66
     1
 10
0.0
 20
0.0
 30
0.0
 70
     1
  0
VERTEX
  5
D8
330
D7
100
AcDbEntity
  8
WINDOW
  6
Continuous
 62
   250
370
     9
100
AcDbVertex
100
AcDb2dVertex
 10
6.027968300474397
 20
-3.436178418506927
 30
0.0
  0
VERTEX
  5
D9
330
D7
100
AcDbEntity
  8
WINDOW
  6
Continuous
 62
   250
370
     9
100
AcDbVertex
100
AcDb2dVertex
 10
6.030443927413329
 20
-3.441372404587098
 30
0.0
  0
VERTEX
  5
DA
330
D7
100
AcDbEntity
  8
WINDOW
  6
Continuous
 62
   250
370
     9
100
AcDbVertex
100
AcDb2dVertex
 10
6.287529331661174
 20
-3.420047595659713
 30
0.0
  0
VERTEX
  5
DB
330
D7
100
AcDbEntity
  8
WINDOW
  6
Continuous
 62
   250
370
     9
100
AcDbVertex
100
AcDb2dVertex
 10
6.552029137955878
 20
-3.419652099160933
 30
0.0
  0
VERTEX
  5
DC
330
D7
100
AcDbEntity
  8
WINDOW
  6
Continuous
 62
   250
370
     9
100
AcDbVertex
100
AcDb2dVertex
 10
6.552029137955878
 20
-3.404886695269306
 30
0.0
  0
VERTEX
  5
DD
330
D7
100
AcDbEntity
  8
WINDOW
  6
Continuous
 62
   250
370
     9
100
AcDbVertex
100
AcDb2dVertex
 10
7.509771912763388
 20
-3.404874015228887
 30
0.0
  0
VERTEX
  5
DE
330
D7
100
AcDbEntity
  8
WINDOW
  6
Continuous
 62
   250
370
     9
100
AcDbVertex
100
AcDb2dVertex
 10
7.509771912763388
 20
-3.39359260339522
 30
0.0
  0
VERTEX
  5
DF
330
D7
100
AcDbEntity
  8
WINDOW
  6
Continuous
 62
   250
370
     9
100
AcDbVertex
100
AcDb2dVertex
 10
6.119750659706694
 20
-3.39359260339522
 30
0.0
  0
SEQEND
  5
E0
330
D7
100
AcDbEntity
  8
WINDOW
  6
Continuous
 62
   250
370
     9
  0
POLYLINE
  5
E1
330
42
100
AcDbEntity
  8
WINDOW
  6
Continuous
 62
   250
370
     9
100
AcDb2dPolyline
 66
     1
 10
0.0
 20
0.0
 30
0.0
 70
     1
  0
VERTEX
  5
E2
330
E1
100
AcDbEntity
  8
WINDOW
  6
Continuous
 62
   250
370
     9
100
AcDbVertex
100
AcDb2dVertex
 10
6.668008435905684
 20
-3.44825464747733
 30
0.0
  0
VERTEX
  5
E3
330
E1
100
AcDbEntity
  8
WINDOW
  6
Continuous
 62
   250
370
     9
100
AcDbVertex
100
AcDb2dVertex
 10
6.668008435905684
 20
-3.625030311285242
 30
0.0
  0
VERTEX
  5
E4
330
E1
100
AcDbEntity
  8
WINDOW
  6
Continuous
 62
   250
370
     9
100
AcDbVertex
100
AcDb2dVertex
 10
6.619703520024079
 20
-3.590644373461467
 30
0.0
  0
VERTEX
  5
E5
330
E1
100
AcDbEntity
  8
WINDOW
  6
Continuous
 62
   250
370
     9
100
AcDbVertex
100
AcDb2dVertex
 10
6.619703520024079
 20
-3.44825464747733
 30
0.0
  0
SEQEND
  5
E6
330
E1
100
AcDbEntity
  8
WINDOW
  6
Continuous
 62
   250
370
     9
  0
POLYLINE
  5
E7
330
42
100
AcDbEntity
  8
None
  6
Continuous
 62
   250
370
     9
100
AcDb2dPolyline
 66
     1
 10
0.0
 20
0.0
 30
0.0
 70
     1
  0
VERTEX
  5
E8
330
E7
100
AcDbEntity
  8
None
  6
Continuous
 62
   250
370
     9
100
AcDbVertex
100
AcDb2dVertex
 10
6.827772526859668
 20
-3.629398082033353
 30
0.0
  0
VERTEX
  5
E9
330
E7
100
AcDbEntity
  8
None
  6
Continuous
 62
   250
370
     9
100
AcDbVertex
100
AcDb2dVertex
 10
6.827772526859668
 20
-3.581142645201538
 30
0.0
  0
VERTEX
  5
EA
330
E7
100
AcDbEntity
  8
None
  6
Continuous
 62
   250
370
     9
100
AcDbVertex
100
AcDb2dVertex
 10
6.8008469545801
 20
-3.581142645201538
 30
0.0
  0
VERTEX
  5
EB
330
E7
100
AcDbEntity
  8
None
  6
Continuous
 62
   250
370
     9
100
AcDbVertex
100
AcDb2dVertex
 10
6.8008469545801
 20
-3.629398082033353
 30
0.0
  0
VERTEX
  5
EC
330
E7
100
AcDbEntity
  8
None
  6
Continuous
 62
   250
370
     9
100
AcDbVertex
100
AcDb2dVertex
 10
6.668008435905684
 20
-3.629398082033353
 30
0.0
  0
VERTEX
  5
ED
330
E7
100
AcDbEntity
  8
None
  6
Continuous
 62
   250
370
     9
100
AcDbVertex
100
AcDb2dVertex
 10
6.668008435905684
 20
-3.44825464747733
 30
0.0
  0
VERTEX
  5
EE
330
E7
100
AcDbEntity
  8
None
  6
Continuous
 62
   250
370
     9
100
AcDbVertex
100
AcDb2dVertex
 10
6.994066618106531
 20
-3.44825464747733
 30
0.0
  0
VERTEX
  5
EF
330
E7
100
AcDbEntity
  8
None
  6
Continuous
 62
   250
370
     9
100
AcDbVertex
100
AcDb2dVertex
 10
6.994066618106531
 20
-3.608520093577875
 30
0.0
  0
VERTEX
  5
F0
330
E7
100
AcDbEntity
  8
None
  6
Continuous
 62
   250
370
     9
100
AcDbVertex
100
AcDb2dVertex
 10
6.961932577898221
 20
-3.608520093577875
 30
0.0
  0
VERTEX
  5
F1
330
E7
100
AcDbEntity
  8
None
  6
Continuous
 62
   250
370
     9
100
AcDbVertex
100
AcDb2dVertex
 10
6.961932577898221
 20
-3.629398082033353
 30
0.0
  0
SEQEND
  5
F2
330
E7
100
AcDbEntity
  8
None
  6
Continuous
 62
   250
370
     9
  0
POLYLINE
  5
F3
330
42
100
AcDbEntity
  8
FIXT
  6
Continuous
 62
   250
370
     9
100
AcDb2dPolyline
 66
     1
 10
0.0
 20
0.0
 30
0.0
 70
     1
  0
VERTEX
  5
F4
330
F3
100
AcDbEntity
  8
FIXT
  6
Continuous
 62
   250
370
     9
100
AcDbVertex
100
AcDb2dVertex
 10
6.994066618106531
 20
-3.629398082033353
 30
0.0
  0
VERTEX
  5
F5
330
F3
100
AcDbEntity
  8
FIXT
  6
Continuous
 62
   250
370
     9
100
AcDbVertex
100
AcDb2dVertex
 10
6.994066618106531
 20
-3.608520093577875
 30
0.0
  0
VERTEX
  5
F6
330
F3
100
AcDbEntity
  8
FIXT
  6
Continuous
 62
   250
370
     9
100
AcDbVertex
100
AcDb2dVertex
 10
6.961932577898221
 20
-3.608520093577875
 30
0.0
  0
VERTEX
  5
F7
330
F3
100
AcDbEntity
  8
FIXT
  6
Continuous
 62
   250
370
     9
100
AcDbVertex
100
AcDb2dVertex
 10
6.961932577898221
 20
-3.629398082033353
 30
0.0
  0
SEQEND
  5
F8
330
F3
100
AcDbEntity
  8
FIXT
  6
Continuous
 62
   250
370
     9
  0
POLYLINE
  5
F9
330
42
100
AcDbEntity
  8
None
  6
Continuous
 62
   250
370
     9
100
AcDb2dPolyline
 66
     1
 10
0.0
 20
0.0
 30
0.0
 70
     1
  0
VERTEX
  5
FA
330
F9
100
AcDbEntity
  8
None
  6
Continuous
 62
   250
370
     9
100
AcDbVertex
100
AcDb2dVertex
 10
7.138981365751348
 20
-3.460330876447733
 30
0.0
  0
VERTEX
  5
FB
330
F9
100
AcDbEntity
  8
None
  6
Continuous
 62
   250
370
     9
100
AcDbVertex
100
AcDb2dVertex
 10
7.288809727895122
 20
-3.460330876447733
 30
0.0
  0
VERTEX
  5
FC
330
F9
100
AcDbEntity
  8
None
  6
Continuous
 62
   250
370
     9
100
AcDbVertex
100
AcDb2dVertex
 10
7.288809727895122
 20
-3.543644377573567
 30
0.0
  0
VERTEX
  5
FD
330
F9
100
AcDbEntity
  8
None
  6
Continuous
 62
   250
370
     9
100
AcDbVertex
100
AcDb2dVertex
 10
7.138981365751348
 20
-3.543644377573567
 30
0.0
  0
SEQEND
  5
FE
330
F9
100
AcDbEntity
  8
None
  6
Continuous
 62
   250
370
     9
  0
POLYLINE
  5
FF
330
42
100
AcDbEntity
  8
None
  6
Continuous
 62
   250
370
     9
100
AcDb2dPolyline
 66
     1
 10
0.0
 20
0.0
 30
0.0
 70
     1
  0
VERTEX
  5
100
330
FF
100
AcDbEntity
  8
None
  6
Continuous
 62
   250
370
     9
100
AcDbVertex
100
AcDb2dVertex
 10
7.492533297178625
 20
-3.641474311003756
 30
0.0
  0
VERTEX
  5
101
330
FF
100
AcDbEntity
  8
None
  6
Continuous
 62
   250
370
     9
100
AcDbVertex
100
AcDb2dVertex
 10
7.389572219566197
 20
-3.641474311003756
 30
0.0
  0
VERTEX
  5
102
330
FF
100
AcDbEntity
  8
None
  6
Continuous
 62
   250
370
     9
100
AcDbVertex
100
AcDb2dVertex
 10
7.389572219566197
 20
-3.626485857158475
 30
0.0
  0
VERTEX
  5
103
330
FF
100
AcDbEntity
  8
None
  6
Continuous
 62
   250
370
     9
100
AcDbVertex
100
AcDb2dVertex
 10
7.360209024587863
 20
-3.626485857158475
 30
0.0
  0
VERTEX
  5
104
330
FF
100
AcDbEntity
  8
None
  6
Continuous
 62
   250
370
     9
100
AcDbVertex
100
AcDb2dVertex
 10
7.360209024587863
 20
-3.641474311003756
 30
0.0
  0
VERTEX
  5
105
330
FF
100
AcDbEntity
  8
None
  6
Continuous
 62
   250
370
     9
100
AcDbVertex
100
AcDb2dVertex
 10
7.307073617118094
 20
-3.641474311003756
 30
0.0
  0
VERTEX
  5
106
330
FF
100
AcDbEntity
  8
None
  6
Continuous
 62
   250
370
     9
100
AcDbVertex
100
AcDb2dVertex
 10
7.307073617118094
 20
-3.569016937181346
 30
0.0
  0
VERTEX
  5
107
330
FF
100
AcDbEntity
  8
None
  6
Continuous
 62
   250
370
     9
100
AcDbVertex
100
AcDb2dVertex
 10
7.492533297178625
 20
-3.569016937181346
 30
0.0
  0
SEQEND
  5
108
330
FF
100
AcDbEntity
  8
None
  6
Continuous
 62
   250
370
     9
  0
POLYLINE
  5
109
330
42
100
AcDbEntity
  8
None
  6
Continuous
 62
   250
370
     9
100
AcDb2dPolyline
 66
     1
 10
0.0
 20
0.0
 30
0.0
 70
     1
  0
VERTEX
  5
10A
330
109
100
AcDbEntity
  8
None
  6
Continuous
 62
   250
370
     9
100
AcDbVertex
100
AcDb2dVertex
 10
7.320124800307372
 20
-3.460330876447731
 30
0.0
  0
VERTEX
  5
10B
330
109
100
AcDbEntity
  8
None
  6
Continuous
 62
   250
370
     9
100
AcDbVertex
100
AcDb2dVertex
 10
7.320124800307372
 20
-3.551009426093465
 30
0.0
  0
VERTEX
  5
10C
330
109
100
AcDbEntity
  8
None
  6
Continuous
 62
   250
370
     9
100
AcDbVertex
100
AcDb2dVertex
 10
7.490632297468201
 20
-3.551009426093465
 30
0.0
  0
VERTEX
  5
10D
330
109
100
AcDbEntity
  8
None
  6
Continuous
 62
   250
370
     9
100
AcDbVertex
100
AcDb2dVertex
 10
7.490632297468201
 20
-3.460330876447731
 30
0.0
  0
SEQEND
  5
10E
330
109
100
AcDbEntity
  8
None
  6
Continuous
 62
   250
370
     9
  0
POLYLINE
  5
10F
330
42
100
AcDbEntity
  8
WINDOW
  6
Continuous
 62
   250
370
     9
100
AcDb2dPolyline
 66
     1
 10
0.0
 20
0.0
 30
0.0
 70
     1
  0
VERTEX
  5
110
330
10F
100
AcDbEntity
  8
WINDOW
  6
Continuous
 62
   250
370
     9
100
AcDbVertex
100
AcDb2dVertex
 10
6.803675880372306
 20
-4.093014175400041
 30
0.0
  0
VERTEX
  5
111
330
10F
100
AcDbEntity
  8
WINDOW
  6
Continuous
 62
   250
370
     9
100
AcDbVertex
100
AcDb2dVertex
 10
6.803675880372306
 20
-4.146231398931253
 30
0.0
  0
VERTEX
  5
112
330
10F
100
AcDbEntity
  8
WINDOW
  6
Continuous
 62
   250
370
     9
100
AcDbVertex
100
AcDb2dVertex
 10
6.701452064131368
 20
-4.146231398931253
 30
0.0
  0
VERTEX
  5
113
330
10F
100
AcDbEntity
  8
WINDOW
  6
Continuous
 62
   250
370
     9
100
AcDbVertex
100
AcDb2dVertex
 10
6.701452064131368
 20
-4.093014175400041
 30
0.0
  0
SEQEND
  5
114
330
10F
100
AcDbEntity
  8
WINDOW
  6
Continuous
 62
   250
370
     9
  0
POLYLINE
  5
115
330
42
100
AcDbEntity
  8
WINDOW
  6
Continuous
 62
   250
370
     9
100
AcDb2dPolyline
 66
     1
 10
0.0
 20
0.0
 30
0.0
 70
     1
  0
VERTEX
  5
116
330
115
100
AcDbEntity
  8
WINDOW
  6
Continuous
 62
   250
370
     9
100
AcDbVertex
100
AcDb2dVertex
 10
4.818743894202274
 20
-3.726020593836988
 30
0.0
  0
VERTEX
  5
117
330
115
100
AcDbEntity
  8
WINDOW
  6
Continuous
 62
   250
370
     9
100
AcDbVertex
100
AcDb2dVertex
 10
5.267165875339094
 20
-3.726007913796568
 30
0.0
  0
VERTEX
  5
118
330
115
100
AcDbEntity
  8
WINDOW
  6
Continuous
 62
   250
370
     9
100
AcDbVertex
100
AcDb2dVertex
 10
5.267165875339094
 20
-3.678827697373072
 30
0.0
  0
VERTEX
  5
119
330
115
100
AcDbEntity
  8
WINDOW
  6
Continuous
 62
   250
370
     9
100
AcDbVertex
100
AcDb2dVertex
 10
4.82341457702706
 20
-3.678827697373072
 30
0.0
  0
VERTEX
  5
11A
330
115
100
AcDbEntity
  8
WINDOW
  6
Continuous
 62
   250
370
     9
100
AcDbVertex
100
AcDb2dVertex
 10
4.795057981240693
 20
-3.684621469492104
 30
0.0
  0
VERTEX
  5
11B
330
115
100
AcDbEntity
  8
WINDOW
  6
Continuous
 62
   250
370
     9
100
AcDbVertex
100
AcDb2dVertex
 10
4.775277319457658
 20
-3.697115334714399
 30
0.0
  0
VERTEX
  5
11C
330
115
100
AcDbEntity
  8
WINDOW
  6
Continuous
 62
   250
370
     9
100
AcDbVertex
100
AcDb2dVertex
 10
4.761265069712818
 20
-3.713782140857414
 30
0.0
  0
VERTEX
  5
11D
330
115
100
AcDbEntity
  8
WINDOW
  6
Continuous
 62
   250
370
     9
100
AcDbVertex
100
AcDb2dVertex
 10
4.752676254398586
 20
-3.733779772220953
 30
0.0
  0
VERTEX
  5
11E
330
115
100
AcDbEntity
  8
WINDOW
  6
Continuous
 62
   250
370
     9
100
AcDbVertex
100
AcDb2dVertex
 10
4.755011797081461
 20
-4.388750353339796
 30
0.0
  0
VERTEX
  5
11F
330
115
100
AcDbEntity
  8
WINDOW
  6
Continuous
 62
   250
370
     9
100
AcDbVertex
100
AcDb2dVertex
 10
4.752050907008402
 20
-4.472416279081084
 30
0.0
  0
VERTEX
  5
120
330
115
100
AcDbEntity
  8
WINDOW
  6
Continuous
 62
   250
370
     9
100
AcDbVertex
100
AcDb2dVertex
 10
4.725927608499632
 20
-4.625276380306496
 30
0.0
  0
VERTEX
  5
121
330
115
100
AcDbEntity
  8
WINDOW
  6
Continuous
 62
   250
370
     9
100
AcDbVertex
100
AcDb2dVertex
 10
4.700519021475422
 20
-4.69956249773599
 30
0.0
  0
VERTEX
  5
122
330
115
100
AcDbEntity
  8
WINDOW
  6
Continuous
 62
   250
370
     9
100
AcDbVertex
100
AcDb2dVertex
 10
4.766990586519199
 20
-4.701092176891843
 30
0.0
  0
VERTEX
  5
123
330
115
100
AcDbEntity
  8
WINDOW
  6
Continuous
 62
   250
370
     9
100
AcDbVertex
100
AcDb2dVertex
 10
4.76985399670947
 20
-4.701092176891843
 30
0.0
  0
VERTEX
  5
124
330
115
100
AcDbEntity
  8
WINDOW
  6
Continuous
 62
   250
370
     9
100
AcDbVertex
100
AcDb2dVertex
 10
4.794190304189169
 20
-4.580112692850575
 30
0.0
  0
VERTEX
  5
125
330
115
100
AcDbEntity
  8
WINDOW
  6
Continuous
 62
   250
370
     9
100
AcDbVertex
100
AcDb2dVertex
 10
4.804144337188506
 20
-4.314477117221203
 30
0.0
  0
VERTEX
  5
126
330
115
100
AcDbEntity
  8
WINDOW
  6
Continuous
 62
   250
370
     9
100
AcDbVertex
100
AcDb2dVertex
 10
4.804067854405027
 20
-3.740913603214735
 30
0.0
  0
SEQEND
  5
127
330
115
100
AcDbEntity
  8
WINDOW
  6
Continuous
 62
   250
370
     9
  0
POLYLINE
  5
128
330
42
100
AcDbEntity
  8
WINDOW
  6
Continuous
 62
   250
370
     9
100
AcDb2dPolyline
 66
     1
 10
0.0
 20
0.0
 30
0.0
 70
     1
  0
VERTEX
  5
129
330
128
100
AcDbEntity
  8
WINDOW
  6
Continuous
 62
   250
370
     9
100
AcDbVertex
100
AcDb2dVertex
 10
5.267165875339094
 20
-3.726007913796568
 30
0.0
  0
VERTEX
  5
12A
330
128
100
AcDbEntity
  8
WINDOW
  6
Continuous
 62
   250
370
     9
100
AcDbVertex
100
AcDb2dVertex
 10
4.818041862758128
 20
-3.726020593836988
 30
0.0
  0
VERTEX
  5
12B
330
128
100
AcDbEntity
  8
WINDOW
  6
Continuous
 62
   250
370
     9
100
AcDbVertex
100
AcDb2dVertex
 10
4.804284823985529
 20
-3.740913603214735
 30
0.0
  0
VERTEX
  5
12C
330
128
100
AcDbEntity
  8
WINDOW
  6
Continuous
 62
   250
370
     9
100
AcDbVertex
100
AcDb2dVertex
 10
4.803940248918907
 20
-4.325413953988248
 30
0.0
  0
VERTEX
  5
12D
330
128
100
AcDbEntity
  8
WINDOW
  6
Continuous
 62
   250
370
     9
100
AcDbVertex
100
AcDb2dVertex
 10
4.794407273769672
 20
-4.580112692850575
 30
0.0
  0
VERTEX
  5
12E
330
128
100
AcDbEntity
  8
WINDOW
  6
Continuous
 62
   250
370
     9
100
AcDbVertex
100
AcDb2dVertex
 10
4.770070966289972
 20
-4.701092176891843
 30
0.0
  0
VERTEX
  5
12F
330
128
100
AcDbEntity
  8
WINDOW
  6
Continuous
 62
   250
370
     9
100
AcDbVertex
100
AcDb2dVertex
 10
4.831007908533164
 20
-4.701092176891843
 30
0.0
  0
VERTEX
  5
130
330
128
100
AcDbEntity
  8
WINDOW
  6
Continuous
 62
   250
370
     9
100
AcDbVertex
100
AcDb2dVertex
 10
4.831007908533164
 20
-3.79715441296424
 30
0.0
  0
VERTEX
  5
131
330
128
100
AcDbEntity
  8
WINDOW
  6
Continuous
 62
   250
370
     9
100
AcDbVertex
100
AcDb2dVertex
 10
4.869012404914465
 20
-3.79715441296424
 30
0.0
  0
VERTEX
  5
132
330
128
100
AcDbEntity
  8
WINDOW
  6
Continuous
 62
   250
370
     9
100
AcDbVertex
100
AcDb2dVertex
 10
4.869012404914465
 20
-3.750854956173652
 30
0.0
  0
VERTEX
  5
133
330
128
100
AcDbEntity
  8
WINDOW
  6
Continuous
 62
   250
370
     9
100
AcDbVertex
100
AcDb2dVertex
 10
5.267165875339094
 20
-3.750854956173652
 30
0.0
  0
SEQEND
  5
134
330
128
100
AcDbEntity
  8
WINDOW
  6
Continuous
 62
   250
370
     9
  0
POLYLINE
  5
135
330
42
100
AcDbEntity
  8
WINDOW
  6
Continuous
 62
   250
370
     9
100
AcDb2dPolyline
 66
     1
 10
0.0
 20
0.0
 30
0.0
 70
     1
  0
VERTEX
  5
136
330
135
100
AcDbEntity
  8
WINDOW
  6
Continuous
 62
   250
370
     9
100
AcDbVertex
100
AcDb2dVertex
 10
5.883053552829576
 20
-3.508635792329338
 30
0.0
  0
VERTEX
  5
137
330
135
100
AcDbEntity
  8
WINDOW
  6
Continuous
 62
   250
370
     9
100
AcDbVertex
100
AcDb2dVertex
 10
5.85474787847537
 20
-3.529437298001337
 30
0.0
  0
VERTEX
  5
138
330
135
100
AcDbEntity
  8
WINDOW
  6
Continuous
 62
   250
370
     9
100
AcDbVertex
100
AcDb2dVertex
 10
5.850830148526891
 20
-3.51776038966889
 30
0.0
  0
VERTEX
  5
139
330
135
100
AcDbEntity
  8
WINDOW
  6
Continuous
 62
   250
370
     9
100
AcDbVertex
100
AcDb2dVertex
 10
5.869130465908635
 20
-3.504169197774152
 30
0.0
  0
SEQEND
  5
13A
330
135
100
AcDbEntity
  8
WINDOW
  6
Continuous
 62
   250
370
     9
  0
POLYLINE
  5
13B
330
42
100
AcDbEntity
  8
WINDOW
  6
Continuous
 62
   250
370
     9
100
AcDb2dPolyline
 66
     1
 10
0.0
 20
0.0
 30
0.0
 70
     1
  0
VERTEX
  5
13C
330
13B
100
AcDbEntity
  8
WINDOW
  6
Continuous
 62
   250
370
     9
100
AcDbVertex
100
AcDb2dVertex
 10
5.895129781799979
 20
-3.520712021299739
 30
0.0
  0
VERTEX
  5
13D
330
13B
100
AcDbEntity
  8
WINDOW
  6
Continuous
 62
   250
370
     9
100
AcDbVertex
100
AcDb2dVertex
 10
5.868713030927226
 20
-3.540122546664831
 30
0.0
  0
VERTEX
  5
13E
330
13B
100
AcDbEntity
  8
WINDOW
  6
Continuous
 62
   250
370
     9
100
AcDbVertex
100
AcDb2dVertex
 10
5.897656531441553
 20
-3.561013617701695
 30
0.0
  0
VERTEX
  5
13F
330
13B
100
AcDbEntity
  8
WINDOW
  6
Continuous
 62
   250
370
     9
100
AcDbVertex
100
AcDb2dVertex
 10
5.992565627624766
 20
-3.603318861760322
 30
0.0
  0
VERTEX
  5
140
330
13B
100
AcDbEntity
  8
WINDOW
  6
Continuous
 62
   250
370
     9
100
AcDbVertex
100
AcDb2dVertex
 10
6.070718553570584
 20
-3.62145333226421
 30
0.0
  0
VERTEX
  5
141
330
13B
100
AcDbEntity
  8
WINDOW
  6
Continuous
 62
   250
370
     9
100
AcDbVertex
100
AcDb2dVertex
 10
6.070718553570584
 20
-3.600855713591327
 30
0.0
  0
VERTEX
  5
142
330
13B
100
AcDbEntity
  8
WINDOW
  6
Continuous
 62
   250
370
     9
100
AcDbVertex
100
AcDb2dVertex
 10
6.04602447676046
 20
-3.600855713591327
 30
0.0
  0
VERTEX
  5
143
330
13B
100
AcDbEntity
  8
WINDOW
  6
Continuous
 62
   250
370
     9
100
AcDbVertex
100
AcDb2dVertex
 10
6.04602447676046
 20
-3.574298677192034
 30
0.0
  0
VERTEX
  5
144
330
13B
100
AcDbEntity
  8
WINDOW
  6
Continuous
 62
   250
370
     9
100
AcDbVertex
100
AcDb2dVertex
 10
6.068421453549931
 20
-3.574298677192034
 30
0.0
  0
VERTEX
  5
145
330
13B
100
AcDbEntity
  8
WINDOW
  6
Continuous
 62
   250
370
     9
100
AcDbVertex
100
AcDb2dVertex
 10
6.068421453549931
 20
-3.561013617701695
 30
0.0
  0
VERTEX
  5
146
330
13B
100
AcDbEntity
  8
WINDOW
  6
Continuous
 62
   250
370
     9
100
AcDbVertex
100
AcDb2dVertex
 10
6.037218893136209
 20
-3.561013617701695
 30
0.0
  0
VERTEX
  5
147
330
13B
100
AcDbEntity
  8
WINDOW
  6
Continuous
 62
   250
370
     9
100
AcDbVertex
100
AcDb2dVertex
 10
5.947899682072909
 20
-3.536842844146954
 30
0.0
  0
SEQEND
  5
148
330
13B
100
AcDbEntity
  8
WINDOW
  6
Continuous
 62
   250
370
     9
  0
LINE
  5
149
330
42
100
AcDbEntity
  8
A-ARCH
  6
Continuous
 62
   250
370
     9
100
AcDbLine
 10
6.668008435905684
 20
-3.44825464747733
 30
0.0
 11
6.668008435905684
 21
-3.627901635993438
 31
0.0
  0
LINE
  5
14A
330
42
100
AcDbEntity
  8
A-ARCH
  6
Continuous
 62
   250
370
     9
100
AcDbLine
 10
6.668008435905684
 20
-3.44825464747733
 30
0.0
 11
6.668008435905684
 21
-3.624328481111579
 31
0.0
  0
LINE
  5
14B
330
42
100
AcDbEntity
  8
A-ARCH
  6
Continuous
 62
   250
370
     9
100
AcDbLine
 10
6.994066618106531
 20
-3.44825464747733
 30
0.0
 11
6.994066618106531
 21
-3.624328481111579
 31
0.0
  0
POLYLINE
  5
14C
330
42
100
AcDbEntity
  8
FIXT
  6
Continuous
 62
   250
370
     9
100
AcDb2dPolyline
 66
     1
 10
0.0
 20
0.0
 30
0.0
 70
     1
  0
VERTEX
  5
14D
330
14C
100
AcDbEntity
  8
FIXT
  6
Continuous
 62
   250
370
     9
100
AcDbVertex
100
AcDb2dVertex
 10
7.271819884425766
 20
-3.550680926464334
 30
0.0
  0
VERTEX
  5
14E
330
14C
100
AcDbEntity
  8
FIXT
  6
Continuous
 62
   250
370
     9
100
AcDbVertex
100
AcDb2dVertex
 10
7.271819884425766
 20
-3.617935055764363
 30
0.0
  0
VERTEX
  5
14F
330
14C
100
AcDbEntity
  8
FIXT
  6
Continuous
 62
   250
370
     9
100
AcDbVertex
100
AcDb2dVertex
 10
7.144131072325293
 20
-3.617935055764363
 30
0.0
  0
VERTEX
  5
150
330
14C
100
AcDbEntity
  8
FIXT
  6
Continuous
 62
   250
370
     9
100
AcDbVertex
100
AcDb2dVertex
 10
7.144131072325293
 20
-3.550680926464334
 30
0.0
  0
SEQEND
  5
151
330
14C
100
AcDbEntity
  8
FIXT
  6
Continuous
 62
   250
370
     9
  0
POLYLINE
  5
152
330
42
100
AcDbEntity
  8
FIXT
  6
Continuous
 62
   250
370
     9
100
AcDb2dPolyline
 66
     1
 10
0.0
 20
0.0
 30
0.0
 70
     1
  0
VERTEX
  5
153
330
152
100
AcDbEntity
  8
FIXT
  6
Continuous
 62
   250
370
     9
100
AcDbVertex
100
AcDb2dVertex
 10
6.762033149587301
 20
-3.795596501159699
 30
0.0
  0
VERTEX
  5
154
330
152
100
AcDbEntity
  8
FIXT
  6
Continuous
 62
   250
370
     9
100
AcDbVertex
100
AcDb2dVertex
 10
6.762033149587301
 20
-3.756060805834031
 30
0.0
  0
VERTEX
  5
155
330
152
100
AcDbEntity
  8
FIXT
  6
Continuous
 62
   250
370
     9
100
AcDbVertex
100
AcDb2dVertex
 10
6.588537993379198
 20
-3.756060805834031
 30
0.0
  0
VERTEX
  5
156
330
152
100
AcDbEntity
  8
FIXT
  6
Continuous
 62
   250
370
     9
100
AcDbVertex
100
AcDb2dVertex
 10
6.588537993379198
 20
-3.795596501159699
 30
0.0
  0
SEQEND
  5
157
330
152
100
AcDbEntity
  8
FIXT
  6
Continuous
 62
   250
370
     9
  0
POLYLINE
  5
158
330
42
100
AcDbEntity
  8
WINDOW
  6
Continuous
 62
   250
370
     9
100
AcDb2dPolyline
 66
     1
 10
0.0
 20
0.0
 30
0.0
 70
     1
  0
VERTEX
  5
159
330
158
100
AcDbEntity
  8
WINDOW
  6
Continuous
 62
   250
370
     9
100
AcDbVertex
100
AcDb2dVertex
 10
7.551058526908366
 20
-3.375797273654919
 30
0.0
  0
VERTEX
  5
15A
330
158
100
AcDbEntity
  8
WINDOW
  6
Continuous
 62
   250
370
     9
100
AcDbVertex
100
AcDb2dVertex
 10
7.551058526908366
 20
-3.358007378217656
 30
0.0
  0
VERTEX
  5
15B
330
158
100
AcDbEntity
  8
WINDOW
  6
Continuous
 62
   250
370
     9
100
AcDbVertex
100
AcDb2dVertex
 10
7.860760262050732
 20
-3.358007378217656
 30
0.0
  0
VERTEX
  5
15C
330
158
100
AcDbEntity
  8
WINDOW
  6
Continuous
 62
   250
370
     9
100
AcDbVertex
100
AcDb2dVertex
 10
7.860760262050732
 20
-3.375797273654919
 30
0.0
  0
SEQEND
  5
15D
330
158
100
AcDbEntity
  8
WINDOW
  6
Continuous
 62
   250
370
     9
  0
POLYLINE
  5
15E
330
42
100
AcDbEntity
  8
WINDOW
  6
Continuous
 62
   250
370
     9
100
AcDb2dPolyline
 66
     1
 10
0.0
 20
0.0
 30
0.0
 70
     1
  0
VERTEX
  5
15F
330
15E
100
AcDbEntity
  8
WINDOW
  6
Continuous
 62
   250
370
     9
100
AcDbVertex
100
AcDb2dVertex
 10
7.551058526908366
 20
-3.399949731595723
 30
0.0
  0
VERTEX
  5
160
330
15E
100
AcDbEntity
  8
WINDOW
  6
Continuous
 62
   250
370
     9
100
AcDbVertex
100
AcDb2dVertex
 10
7.551058526908366
 20
-3.410350585066964
 30
0.0
  0
VERTEX
  5
161
330
15E
100
AcDbEntity
  8
WINDOW
  6
Continuous
 62
   250
370
     9
100
AcDbVertex
100
AcDb2dVertex
 10
7.55384048752218
 20
-3.41280085192506
 30
0.0
  0
VERTEX
  5
162
330
15E
100
AcDbEntity
  8
WINDOW
  6
Continuous
 62
   250
370
     9
100
AcDbVertex
100
AcDb2dVertex
 10
7.847692373411375
 20
-3.41280085192506
 30
0.0
  0
VERTEX
  5
163
330
15E
100
AcDbEntity
  8
WINDOW
  6
Continuous
 62
   250
370
     9
100
AcDbVertex
100
AcDb2dVertex
 10
7.847692373411375
 20
-3.438694500812911
 30
0.0
  0
VERTEX
  5
164
330
15E
100
AcDbEntity
  8
WINDOW
  6
Continuous
 62
   250
370
     9
100
AcDbVertex
100
AcDb2dVertex
 10
7.863555103975447
 20
-3.438694500812911
 30
0.0
  0
VERTEX
  5
165
330
15E
100
AcDbEntity
  8
WINDOW
  6
Continuous
 62
   250
370
     9
100
AcDbVertex
100
AcDb2dVertex
 10
7.863963481785129
 20
-3.399949731595723
 30
0.0
  0
SEQEND
  5
166
330
15E
100
AcDbEntity
  8
WINDOW
  6
Continuous
 62
   250
370
     9
  0
POLYLINE
  5
167
330
42
100
AcDbEntity
  8
WINDOW
  6
Continuous
 62
   250
370
     9
100
AcDb2dPolyline
 66
     1
 10
0.0
 20
0.0
 30
0.0
 70
     1
  0
VERTEX
  5
168
330
167
100
AcDbEntity
  8
WINDOW
  6
Continuous
 62
   250
370
     9
100
AcDbVertex
100
AcDb2dVertex
 10
6.038677500325349
 20
-3.745247359251245
 30
0.0
  0
VERTEX
  5
169
330
167
100
AcDbEntity
  8
WINDOW
  6
Continuous
 62
   250
370
     9
100
AcDbVertex
100
AcDb2dVertex
 10
5.991739613563194
 20
-3.745247359251245
 30
0.0
  0
VERTEX
  5
16A
330
167
100
AcDbEntity
  8
WINDOW
  6
Continuous
 62
   250
370
     9
100
AcDbVertex
100
AcDb2dVertex
 10
5.991739613563194
 20
-3.66562676894456
 30
0.0
  0
VERTEX
  5
16B
330
167
100
AcDbEntity
  8
WINDOW
  6
Continuous
 62
   250
370
     9
100
AcDbVertex
100
AcDb2dVertex
 10
6.026030468265614
 20
-3.67426650569095
 30
0.0
  0
VERTEX
  5
16C
330
167
100
AcDbEntity
  8
WINDOW
  6
Continuous
 62
   250
370
     9
100
AcDbVertex
100
AcDb2dVertex
 10
6.038677500325349
 20
-3.676014942375382
 30
0.0
  0
SEQEND
  5
16D
330
167
100
AcDbEntity
  8
WINDOW
  6
Continuous
 62
   250
370
     9
  0
LWPOLYLINE
  5
16E
330
42
100
AcDbEntity
  8
None
  6
Continuous
 62
   250
370
     9
100
AcDbPolyline
 90
       14
 70
     1
 43
0.0
 10
6.139069607002093
 20
-3.763420876228813
 10
6.139069607002093
 20
-3.821110833454767
 10
6.116196024429602
 20
-3.821110833454767
 10
6.116196024429602
 20
-4.042290202190558
 10
6.116196024429602
 20
-4.043579140972522
 10
6.116196024429602
 20
-4.047946248225492
 10
6.097387738118661
 20
-4.047946248225492
 10
6.097387738118661
 20
-4.043509685230926
 10
6.097387738118661
 20
-4.042290202190558
 10
6.097387738118661
 20
-3.790925739984124
 42
-0.4142135623730993
 10
6.136031670823947
 20
-3.752281807278839
 10
6.155715907171128
 20
-3.752281807278839
 10
6.160806819148817
 20
-3.752281807278839
 10
6.160806819148817
 20
-3.763420876228813
  0
LWPOLYLINE
  5
16F
330
42
100
AcDbEntity
  8
None
  6
Continuous
 62
   250
370
     9
100
AcDbPolyline
 90
        6
 70
     1
 43
0.0
 10
6.092903526704943
 20
-3.618683399716347
 10
6.137673917902284
 20
-3.618471997158657
 10
6.169348903978042
 20
-3.586797011082899
 10
6.139813671123285
 20
-3.557160775669037
 10
6.090827602180387
 20
-3.557160775669037
 10
6.061005855510403
 20
-3.587078475029144
  0
LINE
  5
170
330
42
100
AcDbEntity
  8
None
  6
Continuous
 62
   250
370
     9
100
AcDbLine
 10
4.766235041745587
 20
-4.70107478989199
 30
0.0
 11
7.863555103975447
 21
-4.701284458089557
 31
0.0
  0
LINE
  5
171
330
42
100
AcDbEntity
  8
None
  6
Continuous
 62
   250
370
     9
100
AcDbLine
 10
6.25853229319841
 20
-4.078056354717027
 30
0.0
 11
6.25853229319841
 21
-4.25736198849424
 31
0.0
  0
LINE
  5
172
330
42
100
AcDbEntity
  8
None
  6
Continuous
 62
   250
370
     9
100
AcDbLine
 10
6.300007900326771
 20
-4.078056354717027
 30
0.0
 11
6.300007900326771
 21
-4.25736198849424
 31
0.0
  0
LINE
  5
173
330
42
100
AcDbEntity
  8
None
  6
Continuous
 62
   250
370
     9
100
AcDbLine
 10
6.519446587363924
 20
-4.078056354717027
 30
0.0
 11
6.519446587363924
 21
-4.25736198849424
 31
0.0
  0
LINE
  5
174
330
42
100
AcDbEntity
  8
None
  6
Continuous
 62
   250
370
     9
100
AcDbLine
 10
6.557910382987067
 20
-4.078056354717027
 30
0.0
 11
6.557910382987067
 21
-4.257612449911134
 31
0.0
  0
LINE
  5
175
330
42
100
AcDbEntity
  8
None
  6
Continuous
 62
   250
370
     9
100
AcDbLine
 10
6.852674707722858
 20
-4.078056354717027
 30
0.0
 11
6.852674707722858
 21
-4.25736198849424
 31
0.0
  0
LINE
  5
176
330
42
100
AcDbEntity
  8
None
  6
Continuous
 62
   250
370
     9
100
AcDbLine
 10
6.813701583743939
 20
-4.078056354717027
 30
0.0
 11
6.813701583743939
 21
-4.25736198849424
 31
0.0
  0
POLYLINE
  5
177
330
42
100
AcDbEntity
  8
WINDOW
  6
Continuous
 62
   250
370
     9
100
AcDb2dPolyline
 66
     1
 10
0.0
 20
0.0
 30
0.0
 70
     1
  0
VERTEX
  5
178
330
177
100
AcDbEntity
  8
WINDOW
  6
Continuous
 62
   250
370
     9
100
AcDbVertex
100
AcDb2dVertex
 10
6.655932206935282
 20
-3.641474311003756
 30
0.0
  0
VERTEX
  5
179
330
177
100
AcDbEntity
  8
WINDOW
  6
Continuous
 62
   250
370
     9
100
AcDbVertex
100
AcDb2dVertex
 10
6.655932206935282
 20
-3.661357016921591
 30
0.0
  0
VERTEX
  5
17A
330
177
100
AcDbEntity
  8
WINDOW
  6
Continuous
 62
   250
370
     9
100
AcDbVertex
100
AcDb2dVertex
 10
6.602902050693778
 20
-3.661357016921591
 30
0.0
  0
VERTEX
  5
17B
330
177
100
AcDbEntity
  8
WINDOW
  6
Continuous
 62
   250
370
     9
100
AcDbVertex
100
AcDb2dVertex
 10
6.602902050693778
 20
-3.616537703261808
 30
0.0
  0
VERTEX
  5
17C
330
177
100
AcDbEntity
  8
WINDOW
  6
Continuous
 62
   250
370
     9
100
AcDbVertex
100
AcDb2dVertex
 10
6.343586180189367
 20
-3.616588825964449
 30
0.0
  0
VERTEX
  5
17D
330
177
100
AcDbEntity
  8
WINDOW
  6
Continuous
 62
   250
370
     9
100
AcDbVertex
100
AcDb2dVertex
 10
6.343586180189367
 20
-3.605243812658204
 30
0.0
  0
VERTEX
  5
17E
330
177
100
AcDbEntity
  8
WINDOW
  6
Continuous
 62
   250
370
     9
100
AcDbVertex
100
AcDb2dVertex
 10
6.606800037321012
 20
-3.605243812658204
 30
0.0
  0
SEQEND
  5
17F
330
177
100
AcDbEntity
  8
WINDOW
  6
Continuous
 62
   250
370
     9
  0
POLYLINE
  5
180
330
42
100
AcDbEntity
  8
WINDOW
  6
Continuous
 62
   250
370
     9
100
AcDb2dPolyline
 66
     1
 10
0.0
 20
0.0
 30
0.0
 70
     1
  0
VERTEX
  5
181
330
180
100
AcDbEntity
  8
WINDOW
  6
Continuous
 62
   250
370
     9
100
AcDbVertex
100
AcDb2dVertex
 10
6.302143178879223
 20
-3.433203238229586
 30
0.0
  0
VERTEX
  5
182
330
180
100
AcDbEntity
  8
WINDOW
  6
Continuous
 62
   250
370
     9
100
AcDbVertex
100
AcDb2dVertex
 10
6.564077994140612
 20
-3.433203238229586
 30
0.0
  0
VERTEX
  5
183
330
180
100
AcDbEntity
  8
WINDOW
  6
Continuous
 62
   250
370
     9
100
AcDbVertex
100
AcDb2dVertex
 10
6.564077994140612
 20
-3.461751242245134
 30
0.0
  0
VERTEX
  5
184
330
180
100
AcDbEntity
  8
WINDOW
  6
Continuous
 62
   250
370
     9
100
AcDbVertex
100
AcDb2dVertex
 10
6.247050818504801
 20
-3.461751242245134
 30
0.0
  0
VERTEX
  5
185
330
180
100
AcDbEntity
  8
WINDOW
  6
Continuous
 62
   250
370
     9
100
AcDbVertex
100
AcDb2dVertex
 10
6.219842873364002
 20
-3.461751242245134
 30
0.0
  0
VERTEX
  5
186
330
180
100
AcDbEntity
  8
WINDOW
  6
Continuous
 62
   250
370
     9
100
AcDbVertex
100
AcDb2dVertex
 10
6.218273164868336
 20
-3.465247914343513
 30
0.0
  0
VERTEX
  5
187
330
180
100
AcDbEntity
  8
WINDOW
  6
Continuous
 62
   250
370
     9
100
AcDbVertex
100
AcDb2dVertex
 10
6.21773718157253
 20
-3.497228787714378
 30
0.0
  0
VERTEX
  5
188
330
180
100
AcDbEntity
  8
WINDOW
  6
Continuous
 62
   250
370
     9
100
AcDbVertex
100
AcDb2dVertex
 10
6.029054758540767
 20
-3.497228787714378
 30
0.0
  0
VERTEX
  5
189
330
180
100
AcDbEntity
  8
WINDOW
  6
Continuous
 62
   250
370
     9
100
AcDbVertex
100
AcDb2dVertex
 10
6.001144983226308
 20
-3.48514350157225
 30
0.0
  0
VERTEX
  5
18A
330
180
100
AcDbEntity
  8
WINDOW
  6
Continuous
 62
   250
370
     9
100
AcDbVertex
100
AcDb2dVertex
 10
5.991739613563194
 20
-3.472407105418132
 30
0.0
  0
VERTEX
  5
18B
330
180
100
AcDbEntity
  8
WINDOW
  6
Continuous
 62
   250
370
     9
100
AcDbVertex
100
AcDb2dVertex
 10
6.0377456179898
 20
-3.449729557575581
 30
0.0
  0
VERTEX
  5
18C
330
180
100
AcDbEntity
  8
WINDOW
  6
Continuous
 62
   250
370
     9
100
AcDbVertex
100
AcDb2dVertex
 10
6.040221244928733
 20
-3.454923543655751
 30
0.0
  0
SEQEND
  5
18D
330
180
100
AcDbEntity
  8
WINDOW
  6
Continuous
 62
   250
370
     9
  0
POLYLINE
  5
18E
330
42
100
AcDbEntity
  8
None
  6
Continuous
 62
   250
370
     9
100
AcDb2dPolyline
 66
     1
 10
0.0
 20
0.0
 30
0.0
 70
     1
  0
VERTEX
  5
18F
330
18E
100
AcDbEntity
  8
None
  6
Continuous
 62
   250
370
     9
100
AcDbVertex
100
AcDb2dVertex
 10
5.3514519375272
 20
-3.726262697998548
 30
0.0
  0
VERTEX
  5
190
330
18E
100
AcDbEntity
  8
None
  6
Continuous
 62
   250
370
     9
100
AcDbVertex
100
AcDb2dVertex
 10
5.923262810258285
 20
-3.726262697998548
 30
0.0
  0
VERTEX
  5
191
330
18E
100
AcDbEntity
  8
None
  6
Continuous
 62
   250
370
     9
100
AcDbVertex
100
AcDb2dVertex
 10
5.923262810258285
 20
-3.748904355672249
 30
0.0
  0
VERTEX
  5
192
330
18E
100
AcDbEntity
  8
None
  6
Continuous
 62
   250
370
     9
100
AcDbVertex
100
AcDb2dVertex
 10
5.3514519375272
 20
-3.748904355672249
 30
0.0
  0
SEQEND
  5
193
330
18E
100
AcDbEntity
  8
None
  6
Continuous
 62
   250
370
     9
  0
POLYLINE
  5
194
330
42
100
AcDbEntity
  8
None
  6
Continuous
 62
   250
370
     9
100
AcDb2dPolyline
 66
     1
 10
0.0
 20
0.0
 30
0.0
 70
     1
  0
VERTEX
  5
195
330
194
100
AcDbEntity
  8
None
  6
Continuous
 62
   250
370
     9
100
AcDbVertex
100
AcDb2dVertex
 10
6.025083370850496
 20
-3.520930522171249
 30
0.0
  0
VERTEX
  5
196
330
194
100
AcDbEntity
  8
None
  6
Continuous
 62
   250
370
     9
100
AcDbVertex
100
AcDb2dVertex
 10
6.020889335510005
 20
-3.534068167791864
 30
0.0
  0
VERTEX
  5
197
330
194
100
AcDbEntity
  8
None
  6
Continuous
 62
   250
370
     9
100
AcDbVertex
100
AcDb2dVertex
 10
5.954380004555643
 20
-3.512835863880631
 30
0.0
  0
VERTEX
  5
198
330
194
100
AcDbEntity
  8
None
  6
Continuous
 62
   250
370
     9
100
AcDbVertex
100
AcDb2dVertex
 10
5.948679998458031
 20
-3.530690901825297
 30
0.0
  0
VERTEX
  5
199
330
194
100
AcDbEntity
  8
None
  6
Continuous
 62
   250
370
     9
100
AcDbVertex
100
AcDb2dVertex
 10
5.931843936687232
 20
-3.498403224806904
 30
0.0
  0
VERTEX
  5
19A
330
194
100
AcDbEntity
  8
None
  6
Continuous
 62
   250
370
     9
100
AcDbVertex
100
AcDb2dVertex
 10
5.964274045993741
 20
-3.481843180315349
 30
0.0
  0
VERTEX
  5
19B
330
194
100
AcDbEntity
  8
None
  6
Continuous
 62
   250
370
     9
100
AcDbVertex
100
AcDb2dVertex
 10
5.958574039896131
 20
-3.499698218260016
 30
0.0
  0
SEQEND
  5
19C
330
194
100
AcDbEntity
  8
None
  6
Continuous
 62
   250
370
     9
  0
POLYLINE
  5
19D
330
42
100
AcDbEntity
  8
None
  6
Continuous
 62
   250
370
     9
100
AcDb2dPolyline
 66
     1
 10
0.0
 20
0.0
 30
0.0
 70
     1
  0
VERTEX
  5
19E
330
19D
100
AcDbEntity
  8
None
  6
Continuous
 62
   250
370
     9
100
AcDbVertex
100
AcDb2dVertex
 10
5.839349281195388
 20
-3.580734961900518
 30
0.0
  0
VERTEX
  5
19F
330
19D
100
AcDbEntity
  8
None
  6
Continuous
 62
   250
370
     9
100
AcDbVertex
100
AcDb2dVertex
 10
5.844737649231908
 20
-3.568040350650338
 30
0.0
  0
VERTEX
  5
1A0
330
19D
100
AcDbEntity
  8
None
  6
Continuous
 62
   250
370
     9
100
AcDbVertex
100
AcDb2dVertex
 10
5.909004118685939
 20
-3.595318963835213
 30
0.0
  0
VERTEX
  5
1A1
330
19D
100
AcDbEntity
  8
None
  6
Continuous
 62
   250
370
     9
100
AcDbVertex
100
AcDb2dVertex
 10
5.916327311785385
 20
-3.578066042565281
 30
0.0
  0
VERTEX
  5
1A2
330
19D
100
AcDbEntity
  8
None
  6
Continuous
 62
   250
370
     9
100
AcDbVertex
100
AcDb2dVertex
 10
5.930112330761764
 20
-3.611769459528774
 30
0.0
  0
VERTEX
  5
1A3
330
19D
100
AcDbEntity
  8
None
  6
Continuous
 62
   250
370
     9
100
AcDbVertex
100
AcDb2dVertex
 10
5.896292557549975
 20
-3.625266496355324
 30
0.0
  0
VERTEX
  5
1A4
330
19D
100
AcDbEntity
  8
None
  6
Continuous
 62
   250
370
     9
100
AcDbVertex
100
AcDb2dVertex
 10
5.903615750649421
 20
-3.608013575085391
 30
0.0
  0
SEQEND
  5
1A5
330
19D
100
AcDbEntity
  8
None
  6
Continuous
 62
   250
370
     9
  0
ENDBLK
  5
44
330
42
100
AcDbEntity
  8
0
100
AcDbBlockEnd
  0
BLOCK
  5
46
330
45
100
AcDbEntity
  8
0
100
AcDbBlockBegin
  2
Group-3-1
 70
     0
 10
0.0
 20
0.0
 30
0.0
  3
Group-3-1
  1

  0
ELLIPSE
  5
1A6
330
45
100
AcDbEntity
  8
None
  6
Continuous
 62
     7
370
    18
100
AcDbEllipse
 10
4.754836483954028
 20
-3.385863501171561
 30
0.0
 11
0.1226330754869231
 21
0.0
 31
0.0
210
0.0
220
0.0
230
1.0
 40
1.0
 41
0.0
 42
6.283185307179586
  0
POLYLINE
  5
1A7
102
{ACAD_REACTORS
330
1B2
102
}
330
45
100
AcDbEntity
  8
None
  6
Continuous
 62
     7
370
    18
100
AcDb2dPolyline
 66
     1
 10
0.0
 20
0.0
 30
0.0
 70
     1
  0
VERTEX
  5
1A8
330
1A7
100
AcDbEntity
  8
None
  6
Continuous
 62
     7
370
    18
100
AcDbVertex
100
AcDb2dVertex
 10
4.744061696675595
 20
-3.485363760043854
 30
0.0
  0
VERTEX
  5
1A9
330
1A7
100
AcDbEntity
  8
None
  6
Continuous
 62
     7
370
    18
100
AcDbVertex
100
AcDb2dVertex
 10
4.768963863303352
 20
-3.485363760043854
 30
0.0
  0
VERTEX
  5
1AA
330
1A7
100
AcDbEntity
  8
None
  6
Continuous
 62
     7
370
    18
100
AcDbVertex
100
AcDb2dVertex
 10
4.768963863303352
 20
-3.330473378487309
 30
0.0
  0
VERTEX
  5
1AB
330
1A7
100
AcDbEntity
  8
None
  6
Continuous
 62
     7
370
    18
100
AcDbVertex
100
AcDb2dVertex
 10
4.855083970681878
 20
-3.416593534919065
 30
0.0
  0
VERTEX
  5
1AC
330
1A7
100
AcDbEntity
  8
None
  6
Continuous
 62
     7
370
    18
100
AcDbVertex
100
AcDb2dVertex
 10
4.855083970681878
 20
-3.384814743109997
 30
0.0
  0
VERTEX
  5
1AD
330
1A7
100
AcDbEntity
  8
None
  6
Continuous
 62
     7
370
    18
100
AcDbVertex
100
AcDb2dVertex
 10
4.756512779989474
 20
-3.286243552417593
 30
0.0
  0
VERTEX
  5
1AE
330
1A7
100
AcDbEntity
  8
None
  6
Continuous
 62
     7
370
    18
100
AcDbVertex
100
AcDb2dVertex
 10
4.655866539553369
 20
-3.386889792853697
 30
0.0
  0
VERTEX
  5
1AF
330
1A7
100
AcDbEntity
  8
None
  6
Continuous
 62
     7
370
    18
100
AcDbVertex
100
AcDb2dVertex
 10
4.655866539553369
 20
-3.418668928035377
 30
0.0
  0
VERTEX
  5
1B0
330
1A7
100
AcDbEntity
  8
None
  6
Continuous
 62
     7
370
    18
100
AcDbVertex
100
AcDb2dVertex
 10
4.744061696675595
 20
-3.330473378487309
 30
0.0
  0
SEQEND
  5
1B1
330
1A7
100
AcDbEntity
  8
None
  6
Continuous
 62
     7
370
    18
  0
HATCH
  5
1B2
330
45
100
AcDbEntity
  8
None
  6
Continuous
 62
     7
370
     0
100
AcDbHatch
 10
0.0
 20
0.0
 30
0.0
210
0.0
220
0.0
230
1.0
  2
SOLID
 70
     1
 71
     1
 91
        1
 92
        1
 93
        9
 72
     1
 10
4.744061696675595
 20
-3.485363760043854
 11
4.768963863303352
 21
-3.485363760043854
 72
     1
 10
4.768963863303352
 20
-3.485363760043854
 11
4.768963863303352
 21
-3.330473378487309
 72
     1
 10
4.768963863303352
 20
-3.330473378487309
 11
4.855083970681878
 21
-3.416593534919065
 72
     1
 10
4.855083970681878
 20
-3.416593534919065
 11
4.855083970681878
 21
-3.384814743109997
 72
     1
 10
4.855083970681878
 20
-3.384814743109997
 11
4.756512779989474
 21
-3.286243552417593
 72
     1
 10
4.756512779989474
 20
-3.286243552417593
 11
4.655866539553369
 21
-3.386889792853697
 72
     1
 10
4.655866539553369
 20
-3.386889792853697
 11
4.655866539553369
 21
-3.418668928035377
 72
     1
 10
4.655866539553369
 20
-3.418668928035377
 11
4.744061696675595
 21
-3.330473378487309
 72
     1
 10
4.744061696675595
 20
-3.330473378487309
 11
4.744061696675595
 21
-3.485363760043854
 97
        1
330
1A7
 75
     0
 76
     1
 98
        1
 10
0.0
 20
0.0
  0
ENDBLK
  5
47
330
45
100
AcDbEntity
  8
0
100
AcDbBlockEnd
  0
BLOCK
  5
49
330
48
100
AcDbEntity
  8
0
100
AcDbBlockBegin
  2
Group-4-1
 70
     0
 10
0.0
 20
0.0
 30
0.0
  3
Group-4-1
  1

  0
WIPEOUT
  5
1B3
330
48
100
AcDbEntity
  8
None
  6
Continuous
 62
     7
370
    18
 92
      200
310
C8000000040000000C0000000E000000B20000000C00000016000000000000C20C00000014000000010000009C000000070000000600000093B4E651EEA21C4074E966CC42EE0DC0000000000000000093B4E651EEA21C40CEEE6F77FC540EC00000000000000000F782F8F75B3F1C40CEEE6F77FC540EC000000000000000
310
00F782F8F75B3F1C409DD84630965510C00000000000000000C39F3CE0215D1D409DD84630965510C00000000000000000C39F3CE0215D1D4074E966CC42EE0DC00000000000000000
100
AcDbWipeout
 90
        0
 10
7.061874270003266
 20
-4.083580736469369
 30
0.0
 11
0.3422423910460308
 21
0.0
 31
0.0
 12
0.0
 22
0.3422423910460308
 32
0.0
 13
1.0
 23
1.0
340
0
 70
     4
280
     1
281
    50
282
    50
283
     0
360
0
 71
     2
 91
        7
 14
-0.2158798094191923
 24
-0.5
 14
-0.2158798094191923
 24
-0.35344065311258
 14
-0.5000000000000036
 24
-0.35344065311258
 14
-0.5000000000000036
 24
0.5
 14
0.315431624476517
 24
0.5
 14
0.315431624476517
 24
-0.5
 14
-0.2158798094191923
 24
-0.5
  0
POLYLINE
  5
1B4
330
48
100
AcDbEntity
  8
None
  6
Continuous
 62
     7
370
    18
100
AcDb2dPolyline
 66
     1
 10
0.0
 20
0.0
 30
0.0
 70
     1
  0
VERTEX
  5
1B5
330
1B4
100
AcDbEntity
  8
None
  6
Continuous
 62
     7
370
    18
100
AcDbVertex
100
AcDb2dVertex
 10
7.159112243372096
 20
-3.741338345423339
 30
0.0
  0
VERTEX
  5
1B6
330
1B4
100
AcDbEntity
  8
None
  6
Continuous
 62
     7
370
    18
100
AcDbVertex
100
AcDb2dVertex
 10
7.159112243372096
 20
-3.791497166732234
 30
0.0
  0
VERTEX
  5
1B7
330
1B4
100
AcDbEntity
  8
None
  6
Continuous
 62
     7
370
    18
100
AcDbVertex
100
AcDb2dVertex
 10
7.061874270003266
 20
-3.791497166732234
 30
0.0
  0
VERTEX
  5
1B8
330
1B4
100
AcDbEntity
  8
None
  6
Continuous
 62
     7
370
    18
100
AcDbVertex
100
AcDb2dVertex
 10
7.061874270003266
 20
-4.083580736469369
 30
0.0
  0
VERTEX
  5
1B9
330
1B4
100
AcDbEntity
  8
None
  6
Continuous
 62
     7
370
    18
100
AcDbVertex
100
AcDb2dVertex
 10
7.340949538898658
 20
-4.083580736469369
 30
0.0
  0
VERTEX
  5
1BA
330
1B4
100
AcDbEntity
  8
None
  6
Continuous
 62
     7
370
    18
100
AcDbVertex
100
AcDb2dVertex
 10
7.340949538898658
 20
-3.741338345423339
 30
0.0
  0
SEQEND
  5
1BB
330
1B4
100
AcDbEntity
  8
None
  6
Continuous
 62
     7
370
    18
  0
WIPEOUT
  5
1BC
330
48
100
AcDbEntity
  8
None
  6
Continuous
 62
     7
370
    18
 92
      200
310
C8000000040000000C0000000E000000B20000000C00000016000000000000C20C00000014000000010000009C00000007000000060000003071F81D40DC1D403C3B43D5C5FB0DC000000000000000008534C75333DC1D40F25AE9B79D7B10C000000000000000008EADC0D49CDD1E40F25AE9B79D7B10C000000000000000
310
008EADC0D49CDD1E403C3B43D5C5FB0DC00000000000000000B2273C3A08C01E403C3B43D5C5FB0DC000000000000000005E5F6B8932811E403C3B43D5C5FB0DC00000000000000000
100
AcDbWipeout
 90
        0
 10
7.465039547952192
 20
-4.120718835466265
 30
0.0
 11
0.3727829051052427
 21
0.0
 31
0.0
 12
0.0
 22
0.3727829051052427
 32
0.0
 13
1.0
 23
1.0
340
0
 70
     4
280
     1
281
    50
282
    50
283
     0
360
0
 71
     2
 91
        7
 14
-0.4998691214992697
 24
-0.5
 14
-0.5
 24
0.5
 14
0.1743308884075105
 24
0.5
 14
0.1743308884075105
 24
-0.5
 14
0.0968402368986148
 24
-0.5
 14
-0.067765058661724
 24
-0.5
 14
-0.4998691214992697
 24
-0.5
  0
POLYLINE
  5
1BD
330
48
100
AcDbEntity
  8
None
  6
Continuous
 62
     7
370
    18
100
AcDb2dPolyline
 66
     1
 10
0.0
 20
0.0
 30
0.0
 70
     1
  0
VERTEX
  5
1BE
330
1BD
100
AcDbEntity
  8
None
  6
Continuous
 62
     7
370
    18
100
AcDbVertex
100
AcDb2dVertex
 10
7.46508833721991
 20
-3.747935930361022
 30
0.0
  0
VERTEX
  5
1BF
330
1BD
100
AcDbEntity
  8
None
  6
Continuous
 62
     7
370
    18
100
AcDbVertex
100
AcDb2dVertex
 10
7.465039547952192
 20
-4.120718835466265
 30
0.0
  0
VERTEX
  5
1C0
330
1BD
100
AcDbEntity
  8
None
  6
Continuous
 62
     7
370
    18
100
AcDbVertex
100
AcDb2dVertex
 10
7.716418575534943
 20
-4.120718835466265
 30
0.0
  0
VERTEX
  5
1C1
330
1BD
100
AcDbEntity
  8
None
  6
Continuous
 62
     7
370
    18
100
AcDbVertex
100
AcDb2dVertex
 10
7.716418575534943
 20
-3.747935930361022
 30
0.0
  0
VERTEX
  5
1C2
330
1BD
100
AcDbEntity
  8
None
  6
Continuous
 62
     7
370
    18
100
AcDbVertex
100
AcDb2dVertex
 10
7.68753138534696
 20
-3.747935930361022
 30
0.0
  0
VERTEX
  5
1C3
330
1BD
100
AcDbEntity
  8
None
  6
Continuous
 62
     7
370
    18
100
AcDbVertex
100
AcDb2dVertex
 10
7.626169345072269
 20
-3.747935930361022
 30
0.0
  0
SEQEND
  5
1C4
330
1BD
100
AcDbEntity
  8
None
  6
Continuous
 62
     7
370
    18
  0
INSERT
  5
1C5
330
48
100
AcDbEntity
  8
None
 62
   250
100
AcDbBlockReference
  2
Group-2-1
 10
0.0
 20
0.0
 30
0.0
  0
WIPEOUT
  5
1E8
330
48
100
AcDbEntity
  8
None
  6
Continuous
 62
     7
370
    18
 92
      200
310
C8000000040000000C0000000E000000B20000000C00000016000000000000C20C00000014000000010000009C0000000700000006000000BA4146CBA50617407697565FC3EE10C00000000000000000B8CC18F597061740B85D296A3AB80FC000000000000000005C53FEEC24291640B85D296A3AB80FC000000000000000
310
00F1ACDDC12729164074FE83B2A4A40FC000000000000000005FCF87BA2AF0154074FE83B2A4A40FC000000000000000005FCF87BA2AF015407697565FC3EE10C00000000000000000
100
AcDbWipeout
 90
        0
 10
5.484537996806323
 20
-4.233167161617407
 30
0.0
 11
0.2777749013967505
 21
0.0
 31
0.0
 12
0.0
 22
0.2777749013967505
 32
0.0
 13
1.0
 23
1.0
340
0
 70
     4
280
     1
281
    50
282
    50
283
     0
360
0
 71
     2
 91
        7
 14
0.47904393413598
 24
0.5
 14
0.4788539149563036
 24
-0.4655731784354327
 14
-0.2996869911817335
 24
-0.4655731784354327
 14
-0.2996481055901015
 24
-0.5
 14
-0.5
 24
-0.5
 14
-0.5
 24
0.5
 14
0.47904393413598
 24
0.5
  0
POLYLINE
  5
1E9
330
48
100
AcDbEntity
  8
None
  6
Continuous
 62
     7
370
    18
100
AcDb2dPolyline
 66
     1
 10
0.0
 20
0.0
 30
0.0
 70
     1
  0
VERTEX
  5
1EA
330
1E9
100
AcDbEntity
  8
None
  6
Continuous
 62
     7
370
    18
100
AcDbVertex
100
AcDb2dVertex
 10
5.756491829074031
 20
-4.233167161617407
 30
0.0
  0
VERTEX
  5
1EB
330
1E9
100
AcDbEntity
  8
None
  6
Continuous
 62
     7
370
    18
100
AcDbVertex
100
AcDb2dVertex
 10
5.756439046515133
 20
-3.964955167186158
 30
0.0
  0
VERTEX
  5
1EC
330
1E9
100
AcDbEntity
  8
None
  6
Continuous
 62
     7
370
    18
100
AcDbVertex
100
AcDb2dVertex
 10
5.540179923079304
 20
-3.964955167186158
 30
0.0
  0
VERTEX
  5
1ED
330
1E9
100
AcDbEntity
  8
None
  6
Continuous
 62
     7
370
    18
100
AcDbVertex
100
AcDb2dVertex
 10
5.540190724520685
 20
-3.955392260220657
 30
0.0
  0
VERTEX
  5
1EE
330
1E9
100
AcDbEntity
  8
None
  6
Continuous
 62
     7
370
    18
100
AcDbVertex
100
AcDb2dVertex
 10
5.484537996806323
 20
-3.955392260220657
 30
0.0
  0
VERTEX
  5
1EF
330
1E9
100
AcDbEntity
  8
None
  6
Continuous
 62
     7
370
    18
100
AcDbVertex
100
AcDb2dVertex
 10
5.484537996806323
 20
-4.233167161617407
 30
0.0
  0
SEQEND
  5
1F0
330
1E9
100
AcDbEntity
  8
None
  6
Continuous
 62
     7
370
    18
  0
WIPEOUT
  5
1F1
330
48
100
AcDbEntity
  8
None
  6
Continuous
 62
     7
370
    18
 92
      248
310
F8000000040000000C0000000E000000B20000000C00000016000000000000C20C0000001400000001000000CC000000070000000800000060CF87BA2AF01540AC1A91D8493112C000000000000000006F911D4D23521640AC1A91D8493112C00000000000000000D43FB4982052164095413810A04A12C000000000000000
310
00634E894D9088164095413810A04A12C00000000000000000634E894D90881640AC1A91D8493112C00000000000000000B9CC18F597061740AC1A91D8493112C00000000000000000BB4146CBA50617407697565FC3EE10C0000000000000000060CF87BA2AF015407697565FC3EE10C00000000000000000
100
AcDbWipeout
 90
        0
 10
5.484537996806323
 20
-4.57287621825562
 30
0.0
 11
0.3397090566382124
 21
0.0
 31
0.0
 12
0.0
 22
0.3397090566382124
 32
0.0
 13
1.0
 23
1.0
340
0
 70
     4
280
     1
281
    50
282
    50
283
     0
360
0
 71
     2
 91
        9
 14
-0.4999999999999964
 24
0.4271642740317425
 14
-0.2183625521930992
 24
0.4271642740317425
 14
-0.2183929244593195
 24
0.4999999999999982
 14
-0.0619046002058496
 24
0.4999999999999982
 14
-0.0619046002058496
 24
0.4271642740317425
 14
0.3003938793965801
 24
0.4271642740317425
 14
0.3005492551743707
 24
-0.5000000000000018
 14
-0.4999999999999964
 24
-0.5000000000000018
 14
-0.4999999999999964
 24
0.4271642740317425
  0
POLYLINE
  5
1F2
330
48
100
AcDbEntity
  8
None
  6
Continuous
 62
     7
370
    18
100
AcDb2dPolyline
 66
     1
 10
0.0
 20
0.0
 30
0.0
 70
     1
  0
VERTEX
  5
1F3
330
1F2
100
AcDbEntity
  8
None
  6
Continuous
 62
     7
370
    18
100
AcDbVertex
100
AcDb2dVertex
 10
5.484537996806323
 20
-4.548133262497385
 30
0.0
  0
VERTEX
  5
1F4
330
1F2
100
AcDbEntity
  8
None
  6
Continuous
 62
     7
370
    18
100
AcDbVertex
100
AcDb2dVertex
 10
5.580212788514799
 20
-4.548133262497385
 30
0.0
  0
VERTEX
  5
1F5
330
1F2
100
AcDbEntity
  8
None
  6
Continuous
 62
     7
370
    18
100
AcDbVertex
100
AcDb2dVertex
 10
5.580202470780893
 20
-4.57287621825562
 30
0.0
  0
VERTEX
  5
1F6
330
1F2
100
AcDbEntity
  8
None
  6
Continuous
 62
     7
370
    18
100
AcDbVertex
100
AcDb2dVertex
 10
5.633362971787934
 20
-4.57287621825562
 30
0.0
  0
VERTEX
  5
1F7
330
1F2
100
AcDbEntity
  8
None
  6
Continuous
 62
     7
370
    18
100
AcDbVertex
100
AcDb2dVertex
 10
5.633362971787934
 20
-4.548133262497385
 30
0.0
  0
VERTEX
  5
1F8
330
1F2
100
AcDbEntity
  8
None
  6
Continuous
 62
     7
370
    18
100
AcDbVertex
100
AcDb2dVertex
 10
5.756439046515133
 20
-4.548133262497385
 30
0.0
  0
VERTEX
  5
1F9
330
1F2
100
AcDbEntity
  8
None
  6
Continuous
 62
     7
370
    18
100
AcDbVertex
100
AcDb2dVertex
 10
5.756491829074031
 20
-4.233167161617407
 30
0.0
  0
VERTEX
  5
1FA
330
1F2
100
AcDbEntity
  8
None
  6
Continuous
 62
     7
370
    18
100
AcDbVertex
100
AcDb2dVertex
 10
5.484537996806323
 20
-4.233167161617407
 30
0.0
  0
SEQEND
  5
1FB
330
1F2
100
AcDbEntity
  8
None
  6
Continuous
 62
     7
370
    18
  0
WIPEOUT
  5
1FC
330
48
100
AcDbEntity
  8
None
  6
Continuous
 62
     7
370
    18
 92
      248
310
F8000000040000000C0000000E000000B20000000C00000016000000000000C20C0000001400000001000000CC0000000700000008000000F69EC037E8881640B75D296A3AB80FC00000000000000000B94146CBA5061740B75D296A3AB80FC00000000000000000B94146CBA50617404963EBE50D0112C000000000000000
310
0037E3C57C055D17404963EBE50D0112C0000000000000000037E3C57C055D1740D8725A80F7BB0FC000000000000000007B4F7B3579371740D8725A80F7BB0FC000000000000000007B4F7B35793717401131B792CE3E0FC00000000000000000F69EC037E88816401131B792CE3E0FC00000000000000000
100
AcDbWipeout
 90
        0
 10
5.633698340541506
 20
-4.501029579631743
 30
0.0
 11
0.5953621351970364
 21
0.0
 31
0.0
 12
0.0
 22
0.5953621351970364
 32
0.0
 13
1.0
 23
1.0
340
0
 70
     4
280
     1
281
    50
282
    50
283
     0
360
0
 71
     2
 91
        9
 14
-0.5000000000000018
 24
-0.4004173775145619
 14
-0.2937499191279862
 24
-0.4004173775145619
 14
-0.2937499191279862
 24
0.4999999999999982
 14
-0.1520724237210231
 24
0.4999999999999982
 14
-0.1520724237210231
 24
-0.3973511798594815
 14
-0.2136617158053351
 24
-0.3973511798594815
 14
-0.2136617158053351
 24
-0.5000000000000018
 14
-0.5000000000000018
 24
-0.5000000000000018
 14
-0.5000000000000018
 24
-0.4004173775145619
  0
POLYLINE
  5
1FD
330
48
100
AcDbEntity
  8
None
  6
Continuous
 62
     7
370
    18
100
AcDb2dPolyline
 66
     1
 10
0.0
 20
0.0
 30
0.0
 70
     1
  0
VERTEX
  5
1FE
330
1FD
100
AcDbEntity
  8
None
  6
Continuous
 62
     7
370
    18
100
AcDbVertex
100
AcDb2dVertex
 10
5.633698340541506
 20
-3.964955167186158
 30
0.0
  0
VERTEX
  5
1FF
330
1FD
100
AcDbEntity
  8
None
  6
Continuous
 62
     7
370
    18
100
AcDbVertex
100
AcDb2dVertex
 10
5.756491829074031
 20
-3.964955167186158
 30
0.0
  0
VERTEX
  5
200
330
1FD
100
AcDbEntity
  8
None
  6
Continuous
 62
     7
370
    18
100
AcDbVertex
100
AcDb2dVertex
 10
5.756491829074031
 20
-4.501029579631743
 30
0.0
  0
VERTEX
  5
201
330
1FD
100
AcDbEntity
  8
None
  6
Continuous
 62
     7
370
    18
100
AcDbVertex
100
AcDb2dVertex
 10
5.840841245248889
 20
-4.501029579631743
 30
0.0
  0
VERTEX
  5
202
330
1FD
100
AcDbEntity
  8
None
  6
Continuous
 62
     7
370
    18
100
AcDbVertex
100
AcDb2dVertex
 10
5.840841245248889
 20
-3.966780665169023
 30
0.0
  0
VERTEX
  5
203
330
1FD
100
AcDbEntity
  8
None
  6
Continuous
 62
     7
370
    18
100
AcDbVertex
100
AcDb2dVertex
 10
5.804173312808299
 20
-3.966780665169023
 30
0.0
  0
VERTEX
  5
204
330
1FD
100
AcDbEntity
  8
None
  6
Continuous
 62
     7
370
    18
100
AcDbVertex
100
AcDb2dVertex
 10
5.804173312808299
 20
-3.905667444434706
 30
0.0
  0
VERTEX
  5
205
330
1FD
100
AcDbEntity
  8
None
  6
Continuous
 62
     7
370
    18
100
AcDbVertex
100
AcDb2dVertex
 10
5.633698340541506
 20
-3.905667444434706
 30
0.0
  0
SEQEND
  5
206
330
1FD
100
AcDbEntity
  8
None
  6
Continuous
 62
     7
370
    18
  0
WIPEOUT
  5
207
330
48
100
AcDbEntity
  8
None
  6
Continuous
 62
     7
370
    18
 92
      200
310
C8000000040000000C0000000E000000B20000000C00000016000000000000C20C00000014000000010000009C00000007000000060000001794B4D1B5FC1A40F75120DD9C5510C000000000000000000A2476C6A7FC1A40A28F2CD48D9D0EC00000000000000000EE6D20DF4E171C40A28F2CD48D9D0EC000000000000000
310
00EE6D20DF4E171C40F75120DD9C5510C00000000000000000459C21BCD3F61B40F75120DD9C5510C00000000000000000F79538C2D4B11B40F75120DD9C5510C00000000000000000
100
AcDbWipeout
 90
        0
 10
6.746733761749973
 20
-4.083606200311343
 30
0.0
 11
0.2760280469833321
 21
0.0
 31
0.0
 12
0.0
 22
0.2760280469833321
 32
0.0
 13
1.0
 23
1.0
340
0
 70
     4
280
     1
281
    50
282
    50
283
     0
360
0
 71
     2
 91
        7
 14
-0.4998059135315032
 24
0.5
 14
-0.5
 24
-0.4298892988929914
 14
0.5
 24
-0.4298892988929914
 14
0.5
 24
0.5
 14
0.3850851223916187
 24
0.5
 14
0.140983453033023
 24
0.5
 14
-0.4998059135315032
 24
0.5
  0
POLYLINE
  5
208
330
48
100
AcDbEntity
  8
None
  6
Continuous
 62
     7
370
    18
100
AcDb2dPolyline
 66
     1
 10
0.0
 20
0.0
 30
0.0
 70
     1
  0
VERTEX
  5
209
330
208
100
AcDbEntity
  8
None
  6
Continuous
 62
     7
370
    18
100
AcDbVertex
100
AcDb2dVertex
 10
6.746787335058818
 20
-4.083606200311343
 30
0.0
  0
VERTEX
  5
20A
330
208
100
AcDbEntity
  8
None
  6
Continuous
 62
     7
370
    18
100
AcDbVertex
100
AcDb2dVertex
 10
6.746733761749973
 20
-3.826930673227211
 30
0.0
  0
VERTEX
  5
20B
330
208
100
AcDbEntity
  8
None
  6
Continuous
 62
     7
370
    18
100
AcDbVertex
100
AcDb2dVertex
 10
7.022761808733305
 20
-3.826930673227211
 30
0.0
  0
VERTEX
  5
20C
330
208
100
AcDbEntity
  8
None
  6
Continuous
 62
     7
370
    18
100
AcDbVertex
100
AcDb2dVertex
 10
7.022761808733305
 20
-4.083606200311343
 30
0.0
  0
VERTEX
  5
20D
330
208
100
AcDbEntity
  8
None
  6
Continuous
 62
     7
370
    18
100
AcDbVertex
100
AcDb2dVertex
 10
6.991042079497736
 20
-4.083606200311343
 30
0.0
  0
VERTEX
  5
20E
330
208
100
AcDbEntity
  8
None
  6
Continuous
 62
     7
370
    18
100
AcDbVertex
100
AcDb2dVertex
 10
6.923663172439311
 20
-4.083606200311343
 30
0.0
  0
SEQEND
  5
20F
330
208
100
AcDbEntity
  8
None
  6
Continuous
 62
     7
370
    18
  0
WIPEOUT
  5
210
330
48
100
AcDbEntity
  8
None
  6
Continuous
 62
     7
370
    18
 92
      200
310
C8000000040000000C0000000E000000B20000000C00000016000000000000C20C00000014000000010000009C000000070000000600000051C070DD93FC1A409ED84630965510C000000000000000000A2476C6A7FC1A40F29C797A809D0EC00000000000000000C2863967EF6B1940F29C797A809D0EC000000000000000
310
00C2863967EF6B19409ED84630965510C000000000000000008DD2AFDFFB9919409ED84630965510C000000000000000002089E6E3CCFB19409ED84630965510C00000000000000000
100
AcDbWipeout
 90
        0
 10
6.355405438314564
 20
-4.083580736469369
 30
0.0
 11
0.3913283234354088
 21
0.0
 31
0.0
 12
0.0
 22
0.3913283234354088
 32
0.0
 13
1.0
 23
1.0
340
0
 70
     4
280
     1
281
    50
282
    50
283
     0
360
0
 71
     2
 91
        7
 14
0.4998059135315067
 24
0.5000000000000018
 14
0.5
 24
-0.1559083810515354
 14
-0.5
 24
-0.1559083810515354
 14
-0.5
 24
0.5000000000000018
 14
-0.385085122391633
 24
0.5000000000000018
 14
-0.1409834530330301
 24
0.5000000000000018
 14
0.4998059135315067
 24
0.5000000000000018
  0
POLYLINE
  5
211
330
48
100
AcDbEntity
  8
None
  6
Continuous
 62
     7
370
    18
100
AcDb2dPolyline
 66
     1
 10
0.0
 20
0.0
 30
0.0
 70
     1
  0
VERTEX
  5
212
330
211
100
AcDbEntity
  8
None
  6
Continuous
 62
     7
370
    18
100
AcDbVertex
100
AcDb2dVertex
 10
6.746657810217656
 20
-4.083580736469369
 30
0.0
  0
VERTEX
  5
213
330
211
100
AcDbEntity
  8
None
  6
Continuous
 62
     7
370
    18
100
AcDbVertex
100
AcDb2dVertex
 10
6.746733761749973
 20
-3.826905209385238
 30
0.0
  0
VERTEX
  5
214
330
211
100
AcDbEntity
  8
None
  6
Continuous
 62
     7
370
    18
100
AcDbVertex
100
AcDb2dVertex
 10
6.355405438314564
 20
-3.826905209385238
 30
0.0
  0
VERTEX
  5
215
330
211
100
AcDbEntity
  8
None
  6
Continuous
 62
     7
370
    18
100
AcDbVertex
100
AcDb2dVertex
 10
6.355405438314564
 20
-4.083580736469369
 30
0.0
  0
VERTEX
  5
216
330
211
100
AcDbEntity
  8
None
  6
Continuous
 62
     7
370
    18
100
AcDbVertex
100
AcDb2dVertex
 10
6.400374884706832
 20
-4.083580736469369
 30
0.0
  0
VERTEX
  5
217
330
211
100
AcDbEntity
  8
None
  6
Continuous
 62
     7
370
    18
100
AcDbVertex
100
AcDb2dVertex
 10
6.495898781724719
 20
-4.083580736469369
 30
0.0
  0
SEQEND
  5
218
330
211
100
AcDbEntity
  8
None
  6
Continuous
 62
     7
370
    18
  0
POLYLINE
  5
219
102
{ACAD_REACTORS
330
221
102
}
330
48
100
AcDbEntity
  8
None
  6
Continuous
 62
     7
370
    18
100
AcDb2dPolyline
 66
     1
 10
0.0
 20
0.0
 30
0.0
 70
     1
  0
VERTEX
  5
21A
330
219
100
AcDbEntity
  8
None
  6
Continuous
 62
     7
370
    18
100
AcDbVertex
100
AcDb2dVertex
 10
6.120572546693396
 20
-4.083580736469369
 30
0.0
  0
VERTEX
  5
21B
330
219
100
AcDbEntity
  8
None
  6
Continuous
 62
     7
370
    18
100
AcDbVertex
100
AcDb2dVertex
 10
6.120526959959006
 20
-3.826905209385238
 30
0.0
  0
VERTEX
  5
21C
330
219
100
AcDbEntity
  8
None
  6
Continuous
 62
     7
370
    18
100
AcDbVertex
100
AcDb2dVertex
 10
6.355405438314564
 20
-3.826905209385238
 30
0.0
  0
VERTEX
  5
21D
330
219
100
AcDbEntity
  8
None
  6
Continuous
 62
     7
370
    18
100
AcDbVertex
100
AcDb2dVertex
 10
6.355405438314564
 20
-4.083580736469369
 30
0.0
  0
VERTEX
  5
21E
330
219
100
AcDbEntity
  8
None
  6
Continuous
 62
     7
370
    18
100
AcDbVertex
100
AcDb2dVertex
 10
6.328414406721497
 20
-4.083580736469369
 30
0.0
  0
VERTEX
  5
21F
330
219
100
AcDbEntity
  8
None
  6
Continuous
 62
     7
370
    18
100
AcDbVertex
100
AcDb2dVertex
 10
6.271080178058494
 20
-4.083580736469369
 30
0.0
  0
SEQEND
  5
220
330
219
100
AcDbEntity
  8
None
  6
Continuous
 62
     7
370
    18
  0
HATCH
  5
221
330
48
100
AcDbEntity
  8
None
  6
Continuous
 62
   161
370
     0
100
AcDbHatch
 10
0.0
 20
0.0
 30
0.0
210
0.0
220
0.0
230
1.0
  2
SOLID
 70
     1
 71
     1
 91
        1
 92
        1
 93
        6
 72
     1
 10
6.120572546693396
 20
-4.083580736469369
 11
6.120526959959006
 21
-3.826905209385238
 72
     1
 10
6.120526959959006
 20
-3.826905209385238
 11
6.355405438314564
 21
-3.826905209385238
 72
     1
 10
6.355405438314564
 20
-3.826905209385238
 11
6.355405438314564
 21
-4.083580736469369
 72
     1
 10
6.355405438314564
 20
-4.083580736469369
 11
6.328414406721497
 21
-4.083580736469369
 72
     1
 10
6.328414406721497
 20
-4.083580736469369
 11
6.271080178058494
 21
-4.083580736469369
 72
     1
 10
6.271080178058494
 20
-4.083580736469369
 11
6.120572546693396
 21
-4.083580736469369
 97
        1
330
219
 75
     0
 76
     1
 98
        1
 10
0.0
 20
0.0
  0
MTEXT
  5
222
330
48
100
AcDbEntity
  8
None
 62
     7
100
AcDbMText
 10
4.569178931343012
 20
-4.674167181637091
 30
0.0
 40
0.0781091510847966
 41
0.0
 71
     1
 72
     1
  1
BOUNDARY ROAD
  7
Helvetica
 11
0.0
 21
1.0
 31
0.0
 73
     1
 44
0.8397955333929319
  0
MTEXT
  5
223
330
48
100
AcDbEntity
  8
None
 62
     7
100
AcDbMText
 10
6.616605607963247
 20
-3.22910392007349
 30
0.0
 40
0.0781091510847966
 41
0.0
 71
     1
 72
     1
  1
HENNING DRIVE
  7
Helvetica
 73
     1
 44
0.8397955333929319
  0
WIPEOUT
  5
224
330
48
100
AcDbEntity
  8
None
  6
Continuous
 62
     7
370
    18
 92
      152
310
98000000040000000C0000000E000000B20000000C00000016000000000000C20C00000014000000010000006C00000007000000040000001E85BB0F01921D400529B352452011C000000000000000001C80D2C78B161E400529B352452011C000000000000000001C80D2C78B161E400ABBD1399CFE11C000000000000000
310
001E85BB0F01921D400ABBD1399CFE11C00000000000000000
100
AcDbWipeout
 90
        0
 10
7.392582174129783
 20
-4.498642829347554
 30
0.0
 11
0.2171283829125104
 21
0.0
 31
0.0
 12
0.0
 22
0.2171283829125104
 32
0.0
 13
1.0
 23
1.0
340
0
 70
     4
280
     1
281
    50
282
    50
283
     0
360
0
 71
     2
 91
        5
 14
-0.5
 24
-0.5000000000000036
 14
0.0961239135931322
 24
-0.5000000000000036
 14
0.0961239135931322
 24
0.4999999999999964
 14
-0.5
 24
0.4999999999999964
 14
-0.5
 24
-0.5000000000000036
  0
POLYLINE
  5
225
330
48
100
AcDbEntity
  8
None
  6
Continuous
 62
     7
370
    18
100
AcDb2dPolyline
 66
     1
 10
0.0
 20
0.0
 30
0.0
 70
     1
  0
VERTEX
  5
226
330
225
100
AcDbEntity
  8
None
  6
Continuous
 62
     7
370
    18
100
AcDbVertex
100
AcDb2dVertex
 10
7.392582174129783
 20
-4.281514446435044
 30
0.0
  0
VERTEX
  5
227
330
225
100
AcDbEntity
  8
None
  6
Continuous
 62
     7
370
    18
100
AcDbVertex
100
AcDb2dVertex
 10
7.522017595503738
 20
-4.281514446435044
 30
0.0
  0
VERTEX
  5
228
330
225
100
AcDbEntity
  8
None
  6
Continuous
 62
     7
370
    18
100
AcDbVertex
100
AcDb2dVertex
 10
7.522017595503738
 20
-4.498642829347554
 30
0.0
  0
VERTEX
  5
229
330
225
100
AcDbEntity
  8
None
  6
Continuous
 62
     7
370
    18
100
AcDbVertex
100
AcDb2dVertex
 10
7.392582174129783
 20
-4.498642829347554
 30
0.0
  0
SEQEND
  5
22A
330
225
100
AcDbEntity
  8
None
  6
Continuous
 62
     7
370
    18
  0
WIPEOUT
  5
22B
330
48
100
AcDbEntity
  8
None
  6
Continuous
 62
     7
370
    18
 92
      200
310
C8000000040000000C0000000E000000B20000000C00000016000000000000C20C00000014000000010000009C0000000700000006000000D5B66FC619BA1840C04A4FBF583011C00000000000000000B9A1259CE0B9184020136893B9F311C00000000000000000822B4B4667381D4020136893B9F311C000000000000000
310
00822B4B4667381D40C04A4FBF583011C0000000000000000045CB11DC30B41C40C04A4FBF583011C0000000000000000032B8D174589B1B40C04A4FBF583011C00000000000000000
100
AcDbWipeout
 90
        0
 10
6.1815208814591
 20
-4.488012603022782
 30
0.0
 11
1.123560579816009
 21
0.0
 31
0.0
 12
0.0
 22
1.123560579816009
 32
0.0
 13
1.0
 23
1.0
340
0
 70
     4
280
     1
281
    50
282
    50
283
     0
360
0
 71
     2
 91
        7
 14
-0.4998059135315032
 24
0.3301835589875695
 14
-0.4999999999999991
 24
0.4999999999999996
 14
0.5000000000000009
 24
0.4999999999999996
 14
0.5000000000000009
 24
0.3301835589875695
 14
0.3850851223916285
 24
0.3301835589875695
 14
0.1409834530330274
 24
0.3301835589875695
 14
-0.4998059135315032
 24
0.3301835589875695
  0
POLYLINE
  5
22C
330
48
100
AcDbEntity
  8
None
  6
Continuous
 62
     7
370
    18
100
AcDb2dPolyline
 66
     1
 10
0.0
 20
0.0
 30
0.0
 70
     1
  0
VERTEX
  5
22D
330
22C
100
AcDbEntity
  8
None
  6
Continuous
 62
     7
370
    18
100
AcDbVertex
100
AcDb2dVertex
 10
6.181738949364179
 20
-4.297213544096565
 30
0.0
  0
VERTEX
  5
22E
330
22C
100
AcDbEntity
  8
None
  6
Continuous
 62
     7
370
    18
100
AcDbVertex
100
AcDb2dVertex
 10
6.1815208814591
 20
-4.488012603022782
 30
0.0
  0
VERTEX
  5
22F
330
22C
100
AcDbEntity
  8
None
  6
Continuous
 62
     7
370
    18
100
AcDbVertex
100
AcDb2dVertex
 10
7.305081461275109
 20
-4.488012603022782
 30
0.0
  0
VERTEX
  5
230
330
22C
100
AcDbEntity
  8
None
  6
Continuous
 62
     7
370
    18
100
AcDbVertex
100
AcDb2dVertex
 10
7.305081461275109
 20
-4.297213544096565
 30
0.0
  0
VERTEX
  5
231
330
22C
100
AcDbEntity
  8
None
  6
Continuous
 62
     7
370
    18
100
AcDbVertex
100
AcDb2dVertex
 10
7.175967634759961
 20
-4.297213544096565
 30
0.0
  0
VERTEX
  5
232
330
22C
100
AcDbEntity
  8
None
  6
Continuous
 62
     7
370
    18
100
AcDbVertex
100
AcDb2dVertex
 10
6.901704621601356
 20
-4.297213544096565
 30
0.0
  0
SEQEND
  5
233
330
22C
100
AcDbEntity
  8
None
  6
Continuous
 62
     7
370
    18
  0
WIPEOUT
  5
234
330
48
100
AcDbEntity
  8
None
  6
Continuous
 62
     7
370
    18
 92
      152
310
98000000040000000C0000000E000000B20000000C00000016000000000000C20C00000014000000010000006C00000007000000040000002080D2C78B161E400529B352452011C00000000000000000D836F91CEDC91E400529B352452011C00000000000000000D836F91CEDC91E400ABBD1399CFE11C000000000000000
310
002080D2C78B161E400ABBD1399CFE11C00000000000000000
100
AcDbWipeout
 90
        0
 10
7.52201759550374
 20
-4.498642829347554
 30
0.0
 11
0.2171283829125104
 21
0.0
 31
0.0
 12
0.0
 22
0.2171283829125104
 32
0.0
 13
1.0
 23
1.0
340
0
 70
     4
280
     1
281
    50
282
    50
283
     0
360
0
 71
     2
 91
        5
 14
-0.5
 24
-0.5000000000000036
 14
0.3067852743944997
 24
-0.5000000000000036
 14
0.3067852743944997
 24
0.4999999999999964
 14
-0.5
 24
0.4999999999999964
 14
-0.5
 24
-0.5000000000000036
  0
POLYLINE
  5
235
330
48
100
AcDbEntity
  8
None
  6
Continuous
 62
     7
370
    18
100
AcDb2dPolyline
 66
     1
 10
0.0
 20
0.0
 30
0.0
 70
     1
  0
VERTEX
  5
236
330
235
100
AcDbEntity
  8
None
  6
Continuous
 62
     7
370
    18
100
AcDbVertex
100
AcDb2dVertex
 10
7.52201759550374
 20
-4.281514446435044
 30
0.0
  0
VERTEX
  5
237
330
235
100
AcDbEntity
  8
None
  6
Continuous
 62
     7
370
    18
100
AcDbVertex
100
AcDb2dVertex
 10
7.697193577490643
 20
-4.281514446435044
 30
0.0
  0
VERTEX
  5
238
330
235
100
AcDbEntity
  8
None
  6
Continuous
 62
     7
370
    18
100
AcDbVertex
100
AcDb2dVertex
 10
7.697193577490643
 20
-4.498642829347554
 30
0.0
  0
VERTEX
  5
239
330
235
100
AcDbEntity
  8
None
  6
Continuous
 62
     7
370
    18
100
AcDbVertex
100
AcDb2dVertex
 10
7.52201759550374
 20
-4.498642829347554
 30
0.0
  0
SEQEND
  5
23A
330
235
100
AcDbEntity
  8
None
  6
Continuous
 62
     7
370
    18
  0
WIPEOUT
  5
23B
330
48
100
AcDbEntity
  8
None
  6
Continuous
 62
     7
370
    18
 92
      152
310
98000000040000000C0000000E000000B20000000C00000016000000000000C20C00000014000000010000006C0000000700000004000000802B4B4667381D40C14A4FBF583011C00000000000000000802B4B4667381D40E143AFE6890711C00000000000000000D4B66FC619BA1840E143AFE6890711C000000000000000
310
00D4B66FC619BA1840C14A4FBF583011C00000000000000000
100
AcDbWipeout
 90
        0
 10
6.181738949364179
 20
-4.297213544096565
 30
0.0
 11
1.123342511910931
 21
0.0
 31
0.0
 12
0.0
 22
1.123342511910931
 32
0.0
 13
1.0
 23
1.0
340
0
 70
     4
280
     1
281
    50
282
    50
283
     0
360
0
 71
     2
 91
        5
 14
0.4999999999999991
 24
0.5
 14
0.4999999999999991
 24
0.464524127610435
 14
-0.5000000000000009
 24
0.464524127610435
 14
-0.5000000000000009
 24
0.5
 14
0.4999999999999991
 24
0.5
  0
POLYLINE
  5
23C
330
48
100
AcDbEntity
  8
None
  6
Continuous
 62
     7
370
    18
100
AcDb2dPolyline
 66
     1
 10
0.0
 20
0.0
 30
0.0
 70
     1
  0
VERTEX
  5
23D
330
23C
100
AcDbEntity
  8
None
  6
Continuous
 62
     7
370
    18
100
AcDbVertex
100
AcDb2dVertex
 10
7.305081461275109
 20
-4.297213544096565
 30
0.0
  0
VERTEX
  5
23E
330
23C
100
AcDbEntity
  8
None
  6
Continuous
 62
     7
370
    18
100
AcDbVertex
100
AcDb2dVertex
 10
7.305081461275109
 20
-4.25736198849424
 30
0.0
  0
VERTEX
  5
23F
330
23C
100
AcDbEntity
  8
None
  6
Continuous
 62
     7
370
    18
100
AcDbVertex
100
AcDb2dVertex
 10
6.181738949364179
 20
-4.25736198849424
 30
0.0
  0
VERTEX
  5
240
330
23C
100
AcDbEntity
  8
None
  6
Continuous
 62
     7
370
    18
100
AcDbVertex
100
AcDb2dVertex
 10
6.181738949364179
 20
-4.297213544096565
 30
0.0
  0
SEQEND
  5
241
330
23C
100
AcDbEntity
  8
None
  6
Continuous
 62
     7
370
    18
  0
MTEXT
  5
242
330
48
100
AcDbEntity
  8
None
 62
   251
100
AcDbMText
 10
5.618603976180795
 20
-4.322228721193647
 30
0.0
 40
0.099629019240812
 41
0.0
 71
     2
 72
     1
  1
6
  7
Helvetica
 73
     1
 44
0.8397955333929318
  0
MTEXT
  5
243
330
48
100
AcDbEntity
  8
None
 62
   251
100
AcDbMText
 10
6.549179178356943
 20
-3.896400621398457
 30
0.0
 40
0.099629019240812
 41
0.0
 71
     2
 72
     1
  1
2
  7
Helvetica
 73
     1
 44
0.8397955333929318
  0
MTEXT
  5
244
330
48
100
AcDbEntity
  8
None
 62
   251
100
AcDbMText
 10
6.884751797476892
 20
-3.896400621398457
 30
0.0
 40
0.099629019240812
 41
0.0
 71
     2
 72
     1
  1
3
  7
Helvetica
 73
     1
 44
0.8397955333929318
  0
MTEXT
  5
245
330
48
100
AcDbEntity
  8
None
 62
   251
100
AcDbMText
 10
6.720007505161086
 20
-4.33882136549535
 30
0.0
 40
0.099629019240812
 41
0.0
 71
     2
 72
     1
  1
FX
  7
Helvetica
 73
     1
 44
0.8397955333929318
  0
MTEXT
  5
246
330
48
100
AcDbEntity
  8
None
 62
     7
100
AcDbMText
 10
6.238478075767098
 20
-3.896400621398457
 30
0.0
 40
0.099629019240812
 41
0.0
 71
     2
 72
     1
  1
1
  7
Helvetica
 73
     1
 44
0.8397955333929318
  0
MTEXT
  5
247
330
48
100
AcDbEntity
  8
None
 62
   251
100
AcDbMText
 10
7.455730416853805
 20
-4.338845230106877
 30
0.0
 40
0.099629019240812
 41
0.0
 71
     2
 72
     1
  1
B
  7
Helvetica
 73
     1
 44
0.8397955333929318
  0
MTEXT
  5
248
330
48
100
AcDbEntity
  8
None
 62
     7
100
AcDbMText
 10
5.730890440666967
 20
-3.422169763419138
 30
0.0
 40
0.0398516076963248
 41
0.0
 71
     2
 72
     1
  1
SECURITY\PGATE
  7
Helvetica
 73
     1
 44
0.8397955333929318
  0
INSERT
  5
249
330
48
100
AcDbEntity
  8
elements-ojects
 62
     7
100
AcDbBlockReference
  2
Group-3-1
 10
0.0
 20
0.0
 30
0.0
  0
WIPEOUT
  5
24A
330
48
100
AcDbEntity
  8
None
  6
Continuous
 62
   250
370
     9
 92
      392
310
88010000040000000C0000000E000000B20000000C00000016000000000000C20C00000014000000010000005C010000070000000E000000C0ECD5D6A8D7134053D882BCA6480FC00000000000000000C0ECD5D6A8D71340F11865225A630FC00000000000000000D54EBC2AF2B21340F11865225A630FC000000000000000
310
00D54EBC2AF2B2134064957AE07AC70FC00000000000000000B8EF36FBE999134064957AE07AC70FC00000000000000000B8EF36FBE99913407B0977601F3B11C0000000000000000075B587506B2515407B0977601F3B11C0000000000000000075B587506B2515405A226D61BA840FC000000000000000009A22290856E4
310
14405A226D61BA840FC000000000000000009A22290856E414406E448BF2514A0FC000000000000000001CC68E0E2FB814406E448BF2514A0FC000000000000000001CC68E0E2FB8144052E505C349310FC00000000000000000712E58B5F4FB134052E505C349310FC00000000000000000712E58B5F4FB134053D882BCA6
310
480FC00000000000000000
100
AcDbWipeout
 90
        0
 10
4.90030663035207
 20
-4.307736880555576
 30
0.0
 11
0.4086704098205742
 21
0.0
 31
0.0
 12
0.0
 22
0.4086704098205742
 32
0.0
 13
1.0
 23
1.0
340
0
 70
     4
280
     1
281
    50
282
    50
283
     0
360
0
 71
     2
 91
       15
 14
-0.3524523035186551
 24
-0.4720855648435691
 14
-0.3524523035186551
 24
-0.4401833603153538
 14
-0.440183366330146
 24
-0.4401833603153538
 14
-0.440183366330146
 24
-0.3205500929756475
 14
-0.5
 24
-0.3205500929756475
 14
-0.5
 24
0.5
 14
0.4451028150462761
 24
0.5
 14
0.4451028150462761
 24
-0.400305610550248
 14
0.2895795669623258
 24
-0.400305610550248
 14
0.2895795669623258
 24
-0.4700916831650748
 14
0.1840729610664589
 24
-0.4700916831650748
 14
0.1840729610664589
 24
-0.5
 14
-0.2657181845737533
 24
-0.5
 14
-0.2657181845737533
 24
-0.4720855648435691
 14
-0.3524523035186551
 24
-0.4720855648435691
  0
POLYLINE
  5
24B
330
48
100
AcDbEntity
  8
None
  6
Continuous
 62
   250
370
     9
100
AcDb2dPolyline
 66
     1
 10
0.0
 20
0.0
 30
0.0
 70
     1
  0
VERTEX
  5
24C
330
24B
100
AcDbEntity
  8
None
  6
Continuous
 62
   250
370
     9
100
AcDbVertex
100
AcDb2dVertex
 10
4.960605007941183
 20
-3.910474274390291
 30
0.0
  0
VERTEX
  5
24D
330
24B
100
AcDbEntity
  8
None
  6
Continuous
 62
   250
370
     9
100
AcDbVertex
100
AcDb2dVertex
 10
4.960605007941183
 20
-3.923511761389016
 30
0.0
  0
VERTEX
  5
24E
330
24B
100
AcDbEntity
  8
None
  6
Continuous
 62
   250
370
     9
100
AcDbVertex
100
AcDb2dVertex
 10
4.924751918548016
 20
-3.923511761389016
 30
0.0
  0
VERTEX
  5
24F
330
24B
100
AcDbEntity
  8
None
  6
Continuous
 62
   250
370
     9
100
AcDbVertex
100
AcDb2dVertex
 10
4.924751918548016
 20
-3.972402337780908
 30
0.0
  0
VERTEX
  5
250
330
24B
100
AcDbEntity
  8
None
  6
Continuous
 62
   250
370
     9
100
AcDbVertex
100
AcDb2dVertex
 10
4.90030663035207
 20
-3.972402337780908
 30
0.0
  0
VERTEX
  5
251
330
24B
100
AcDbEntity
  8
None
  6
Continuous
 62
   250
370
     9
100
AcDbVertex
100
AcDb2dVertex
 10
4.90030663035207
 20
-4.307736880555576
 30
0.0
  0
VERTEX
  5
252
330
24B
100
AcDbEntity
  8
None
  6
Continuous
 62
   250
370
     9
100
AcDbVertex
100
AcDb2dVertex
 10
5.28654218509961
 20
-4.307736880555576
 30
0.0
  0
VERTEX
  5
253
330
24B
100
AcDbEntity
  8
None
  6
Continuous
 62
   250
370
     9
100
AcDbVertex
100
AcDb2dVertex
 10
5.28654218509961
 20
-3.939808617728244
 30
0.0
  0
VERTEX
  5
254
330
24B
100
AcDbEntity
  8
None
  6
Continuous
 62
   250
370
     9
100
AcDbVertex
100
AcDb2dVertex
 10
5.222984435568515
 20
-3.939808617728244
 30
0.0
  0
VERTEX
  5
255
330
24B
100
AcDbEntity
  8
None
  6
Continuous
 62
   250
370
     9
100
AcDbVertex
100
AcDb2dVertex
 10
5.222984435568515
 20
-3.911289114832975
 30
0.0
  0
VERTEX
  5
256
330
24B
100
AcDbEntity
  8
None
  6
Continuous
 62
   250
370
     9
100
AcDbVertex
100
AcDb2dVertex
 10
5.179867007698273
 20
-3.911289114832975
 30
0.0
  0
VERTEX
  5
257
330
24B
100
AcDbEntity
  8
None
  6
Continuous
 62
   250
370
     9
100
AcDbVertex
100
AcDb2dVertex
 10
5.179867007698273
 20
-3.899066470735002
 30
0.0
  0
VERTEX
  5
258
330
24B
100
AcDbEntity
  8
None
  6
Continuous
 62
   250
370
     9
100
AcDbVertex
100
AcDb2dVertex
 10
4.996050675875822
 20
-3.899066470735002
 30
0.0
  0
VERTEX
  5
259
330
24B
100
AcDbEntity
  8
None
  6
Continuous
 62
   250
370
     9
100
AcDbVertex
100
AcDb2dVertex
 10
4.996050675875822
 20
-3.910474274390291
 30
0.0
  0
SEQEND
  5
25A
330
24B
100
AcDbEntity
  8
None
  6
Continuous
 62
   250
370
     9
  0
MTEXT
  5
25B
330
48
100
AcDbEntity
  8
None
 62
   251
100
AcDbMText
 10
7.201387056626372
 20
-3.883202994517626
 30
0.0
 40
0.099629019240812
 41
0.0
 71
     2
 72
     1
  1
H
  7
Helvetica
 73
     1
 44
0.8397955333929318
  0
MTEXT
  5
25C
330
48
100
AcDbEntity
  8
None
 62
   251
100
AcDbMText
 10
7.582748699248813
 20
-3.885148478708215
 30
0.0
 40
0.099629019240812
 41
0.0
 71
     2
 72
     1
  1
4
  7
Helvetica
 73
     1
 44
0.8397955333929318
  0
WIPEOUT
  5
25D
330
48
100
AcDbEntity
  8
None
  6
Continuous
 62
     7
370
    18
 92
      152
310
98000000040000000C0000000E000000B20000000C00000016000000000000C20C00000014000000010000006C00000007000000040000000BAB46670AAC1A40A08F598806960BC0000000000000000060407B99ECF91B40A08F598806960BC0000000000000000060407B99ECF91B40ACFC93DC01090DC000000000000000
310
000BAB46670AAC1A40ACFC93DC01090DC00000000000000000
100
AcDbWipeout
 90
        0
 10
6.668008435905684
 20
-3.629398082033353
 30
0.0
 11
0.3260581822008435
 21
0.0
 31
0.0
 12
0.0
 22
0.3260581822008435
 32
0.0
 13
1.0
 23
1.0
340
0
 70
     4
280
     1
281
    50
282
    50
283
     0
360
0
 71
     2
 91
        5
 14
-0.4999999999999964
 24
-0.0555555555555589
 14
0.5000000000000036
 24
-0.0555555555555589
 14
0.5000000000000036
 24
0.5
 14
-0.4999999999999964
 24
0.5
 14
-0.4999999999999964
 24
-0.0555555555555589
  0
POLYLINE
  5
25E
330
48
100
AcDbEntity
  8
None
  6
Continuous
 62
     7
370
    18
100
AcDb2dPolyline
 66
     1
 10
0.0
 20
0.0
 30
0.0
 70
     1
  0
VERTEX
  5
25F
330
25E
100
AcDbEntity
  8
None
  6
Continuous
 62
     7
370
    18
100
AcDbVertex
100
AcDb2dVertex
 10
6.668008435905684
 20
-3.448254647477327
 30
0.0
  0
VERTEX
  5
260
330
25E
100
AcDbEntity
  8
None
  6
Continuous
 62
     7
370
    18
100
AcDbVertex
100
AcDb2dVertex
 10
6.994066618106528
 20
-3.448254647477327
 30
0.0
  0
VERTEX
  5
261
330
25E
100
AcDbEntity
  8
None
  6
Continuous
 62
     7
370
    18
100
AcDbVertex
100
AcDb2dVertex
 10
6.994066618106528
 20
-3.629398082033353
 30
0.0
  0
VERTEX
  5
262
330
25E
100
AcDbEntity
  8
None
  6
Continuous
 62
     7
370
    18
100
AcDbVertex
100
AcDb2dVertex
 10
6.668008435905684
 20
-3.629398082033353
 30
0.0
  0
SEQEND
  5
263
330
25E
100
AcDbEntity
  8
None
  6
Continuous
 62
     7
370
    18
  0
MTEXT
  5
264
330
48
100
AcDbEntity
  8
None
 62
     7
100
AcDbMText
 10
6.83064320675202
 20
-3.508572149492363
 30
0.0
 40
0.0398516076963248
 41
0.0
 71
     2
 72
     1
  1
CAFETERIA\P
  7
Helvetica
 73
     1
 44
0.8397955333929318
  0
MTEXT
  5
265
330
48
100
AcDbEntity
  8
None
 62
   251
100
AcDbMText
 10
5.618603976180795
 20
-4.04501806926748
 30
0.0
 40
0.099629019240812
 41
0.0
 71
     2
 72
     1
  1
5
  7
Helvetica
 73
     1
 44
0.8397955333929318
  0
ENDBLK
  5
4A
330
48
100
AcDbEntity
  8
0
100
AcDbBlockEnd
  0
BLOCK
  5
4C
330
4B
100
AcDbEntity
  8
0
100
AcDbBlockBegin
  2
*D5
 70
     1
 10
0.0
 20
0.0
 30
0.0
  3
*D5
  1

  0
LINE
  5
266
330
4B
100
AcDbEntity
  8
Dimension
  6
Continuous
 62
     0
370
    -2
100
AcDbLine
 10
-74.7016172644829
 20
581.5625
 30
0.0
 11
-74.7016172644828
 21
803.1249999999999
 31
0.0
  0
LINE
  5
267
330
4B
100
AcDbEntity
  8
Dimension
  6
Continuous
 62
     0
370
    -2
100
AcDbLine
 10
-1099.701617264483
 20
577.6204801361423
 30
0.0
 11
-1099.701617264483
 21
803.1249999999999
 31
0.0
  0
LINE
  5
268
330
4B
100
AcDbEntity
  8
Dimension
  6
Continuous
 62
     0
370
    -2
100
AcDbLine
 10
-97.82661726448282
 20
779.9999999999999
 30
0.0
 11
-529.0168865858323
 21
779.9999999999999
 31
0.0
  0
LINE
  5
269
102
{ACAD_REACTORS
330
26E
102
}
330
4B
100
AcDbEntity
  8
Dimension
  6
Continuous
 62
     0
370
    -2
100
AcDbLine
 10
-1076.576617264483
 20
779.9999999999999
 30
0.0
 11
-645.3863479431336
 21
779.9999999999999
 31
0.0
  0
INSERT
  5
26E
330
4B
100
AcDbEntity
  8
Dimension
 62
     0
370
    -2
100
AcDbBlockReference
  2
VW_FILLEDARROW
 10
-74.70161726448282
 20
779.9999999999999
 30
0.0
 41
23.125
 42
23.125
 43
23.125
  0
INSERT
  5
26F
102
{ACAD_REACTORS
330
274
102
}
330
4B
100
AcDbEntity
  8
Dimension
 62
     0
370
    -2
100
AcDbBlockReference
  2
VW_FILLEDARROW
 10
-1099.701617264483
 20
779.9999999999999
 30
0.0
 41
23.125
 42
23.125
 43
23.125
 50
180.0
  0
MTEXT
  5
274
330
4B
100
AcDbEntity
  8
Dimension
 62
     0
370
     9
100
AcDbMText
 10
-587.2016172644829
 20
779.9999999999999
 30
0.0
 40
22.11764227146026
 41
0.0
 71
     5
 72
     1
  1
\A1;85'-5"
  7
Helvetica
 73
     1
 44
1.0
  0
POINT
  5
275
330
4B
100
AcDbEntity
  8
Defpoints
 62
     0
100
AcDbPoint
 10
-74.7016172644829
 20
570.0
 30
0.0
  0
POINT
  5
276
330
4B
100
AcDbEntity
  8
Defpoints
 62
     0
100
AcDbPoint
 10
-1099.701617264483
 20
566.0579801361423
 30
0.0
  0
POINT
  5
277
330
4B
100
AcDbEntity
  8
Defpoints
 62
     0
100
AcDbPoint
 10
-1099.701617264483
 20
779.9999999999999
 30
0.0
  0
ENDBLK
  5
4D
330
4B
100
AcDbEntity
  8
0
100
AcDbBlockEnd
  0
BLOCK
  5
4F
330
4E
100
AcDbEntity
  8
0
100
AcDbBlockBegin
  2
*D6
 70
     1
 10
0.0
 20
0.0
 30
0.0
  3
*D6
  1

  0
LINE
  5
27A
330
4E
100
AcDbEntity
  8
Dimension
  6
Continuous
 62
     0
370
    -2
100
AcDbLine
 10
-1065.264117264483
 20
-583.9420198638579
 30
0.0
 11
-1415.125
 21
-583.9420198638579
 31
0.0
  0
LINE
  5
27B
330
4E
100
AcDbEntity
  8
Dimension
  6
Continuous
 62
     0
370
    -2
100
AcDbLine
 10
-969.2641172644834
 20
622.0579801361421
 30
0.0
 11
-1415.125
 21
622.0579801361421
 31
0.0
  0
LINE
  5
27C
330
4E
100
AcDbEntity
  8
Dimension
  6
Continuous
 62
     0
370
    -2
100
AcDbLine
 10
-1392.0
 20
-560.8170198638579
 30
0.0
 11
-1392.0
 21
5.108534000411964
 31
0.0
  0
LINE
  5
27D
102
{ACAD_REACTORS
330
282
102
}
330
4E
100
AcDbEntity
  8
Dimension
  6
Continuous
 62
     0
370
    -2
100
AcDbLine
 10
-1392.0
 20
598.9329801361421
 30
0.0
 11
-1392.0
 21
33.00742627187208
 31
0.0
  0
INSERT
  5
282
330
4E
100
AcDbEntity
  8
Dimension
 62
     0
370
    -2
100
AcDbBlockReference
  2
VW_FILLEDARROW
 10
-1392.0
 20
-583.9420198638579
 30
0.0
 41
23.125
 42
23.125
 43
23.125
 50
270.0
  0
INSERT
  5
283
102
{ACAD_REACTORS
330
288
102
}
330
4E
100
AcDbEntity
  8
Dimension
 62
     0
370
    -2
100
AcDbBlockReference
  2
VW_FILLEDARROW
 10
-1392.0
 20
622.0579801361421
 30
0.0
 41
23.125
 42
23.125
 43
23.125
 50
90.0
  0
MTEXT
  5
288
330
4E
100
AcDbEntity
  8
Dimension
 62
     0
370
     9
100
AcDbMText
 10
-1392.0
 20
19.05798013614208
 30
0.0
 40
22.11764227146026
 41
0.0
 71
     5
 72
     1
  1
\A1;100'-6"
  7
Helvetica
 73
     1
 44
1.0
  0
POINT
  5
289
330
4E
100
AcDbEntity
  8
Defpoints
 62
     0
100
AcDbPoint
 10
-1053.701617264483
 20
-583.9420198638579
 30
0.0
  0
POINT
  5
28A
330
4E
100
AcDbEntity
  8
Defpoints
 62
     0
100
AcDbPoint
 10
-957.7016172644834
 20
622.0579801361421
 30
0.0
  0
POINT
  5
28B
330
4E
100
AcDbEntity
  8
Defpoints
 62
     0
100
AcDbPoint
 10
-1392.0
 20
622.0579801361421
 30
0.0
  0
ENDBLK
  5
50
330
4E
100
AcDbEntity
  8
0
100
AcDbBlockEnd
  0
BLOCK
  5
52
330
51
100
AcDbEntity
  8
0
100
AcDbBlockBegin
  2
*D7
 70
     1
 10
0.0
 20
0.0
 30
0.0
  3
*D7
  1

  0
LINE
  5
28E
330
51
100
AcDbEntity
  8
Dimension
  6
Continuous
 62
     0
370
    -2
100
AcDbLine
 10
-939.8891172644834
 20
215.0579801361409
 30
0.0
 11
-1295.125
 21
215.0579801361408
 31
0.0
  0
LINE
  5
28F
330
51
100
AcDbEntity
  8
Dimension
  6
Continuous
 62
     0
370
    -2
100
AcDbLine
 10
-1076.826617264483
 20
-583.9420198638579
 30
0.0
 11
-1295.125
 21
-583.9420198638579
 31
0.0
  0
LINE
  5
290
330
51
100
AcDbEntity
  8
Dimension
  6
Continuous
 62
     0
370
    -2
100
AcDbLine
 10
-1272.0
 20
191.9329801361408
 30
0.0
 11
-1272.0
 21
-170.4925737281284
 31
0.0
  0
LINE
  5
291
102
{ACAD_REACTORS
330
296
102
}
330
51
100
AcDbEntity
  8
Dimension
  6
Continuous
 62
     0
370
    -2
100
AcDbLine
 10
-1272.0
 20
-560.8170198638579
 30
0.0
 11
-1272.0
 21
-198.3914659995887
 31
0.0
  0
INSERT
  5
296
330
51
100
AcDbEntity
  8
Dimension
 62
     0
370
    -2
100
AcDbBlockReference
  2
VW_FILLEDARROW
 10
-1272.0
 20
215.0579801361408
 30
0.0
 41
23.125
 42
23.125
 43
23.125
 50
90.0
  0
INSERT
  5
297
102
{ACAD_REACTORS
330
29C
102
}
330
51
100
AcDbEntity
  8
Dimension
 62
     0
370
    -2
100
AcDbBlockReference
  2
VW_FILLEDARROW
 10
-1272.0
 20
-583.9420198638579
 30
0.0
 41
23.125
 42
23.125
 43
23.125
 50
270.0
  0
MTEXT
  5
29C
330
51
100
AcDbEntity
  8
Dimension
 62
     0
370
     9
100
AcDbMText
 10
-1272.0
 20
-184.4420198638585
 30
0.0
 40
22.11764227146026
 41
0.0
 71
     5
 72
     1
  1
\A1;66'-7"
  7
Helvetica
 73
     1
 44
1.0
  0
POINT
  5
29D
330
51
100
AcDbEntity
  8
Defpoints
 62
     0
100
AcDbPoint
 10
-928.3266172644834
 20
215.0579801361409
 30
0.0
  0
POINT
  5
29E
330
51
100
AcDbEntity
  8
Defpoints
 62
     0
100
AcDbPoint
 10
-1065.264117264483
 20
-583.9420198638579
 30
0.0
  0
POINT
  5
29F
330
51
100
AcDbEntity
  8
Defpoints
 62
     0
100
AcDbPoint
 10
-1272.0
 20
-583.9420198638579
 30
0.0
  0
ENDBLK
  5
53
330
51
100
AcDbEntity
  8
0
100
AcDbBlockEnd
  0
BLOCK
  5
55
330
54
100
AcDbEntity
  8
0
100
AcDbBlockBegin
  2
*D8
 70
     1
 10
0.0
 20
0.0
 30
0.0
  3
*D8
  1

  0
LINE
  5
2A2
330
54
100
AcDbEntity
  8
Dimension
  6
Continuous
 62
     0
370
    -2
100
AcDbLine
 10
-1004.5625
 20
622.0579801361421
 30
0.0
 11
-1295.125
 21
622.0579801361421
 31
0.0
  0
LINE
  5
2A3
330
54
100
AcDbEntity
  8
Dimension
  6
Continuous
 62
     0
370
    -2
100
AcDbLine
 10
-939.8891172644834
 20
215.0579801361409
 30
0.0
 11
-1295.125
 21
215.0579801361409
 31
0.0
  0
LINE
  5
2A4
330
54
100
AcDbEntity
  8
Dimension
  6
Continuous
 62
     0
370
    -2
100
AcDbLine
 10
-1272.0
 20
598.9329801361421
 30
0.0
 11
-1272.0
 21
432.5074262718716
 31
0.0
  0
LINE
  5
2A5
102
{ACAD_REACTORS
330
2AA
102
}
330
54
100
AcDbEntity
  8
Dimension
  6
Continuous
 62
     0
370
    -2
100
AcDbLine
 10
-1272.0
 20
238.1829801361409
 30
0.0
 11
-1272.0
 21
404.6085340004113
 31
0.0
  0
INSERT
  5
2AA
330
54
100
AcDbEntity
  8
Dimension
 62
     0
370
    -2
100
AcDbBlockReference
  2
VW_FILLEDARROW
 10
-1272.0
 20
622.0579801361421
 30
0.0
 41
23.125
 42
23.125
 43
23.125
 50
90.0
  0
INSERT
  5
2AB
102
{ACAD_REACTORS
330
2B0
102
}
330
54
100
AcDbEntity
  8
Dimension
 62
     0
370
    -2
100
AcDbBlockReference
  2
VW_FILLEDARROW
 10
-1272.0
 20
215.0579801361409
 30
0.0
 41
23.125
 42
23.125
 43
23.125
 50
270.0
  0
MTEXT
  5
2B0
330
54
100
AcDbEntity
  8
Dimension
 62
     0
370
     9
100
AcDbMText
 10
-1272.0
 20
418.5579801361415
 30
0.0
 40
22.11764227146026
 41
0.0
 71
     5
 72
     1
  1
\A1;33'-11"
  7
Helvetica
 73
     1
 44
1.0
  0
POINT
  5
2B1
330
54
100
AcDbEntity
  8
Defpoints
 62
     0
100
AcDbPoint
 10
-992.9999999999999
 20
622.0579801361421
 30
0.0
  0
POINT
  5
2B2
330
54
100
AcDbEntity
  8
Defpoints
 62
     0
100
AcDbPoint
 10
-928.3266172644834
 20
215.0579801361409
 30
0.0
  0
POINT
  5
2B3
330
54
100
AcDbEntity
  8
Defpoints
 62
     0
100
AcDbPoint
 10
-1272.0
 20
215.0579801361409
 30
0.0
  0
ENDBLK
  5
56
330
54
100
AcDbEntity
  8
0
100
AcDbBlockEnd
  0
BLOCK
  5
58
330
57
100
AcDbEntity
  8
0
100
AcDbBlockBegin
  2
Group-5-1
 70
     0
 10
0.0
 20
0.0
 30
0.0
  3
Group-5-1
  1

  0
WIPEOUT
  5
2B6
330
57
100
AcDbEntity
  8
None
  6
Continuous
 62
     7
370
     9
 92
      152
310
98000000040000000C0000000E000000B20000000C00000016000000000000C20C00000014000000010000006C0000000700000004000000D650194CE7AC52C0899128F9DA016940000000000000000073A80CA673D663C0899128F9DA016940000000000000000073A80CA673D663C0929128F9DA61694000000000000000
310
00D650194CE7AC52C0929128F9DA6169400000000000000000
100
AcDbWipeout
 90
        0
 10
-158.7016172644831
 20
200.0579801361421
 30
0.0
 11
84.00000000000023
 21
0.0
 31
0.0
 12
0.0
 22
84.00000000000023
 32
0.0
 13
1.0
 23
1.0
340
0
 70
     4
280
     1
281
    50
282
    50
283
     0
360
0
 71
     2
 91
        5
 14
0.4999999999999999
 24
0.5
 14
-0.5
 24
0.5
 14
-0.5
 24
0.4642857142857113
 14
0.4999999999999999
 24
0.4642857142857113
 14
0.4999999999999999
 24
0.5
  0
POLYLINE
  5
2B7
330
57
100
AcDbEntity
  8
None
  6
Continuous
 62
     7
370
     9
100
AcDb2dPolyline
 66
     1
 10
0.0
 20
0.0
 30
0.0
 70
     1
  0
VERTEX
  5
2B8
330
2B7
100
AcDbEntity
  8
None
  6
Continuous
 62
     7
370
     9
100
AcDbVertex
100
AcDb2dVertex
 10
-74.7016172644829
 20
200.0579801361421
 30
0.0
  0
VERTEX
  5
2B9
330
2B7
100
AcDbEntity
  8
None
  6
Continuous
 62
     7
370
     9
100
AcDbVertex
100
AcDb2dVertex
 10
-158.7016172644831
 20
200.0579801361421
 30
0.0
  0
VERTEX
  5
2BA
330
2B7
100
AcDbEntity
  8
None
  6
Continuous
 62
     7
370
     9
100
AcDbVertex
100
AcDb2dVertex
 10
-158.7016172644831
 20
203.0579801361424
 30
0.0
  0
VERTEX
  5
2BB
330
2B7
100
AcDbEntity
  8
None
  6
Continuous
 62
     7
370
     9
100
AcDbVertex
100
AcDb2dVertex
 10
-74.7016172644829
 20
203.0579801361424
 30
0.0
  0
SEQEND
  5
2BC
330
2B7
100
AcDbEntity
  8
None
  6
Continuous
 62
     7
370
     9
  0
WIPEOUT
  5
2BD
330
57
100
AcDbEntity
  8
None
  6
Continuous
 62
     7
370
     9
 92
      152
310
98000000040000000C0000000E000000B20000000C00000016000000000000C20C00000014000000010000006C0000000700000004000000D650194CE7AC52C0949128F9DA516940000000000000000073A80CA673D663C0949128F9DA516940000000000000000073A80CA673D663C0939128F9DA61694000000000000000
310
00D650194CE7AC52C0939128F9DA6169400000000000000000
100
AcDbWipeout
 90
        0
 10
-158.7016172644831
 20
202.5579801361424
 30
0.0
 11
84.00000000000023
 21
0.0
 31
0.0
 12
0.0
 22
84.00000000000023
 32
0.0
 13
1.0
 23
1.0
340
0
 70
     4
280
     1
281
    50
282
    50
283
     0
360
0
 71
     2
 91
        5
 14
0.4999999999999999
 24
0.4999999999999996
 14
-0.5
 24
0.4999999999999996
 14
-0.5
 24
0.4940476190476191
 14
0.4999999999999999
 24
0.4940476190476191
 14
0.4999999999999999
 24
0.4999999999999996
  0
POLYLINE
  5
2BE
330
57
100
AcDbEntity
  8
None
  6
Continuous
 62
     7
370
     9
100
AcDb2dPolyline
 66
     1
 10
0.0
 20
0.0
 30
0.0
 70
     1
  0
VERTEX
  5
2BF
330
2BE
100
AcDbEntity
  8
None
  6
Continuous
 62
     7
370
     9
100
AcDbVertex
100
AcDb2dVertex
 10
-74.7016172644829
 20
202.5579801361424
 30
0.0
  0
VERTEX
  5
2C0
330
2BE
100
AcDbEntity
  8
None
  6
Continuous
 62
     7
370
     9
100
AcDbVertex
100
AcDb2dVertex
 10
-158.7016172644831
 20
202.5579801361424
 30
0.0
  0
VERTEX
  5
2C1
330
2BE
100
AcDbEntity
  8
None
  6
Continuous
 62
     7
370
     9
100
AcDbVertex
100
AcDb2dVertex
 10
-158.7016172644831
 20
203.0579801361424
 30
0.0
  0
VERTEX
  5
2C2
330
2BE
100
AcDbEntity
  8
None
  6
Continuous
 62
     7
370
     9
100
AcDbVertex
100
AcDb2dVertex
 10
-74.7016172644829
 20
203.0579801361424
 30
0.0
  0
SEQEND
  5
2C3
330
2BE
100
AcDbEntity
  8
None
  6
Continuous
 62
     7
370
     9
  0
ENDBLK
  5
59
330
57
100
AcDbEntity
  8
0
100
AcDbBlockEnd
  0
BLOCK
  5
5B
330
5A
100
AcDbEntity
  8
0
100
AcDbBlockBegin
  2
Group-6-1
 70
     0
 10
0.0
 20
0.0
 30
0.0
  3
Group-6-1
  1

  0
LINE
  5
2C4
330
5A
100
AcDbEntity
  8
None
  6
Dash Style-6
 62
     7
370
     9
100
AcDbLine
 10
-928.7016172644832
 20
227.0579801361423
 30
0.0
 11
-928.7016172644832
 21
371.0579801361422
 31
0.0
  0
LINE
  5
2C5
330
5A
100
AcDbEntity
  8
None
  6
Dash Style-6
 62
     7
370
     9
100
AcDbLine
 10
-736.7016172644825
 20
227.0579801361423
 30
0.0
 11
-736.7016172644825
 21
371.0579801361422
 31
0.0
  0
LINE
  5
2C6
330
5A
100
AcDbEntity
  8
None
  6
Dash Style-6
 62
     7
370
     9
100
AcDbLine
 10
-544.7016172644829
 20
227.0579801361423
 30
0.0
 11
-544.7016172644829
 21
371.0579801361422
 31
0.0
  0
LINE
  5
2C7
330
5A
100
AcDbEntity
  8
None
  6
Dash Style-6
 62
     7
370
     9
100
AcDbLine
 10
-352.7016172644834
 20
227.0579801361423
 30
0.0
 11
-352.7016172644834
 21
371.0579801361422
 31
0.0
  0
LINE
  5
2C8
330
5A
100
AcDbEntity
  8
None
  6
Dash Style-6
 62
     7
370
     9
100
AcDbLine
 10
-160.7016172644832
 20
227.0579801361423
 30
0.0
 11
-160.7016172644832
 21
371.0579801361422
 31
0.0
  0
ENDBLK
  5
5C
330
5A
100
AcDbEntity
  8
0
100
AcDbBlockEnd
  0
BLOCK
  5
5E
330
5D
100
AcDbEntity
  8
0
100
AcDbBlockBegin
  2
Group-7-1
 70
     0
 10
0.0
 20
0.0
 30
0.0
  3
Group-7-1
  1

  0
LINE
  5
2C9
330
5D
100
AcDbEntity
  8
None
  6
Dash Style-6
 62
     7
370
     9
100
AcDbLine
 10
-928.7016172644832
 20
22.0579801361425
 30
0.0
 11
-928.7016172644832
 21
166.0579801361424
 31
0.0
  0
LINE
  5
2CA
330
5D
100
AcDbEntity
  8
None
  6
Dash Style-6
 62
     7
370
     9
100
AcDbLine
 10
-736.7016172644825
 20
22.0579801361425
 30
0.0
 11
-736.7016172644825
 21
166.0579801361424
 31
0.0
  0
LINE
  5
2CB
330
5D
100
AcDbEntity
  8
None
  6
Dash Style-6
 62
     7
370
     9
100
AcDbLine
 10
-544.7016172644829
 20
22.0579801361425
 30
0.0
 11
-544.7016172644829
 21
166.0579801361424
 31
0.0
  0
LINE
  5
2CC
330
5D
100
AcDbEntity
  8
None
  6
Dash Style-6
 62
     7
370
     9
100
AcDbLine
 10
-352.7016172644834
 20
22.0579801361425
 30
0.0
 11
-352.7016172644834
 21
166.0579801361424
 31
0.0
  0
LINE
  5
2CD
330
5D
100
AcDbEntity
  8
None
  6
Dash Style-6
 62
     7
370
     9
100
AcDbLine
 10
-160.7016172644832
 20
22.0579801361425
 30
0.0
 11
-160.7016172644832
 21
166.0579801361424
 31
0.0
  0
LINE
  5
2CE
330
5D
100
AcDbEntity
  8
None
  6
Dash Style-6
 62
     7
370
     9
100
AcDbLine
 10
-1024.701617264483
 20
22.0579801361425
 30
0.0
 11
-1024.701617264483
 21
166.0579801361424
 31
0.0
  0
LINE
  5
2CF
330
5D
100
AcDbEntity
  8
None
  6
Dash Style-6
 62
     7
370
     9
100
AcDbLine
 10
-832.7016172644828
 20
22.0579801361425
 30
0.0
 11
-832.7016172644828
 21
166.0579801361424
 31
0.0
  0
LINE
  5
2D0
330
5D
100
AcDbEntity
  8
None
  6
Dash Style-6
 62
     7
370
     9
100
AcDbLine
 10
-640.7016172644827
 20
22.0579801361425
 30
0.0
 11
-640.7016172644827
 21
166.0579801361424
 31
0.0
  0
LINE
  5
2D1
330
5D
100
AcDbEntity
  8
None
  6
Dash Style-6
 62
     7
370
     9
100
AcDbLine
 10
-448.7016172644832
 20
22.0579801361425
 30
0.0
 11
-448.7016172644832
 21
166.0579801361424
 31
0.0
  0
LINE
  5
2D2
330
5D
100
AcDbEntity
  8
None
  6
Dash Style-6
 62
     7
370
     9
100
AcDbLine
 10
-256.701617264483
 20
22.0579801361425
 30
0.0
 11
-256.701617264483
 21
166.0579801361424
 31
0.0
  0
ENDBLK
  5
5F
330
5D
100
AcDbEntity
  8
0
100
AcDbBlockEnd
  0
BLOCK
  5
61
330
60
100
AcDbEntity
  8
0
100
AcDbBlockBegin
  2
Group-8-1
 70
     0
 10
0.0
 20
0.0
 30
0.0
  3
Group-8-1
  1

  0
WIPEOUT
  5
2D3
330
60
100
AcDbEntity
  8
None
  6
Continuous
 62
     7
370
     9
 92
      152
310
98000000040000000C0000000E000000B20000000C00000016000000000000C20C00000014000000010000006C000000070000000400000064A80CA673B66EC065244ABE76F88140000000000000000063A80CA673F66AC065244ABE76F88140000000000000000063A80CA673F66AC065244ABE7608814000000000000000
310
0064A80CA673B66EC065244ABE760881400000000000000000
100
AcDbWipeout
 90
        0
 10
-245.7016172644827
 20
545.0579801361425
 30
0.0
 11
30.0
 21
0.0
 31
0.0
 12
0.0
 22
30.0
 32
0.0
 13
1.0
 23
1.0
340
0
 70
     4
280
     1
281
    50
282
    50
283
     0
360
0
 71
     2
 91
        5
 14
-0.5000000000000009
 24
-0.4999999999999964
 14
0.5
 24
-0.4999999999999964
 14
0.5
 24
0.5000000000000036
 14
-0.5000000000000009
 24
0.5000000000000036
 14
-0.5000000000000009
 24
-0.4999999999999964
  0
POLYLINE
  5
2D4
330
60
100
AcDbEntity
  8
None
  6
Continuous
 62
     7
370
     9
100
AcDb2dPolyline
 66
     1
 10
0.0
 20
0.0
 30
0.0
 70
     1
  0
VERTEX
  5
2D5
330
2D4
100
AcDbEntity
  8
None
  6
Continuous
 62
     7
370
     9
100
AcDbVertex
100
AcDb2dVertex
 10
-245.7016172644827
 20
575.0579801361425
 30
0.0
  0
VERTEX
  5
2D6
330
2D4
100
AcDbEntity
  8
None
  6
Continuous
 62
     7
370
     9
100
AcDbVertex
100
AcDb2dVertex
 10
-215.7016172644827
 20
575.0579801361425
 30
0.0
  0
VERTEX
  5
2D7
330
2D4
100
AcDbEntity
  8
None
  6
Continuous
 62
     7
370
     9
100
AcDbVertex
100
AcDb2dVertex
 10
-215.7016172644827
 20
545.0579801361425
 30
0.0
  0
VERTEX
  5
2D8
330
2D4
100
AcDbEntity
  8
None
  6
Continuous
 62
     7
370
     9
100
AcDbVertex
100
AcDb2dVertex
 10
-245.7016172644827
 20
545.0579801361425
 30
0.0
  0
SEQEND
  5
2D9
330
2D4
100
AcDbEntity
  8
None
  6
Continuous
 62
     7
370
     9
  0
WIPEOUT
  5
2DA
330
60
100
AcDbEntity
  8
None
  6
Continuous
 62
     7
370
     9
 92
      152
310
98000000040000000C0000000E000000B20000000C00000016000000000000C20C00000014000000010000006C000000070000000400000063A80CA673F66AC062244ABE76E08140000000000000000068A80CA673966AC062244ABE76E08140000000000000000068A80CA673966AC062244ABE7620814000000000000000
310
0063A80CA673F66AC062244ABE762081400000000000000000
100
AcDbWipeout
 90
        0
 10
-215.7016172644827
 20
548.0579801361421
 30
0.0
 11
24.0
 21
0.0
 31
0.0
 12
0.0
 22
24.0
 32
0.0
 13
1.0
 23
1.0
340
0
 70
     4
280
     1
281
    50
282
    50
283
     0
360
0
 71
     2
 91
        5
 14
-0.5
 24
-0.5
 14
-0.3750000000000053
 24
-0.5
 14
-0.3750000000000053
 24
0.5
 14
-0.5
 24
0.5
 14
-0.5
 24
-0.5
  0
POLYLINE
  5
2DB
330
60
100
AcDbEntity
  8
None
  6
Continuous
 62
     7
370
     9
100
AcDb2dPolyline
 66
     1
 10
0.0
 20
0.0
 30
0.0
 70
     1
  0
VERTEX
  5
2DC
330
2DB
100
AcDbEntity
  8
None
  6
Continuous
 62
     7
370
     9
100
AcDbVertex
100
AcDb2dVertex
 10
-215.7016172644827
 20
572.0579801361421
 30
0.0
  0
VERTEX
  5
2DD
330
2DB
100
AcDbEntity
  8
None
  6
Continuous
 62
     7
370
     9
100
AcDbVertex
100
AcDb2dVertex
 10
-212.7016172644828
 20
572.0579801361421
 30
0.0
  0
VERTEX
  5
2DE
330
2DB
100
AcDbEntity
  8
None
  6
Continuous
 62
     7
370
     9
100
AcDbVertex
100
AcDb2dVertex
 10
-212.7016172644828
 20
548.0579801361421
 30
0.0
  0
VERTEX
  5
2DF
330
2DB
100
AcDbEntity
  8
None
  6
Continuous
 62
     7
370
     9
100
AcDbVertex
100
AcDb2dVertex
 10
-215.7016172644827
 20
548.0579801361421
 30
0.0
  0
SEQEND
  5
2E0
330
2DB
100
AcDbEntity
  8
None
  6
Continuous
 62
     7
370
     9
  0
WIPEOUT
  5
2E1
330
60
100
AcDbEntity
  8
None
  6
Continuous
 62
     7
370
     9
 92
      152
310
98000000040000000C0000000E000000B20000000C00000016000000000000C20C00000014000000010000006C000000070000000400000068A80CA673566EC066244ABE76088140000000000000000074A80CA673566BC066244ABE76088140000000000000000074A80CA673566BC068244ABE76F0804000000000000000
310
0068A80CA673566EC068244ABE76F080400000000000000000
100
AcDbWipeout
 90
        0
 10
-242.7016172644828
 20
542.0579801361426
 30
0.0
 11
23.99999999999966
 21
0.0
 31
0.0
 12
0.0
 22
23.99999999999966
 32
0.0
 13
1.0
 23
1.0
340
0
 70
     4
280
     1
281
    50
282
    50
283
     0
360
0
 71
     2
 91
        5
 14
-0.5000000000000018
 24
0.3750000000000036
 14
0.4999999999999982
 24
0.3750000000000036
 14
0.4999999999999982
 24
0.5
 14
-0.5000000000000018
 24
0.5
 14
-0.5000000000000018
 24
0.3750000000000036
  0
POLYLINE
  5
2E2
330
60
100
AcDbEntity
  8
None
  6
Continuous
 62
     7
370
     9
100
AcDb2dPolyline
 66
     1
 10
0.0
 20
0.0
 30
0.0
 70
     1
  0
VERTEX
  5
2E3
330
2E2
100
AcDbEntity
  8
None
  6
Continuous
 62
     7
370
     9
100
AcDbVertex
100
AcDb2dVertex
 10
-242.7016172644828
 20
545.0579801361425
 30
0.0
  0
VERTEX
  5
2E4
330
2E2
100
AcDbEntity
  8
None
  6
Continuous
 62
     7
370
     9
100
AcDbVertex
100
AcDb2dVertex
 10
-218.7016172644831
 20
545.0579801361425
 30
0.0
  0
VERTEX
  5
2E5
330
2E2
100
AcDbEntity
  8
None
  6
Continuous
 62
     7
370
     9
100
AcDbVertex
100
AcDb2dVertex
 10
-218.7016172644831
 20
542.0579801361426
 30
0.0
  0
VERTEX
  5
2E6
330
2E2
100
AcDbEntity
  8
None
  6
Continuous
 62
     7
370
     9
100
AcDbVertex
100
AcDb2dVertex
 10
-242.7016172644828
 20
542.0579801361426
 30
0.0
  0
SEQEND
  5
2E7
330
2E2
100
AcDbEntity
  8
None
  6
Continuous
 62
     7
370
     9
  0
ENDBLK
  5
62
330
60
100
AcDbEntity
  8
0
100
AcDbBlockEnd
  0
BLOCK
  5
64
330
63
100
AcDbEntity
  8
0
100
AcDbBlockBegin
  2
Group-9-1
 70
     0
 10
0.0
 20
0.0
 30
0.0
  3
Group-9-1
  1

  0
WIPEOUT
  5
2E8
330
63
100
AcDbEntity
  8
None
  6
Continuous
 62
     7
370
     9
 92
      152
310
98000000040000000C0000000E000000B20000000C00000016000000000000C20C00000014000000010000006C00000007000000040000001C2A83E99C5582C065244ABE76A0824000000000000000001C2A83E99C6581C065244ABE76A0824000000000000000001C2A83E99C6581C065244ABE76B0814000000000000000
310
001C2A83E99C5582C065244ABE76B081400000000000000000
100
AcDbWipeout
 90
        0
 10
-586.701617264483
 20
566.0579801361425
 30
0.0
 11
30.0
 21
0.0
 31
0.0
 12
0.0
 22
30.0
 32
0.0
 13
1.0
 23
1.0
340
0
 70
     4
280
     1
281
    50
282
    50
283
     0
360
0
 71
     2
 91
        5
 14
-0.5
 24
-0.4999999999999964
 14
0.5
 24
-0.4999999999999964
 14
0.5
 24
0.5000000000000036
 14
-0.5
 24
0.5000000000000036
 14
-0.5
 24
-0.4999999999999964
  0
POLYLINE
  5
2E9
330
63
100
AcDbEntity
  8
None
  6
Continuous
 62
     7
370
     9
100
AcDb2dPolyline
 66
     1
 10
0.0
 20
0.0
 30
0.0
 70
     1
  0
VERTEX
  5
2EA
330
2E9
100
AcDbEntity
  8
None
  6
Continuous
 62
     7
370
     9
100
AcDbVertex
100
AcDb2dVertex
 10
-586.701617264483
 20
596.0579801361425
 30
0.0
  0
VERTEX
  5
2EB
330
2E9
100
AcDbEntity
  8
None
  6
Continuous
 62
     7
370
     9
100
AcDbVertex
100
AcDb2dVertex
 10
-556.701617264483
 20
596.0579801361425
 30
0.0
  0
VERTEX
  5
2EC
330
2E9
100
AcDbEntity
  8
None
  6
Continuous
 62
     7
370
     9
100
AcDbVertex
100
AcDb2dVertex
 10
-556.701617264483
 20
566.0579801361425
 30
0.0
  0
VERTEX
  5
2ED
330
2E9
100
AcDbEntity
  8
None
  6
Continuous
 62
     7
370
     9
100
AcDbVertex
100
AcDb2dVertex
 10
-586.701617264483
 20
566.0579801361425
 30
0.0
  0
SEQEND
  5
2EE
330
2E9
100
AcDbEntity
  8
None
  6
Continuous
 62
     7
370
     9
  0
WIPEOUT
  5
2EF
330
63
100
AcDbEntity
  8
None
  6
Continuous
 62
     7
370
     9
 92
      152
310
98000000040000000C0000000E000000B20000000C00000016000000000000C20C00000014000000010000006C0000000700000004000000202A83E99C6D82C062244ABE768882400000000000000000222A83E99C5582C062244ABE768882400000000000000000222A83E99C5582C063244ABE76C8814000000000000000
310
00202A83E99C6D82C063244ABE76C881400000000000000000
100
AcDbWipeout
 90
        0
 10
-589.7016172644835
 20
569.0579801361422
 30
0.0
 11
23.99999999999989
 21
0.0
 31
0.0
 12
0.0
 22
23.99999999999989
 32
0.0
 13
1.0
 23
1.0
340
0
 70
     4
280
     1
281
    50
282
    50
283
     0
360
0
 71
     2
 91
        5
 14
-0.5000000000000036
 24
-0.5000000000000036
 14
-0.3750000000000107
 24
-0.5000000000000036
 14
-0.3750000000000107
 24
0.4999999999999964
 14
-0.5000000000000036
 24
0.4999999999999964
 14
-0.5000000000000036
 24
-0.5000000000000036
  0
POLYLINE
  5
2F0
330
63
100
AcDbEntity
  8
None
  6
Continuous
 62
     7
370
     9
100
AcDb2dPolyline
 66
     1
 10
0.0
 20
0.0
 30
0.0
 70
     1
  0
VERTEX
  5
2F1
330
2F0
100
AcDbEntity
  8
None
  6
Continuous
 62
     7
370
     9
100
AcDbVertex
100
AcDb2dVertex
 10
-589.7016172644835
 20
593.0579801361421
 30
0.0
  0
VERTEX
  5
2F2
330
2F0
100
AcDbEntity
  8
None
  6
Continuous
 62
     7
370
     9
100
AcDbVertex
100
AcDb2dVertex
 10
-586.7016172644836
 20
593.0579801361421
 30
0.0
  0
VERTEX
  5
2F3
330
2F0
100
AcDbEntity
  8
None
  6
Continuous
 62
     7
370
     9
100
AcDbVertex
100
AcDb2dVertex
 10
-586.7016172644836
 20
569.0579801361422
 30
0.0
  0
VERTEX
  5
2F4
330
2F0
100
AcDbEntity
  8
None
  6
Continuous
 62
     7
370
     9
100
AcDbVertex
100
AcDb2dVertex
 10
-589.7016172644835
 20
569.0579801361422
 30
0.0
  0
SEQEND
  5
2F5
330
2F0
100
AcDbEntity
  8
None
  6
Continuous
 62
     7
370
     9
  0
WIPEOUT
  5
2F6
330
63
100
AcDbEntity
  8
None
  6
Continuous
 62
     7
370
     9
 92
      152
310
98000000040000000C0000000E000000B20000000C00000016000000000000C20C00000014000000010000006C00000007000000040000001D2A83E99C3D82C066244ABE76B0814000000000000000001B2A83E99C7D81C066244ABE76B0814000000000000000001B2A83E99C7D81C067244ABE7698814000000000000000
310
001D2A83E99C3D82C067244ABE769881400000000000000000
100
AcDbWipeout
 90
        0
 10
-583.7016172644832
 20
563.0579801361426
 30
0.0
 11
24.00000000000023
 21
0.0
 31
0.0
 12
0.0
 22
24.00000000000023
 32
0.0
 13
1.0
 23
1.0
340
0
 70
     4
280
     1
281
    50
282
    50
283
     0
360
0
 71
     2
 91
        5
 14
-0.5
 24
0.3750000000000071
 14
0.5
 24
0.3750000000000071
 14
0.5
 24
0.5
 14
-0.5
 24
0.5
 14
-0.5
 24
0.3750000000000071
  0
POLYLINE
  5
2F7
330
63
100
AcDbEntity
  8
None
  6
Continuous
 62
     7
370
     9
100
AcDb2dPolyline
 66
     1
 10
0.0
 20
0.0
 30
0.0
 70
     1
  0
VERTEX
  5
2F8
330
2F7
100
AcDbEntity
  8
None
  6
Continuous
 62
     7
370
     9
100
AcDbVertex
100
AcDb2dVertex
 10
-583.7016172644832
 20
566.0579801361425
 30
0.0
  0
VERTEX
  5
2F9
330
2F7
100
AcDbEntity
  8
None
  6
Continuous
 62
     7
370
     9
100
AcDbVertex
100
AcDb2dVertex
 10
-559.7016172644829
 20
566.0579801361425
 30
0.0
  0
VERTEX
  5
2FA
330
2F7
100
AcDbEntity
  8
None
  6
Continuous
 62
     7
370
     9
100
AcDbVertex
100
AcDb2dVertex
 10
-559.7016172644829
 20
563.0579801361426
 30
0.0
  0
VERTEX
  5
2FB
330
2F7
100
AcDbEntity
  8
None
  6
Continuous
 62
     7
370
     9
100
AcDbVertex
100
AcDb2dVertex
 10
-583.7016172644832
 20
563.0579801361426
 30
0.0
  0
SEQEND
  5
2FC
330
2F7
100
AcDbEntity
  8
None
  6
Continuous
 62
     7
370
     9
  0
ENDBLK
  5
65
330
63
100
AcDbEntity
  8
0
100
AcDbBlockEnd
  0
BLOCK
  5
67
330
66
100
AcDbEntity
  8
0
100
AcDbBlockBegin
  2
Group-10-1
 70
     0
 10
0.0
 20
0.0
 30
0.0
  3
Group-10-1
  1

  0
SPLINE
  5
2FD
330
66
100
AcDbEntity
  8
Layer0
  6
Continuous
 62
     7
370
     9
100
AcDbSpline
210
0.0
220
0.0
230
1.0
 70
    11
 71
     2
 72
    17
 73
    14
 74
     0
 42
0.000000001
 43
0.0000000000001
 40
0.0
 40
0.0
 40
0.0
 40
1.0
 40
2.0
 40
3.0
 40
4.0
 40
5.0
 40
6.0
 40
7.0
 40
8.0
 40
9.0
 40
10.0
 40
11.0
 40
12.0
 40
12.0
 40
12.0
 10
-1046.635552017281
 20
613.0651876744556
 30
0.0
 10
-1046.635552017281
 20
613.4164554107192
 30
0.0
 10
-1046.986819753547
 20
614.0248689769868
 30
0.0
 10
-1047.595233319815
 20
614.3761367132504
 30
0.0
 10
-1048.297768792345
 20
614.3761367132504
 30
0.0
 10
-1048.906182358613
 20
614.0248689769868
 30
0.0
 10
-1049.257450094878
 20
613.4164554107192
 30
0.0
 10
-1049.257450094878
 20
612.7139199381919
 30
0.0
 10
-1048.906182358613
 20
612.1055063719238
 30
0.0
 10
-1048.297768792345
 20
611.7542386356607
 30
0.0
 10
-1047.595233319815
 20
611.7542386356607
 30
0.0
 10
-1046.986819753547
 20
612.1055063719238
 30
0.0
 10
-1046.635552017281
 20
612.7139199381919
 30
0.0
 10
-1046.635552017281
 20
613.0651876744556
 30
0.0
  0
LINE
  5
2FE
330
66
100
AcDbEntity
  8
Layer0
  6
Continuous
 62
     7
370
     9
100
AcDbLine
 10
-1035.708635333445
 20
620.0579801361422
 30
0.0
 11
-1060.184366778715
 21
620.0579801361422
 31
0.0
  0
LINE
  5
2FF
330
66
100
AcDbEntity
  8
Layer0
  6
Continuous
 62
     7
370
     9
100
AcDbLine
 10
-1035.708635333445
 20
620.0579801361422
 30
0.0
 11
-1035.708635333445
 21
597.3306064445744
 31
0.0
  0
LINE
  5
300
330
66
100
AcDbEntity
  8
Layer0
  6
Continuous
 62
     7
370
     9
100
AcDbLine
 10
-1035.708635333445
 20
597.3306064445744
 30
0.0
 11
-1060.184366778715
 21
597.3306064445744
 31
0.0
  0
LINE
  5
301
330
66
100
AcDbEntity
  8
Layer0
  6
Continuous
 62
     7
370
     9
100
AcDbLine
 10
-1060.184366778715
 20
597.3306064445744
 30
0.0
 11
-1060.184366778715
 21
620.0579801361422
 31
0.0
  0
LINE
  5
302
330
66
100
AcDbEntity
  8
Layer0
  6
Continuous
 62
     7
370
     9
100
AcDbLine
 10
-1057.56183014825
 20
615.6870857520453
 30
0.0
 11
-1057.56183014825
 21
599.9531430750324
 31
0.0
  0
LINE
  5
303
330
66
100
AcDbEntity
  8
Layer0
  6
Continuous
 62
     7
370
     9
100
AcDbLine
 10
-1057.56183014825
 20
599.9531430750324
 30
0.0
 11
-1038.33117196391
 21
599.9531430750324
 31
0.0
  0
LINE
  5
304
330
66
100
AcDbEntity
  8
Layer0
  6
Continuous
 62
     7
370
     9
100
AcDbLine
 10
-1038.33117196391
 20
599.9531430750324
 30
0.0
 11
-1038.33117196391
 21
615.6870857520453
 31
0.0
  0
LINE
  5
305
330
66
100
AcDbEntity
  8
Layer0
  6
Continuous
 62
     7
370
     9
100
AcDbLine
 10
-1038.33117196391
 20
615.6870857520453
 30
0.0
 11
-1057.56183014825
 21
615.6870857520453
 31
0.0
  0
SPLINE
  5
306
330
66
100
AcDbEntity
  8
Layer0
  6
Continuous
 62
     7
370
     9
100
AcDbSpline
210
0.0
220
0.0
230
1.0
 70
    11
 71
     2
 72
    17
 73
    14
 74
     0
 42
0.000000001
 43
0.0000000000001
 40
0.0
 40
0.0
 40
0.0
 40
1.0
 40
2.0
 40
3.0
 40
4.0
 40
5.0
 40
6.0
 40
7.0
 40
8.0
 40
9.0
 40
10.0
 40
11.0
 40
12.0
 40
12.0
 40
12.0
 10
-1070.65280250305
 20
613.0651876744556
 30
0.0
 10
-1070.65280250305
 20
613.4164554107192
 30
0.0
 10
-1071.004070239314
 20
614.0248689769868
 30
0.0
 10
-1071.612483805584
 20
614.3761367132504
 30
0.0
 10
-1072.315019278112
 20
614.3761367132504
 30
0.0
 10
-1072.923432844382
 20
614.0248689769868
 30
0.0
 10
-1073.274700580646
 20
613.4164554107192
 30
0.0
 10
-1073.274700580646
 20
612.7139199381919
 30
0.0
 10
-1072.923432844382
 20
612.1055063719238
 30
0.0
 10
-1072.315019278112
 20
611.7542386356607
 30
0.0
 10
-1071.612483805584
 20
611.7542386356607
 30
0.0
 10
-1071.004070239314
 20
612.1055063719238
 30
0.0
 10
-1070.65280250305
 20
612.7139199381919
 30
0.0
 10
-1070.65280250305
 20
613.0651876744556
 30
0.0
  0
LINE
  5
307
330
66
100
AcDbEntity
  8
Layer0
  6
Continuous
 62
     7
370
     9
100
AcDbLine
 10
-1059.725885819213
 20
620.0579801361422
 30
0.0
 11
-1084.201617264483
 21
620.0579801361422
 31
0.0
  0
LINE
  5
308
330
66
100
AcDbEntity
  8
Layer0
  6
Continuous
 62
     7
370
     9
100
AcDbLine
 10
-1059.725885819213
 20
620.0579801361422
 30
0.0
 11
-1059.725885819213
 21
597.3306064445744
 31
0.0
  0
LINE
  5
309
330
66
100
AcDbEntity
  8
Layer0
  6
Continuous
 62
     7
370
     9
100
AcDbLine
 10
-1059.725885819213
 20
597.3306064445744
 30
0.0
 11
-1084.201617264483
 21
597.3306064445744
 31
0.0
  0
LINE
  5
30A
330
66
100
AcDbEntity
  8
Layer0
  6
Continuous
 62
     7
370
     9
100
AcDbLine
 10
-1084.201617264483
 20
597.3306064445744
 30
0.0
 11
-1084.201617264483
 21
620.0579801361422
 31
0.0
  0
LINE
  5
30B
330
66
100
AcDbEntity
  8
Layer0
  6
Continuous
 62
     7
370
     9
100
AcDbLine
 10
-1081.579080634018
 20
615.6870857520453
 30
0.0
 11
-1081.579080634018
 21
599.9531430750324
 31
0.0
  0
LINE
  5
30C
330
66
100
AcDbEntity
  8
Layer0
  6
Continuous
 62
     7
370
     9
100
AcDbLine
 10
-1081.579080634018
 20
599.9531430750324
 30
0.0
 11
-1062.348422449678
 21
599.9531430750324
 31
0.0
  0
LINE
  5
30D
330
66
100
AcDbEntity
  8
Layer0
  6
Continuous
 62
     7
370
     9
100
AcDbLine
 10
-1062.348422449678
 20
599.9531430750324
 30
0.0
 11
-1062.348422449678
 21
615.6870857520453
 31
0.0
  0
LINE
  5
30E
330
66
100
AcDbEntity
  8
Layer0
  6
Continuous
 62
     7
370
     9
100
AcDbLine
 10
-1062.348422449678
 20
615.6870857520453
 30
0.0
 11
-1081.579080634018
 21
615.6870857520453
 31
0.0
  0
ENDBLK
  5
68
330
66
100
AcDbEntity
  8
0
100
AcDbBlockEnd
  0
BLOCK
  5
6A
330
69
100
AcDbEntity
  8
0
100
AcDbBlockBegin
  2
Group-11-1
 70
     0
 10
0.0
 20
0.0
 30
0.0
  3
Group-11-1
  1

  0
POLYLINE
  5
30F
102
{ACAD_REACTORS
330
327
102
}
330
69
100
AcDbEntity
  8
None
  6
Continuous
 62
     7
370
    15
100
AcDb2dPolyline
 66
     1
 10
0.0
 20
0.0
 30
0.0
 70
     1
  0
VERTEX
  5
310
330
30F
100
AcDbEntity
  8
None
  6
Continuous
 62
     7
370
    15
100
AcDbVertex
100
AcDb2dVertex
 10
-57.70161726448336
 20
622.0579801361423
 30
0.0
  0
VERTEX
  5
311
330
30F
100
AcDbEntity
  8
None
  6
Continuous
 62
     7
370
    15
100
AcDbVertex
100
AcDb2dVertex
 10
26.29838273551687
 20
622.0579801361423
 30
0.0
  0
VERTEX
  5
312
330
30F
100
AcDbEntity
  8
None
  6
Continuous
 62
     7
370
    15
100
AcDbVertex
100
AcDb2dVertex
 10
26.29838273551687
 20
-520.9420198638577
 30
0.0
  0
VERTEX
  5
313
330
30F
100
AcDbEntity
  8
None
  6
Continuous
 62
     7
370
    15
100
AcDbVertex
100
AcDb2dVertex
 10
43.29838273551699
 20
-520.9420198638577
 30
0.0
  0
VERTEX
  5
314
330
30F
100
AcDbEntity
  8
None
  6
Continuous
 62
     7
370
    15
100
AcDbVertex
100
AcDb2dVertex
 10
43.29838273551699
 20
186.3606025562224
 30
0.0
  0
VERTEX
  5
315
330
30F
100
AcDbEntity
  8
None
  6
Continuous
 62
     7
370
    15
100
AcDbVertex
100
AcDb2dVertex
 10
51.79838273551676
 20
186.3606025562224
 30
0.0
  0
VERTEX
  5
316
330
30F
100
AcDbEntity
  8
None
  6
Continuous
 62
     7
370
    15
100
AcDbVertex
100
AcDb2dVertex
 10
51.79838273551676
 20
242.3606025562225
 30
0.0
  0
VERTEX
  5
317
330
30F
100
AcDbEntity
  8
None
  6
Continuous
 62
     7
370
    15
100
AcDbVertex
100
AcDb2dVertex
 10
43.29838273551699
 20
242.3606025562225
 30
0.0
  0
VERTEX
  5
318
330
30F
100
AcDbEntity
  8
None
  6
Continuous
 62
     7
370
    15
100
AcDbVertex
100
AcDb2dVertex
 10
43.29838273551699
 20
622.0579801361423
 30
0.0
  0
VERTEX
  5
319
330
30F
100
AcDbEntity
  8
None
  6
Continuous
 62
     7
370
    15
100
AcDbVertex
100
AcDb2dVertex
 10
87.360882735517
 20
622.0579801361423
 30
0.0
  0
VERTEX
  5
31A
330
30F
100
AcDbEntity
  8
None
  6
Continuous
 62
     7
370
    15
100
AcDbVertex
100
AcDb2dVertex
 10
87.360882735517
 20
649.0579801361422
 30
0.0
  0
VERTEX
  5
31B
330
30F
100
AcDbEntity
  8
None
  6
Continuous
 62
     7
370
    15
100
AcDbVertex
100
AcDb2dVertex
 10
-283.7016172644832
 20
649.0579801361422
 30
0.0
  0
VERTEX
  5
31C
330
30F
100
AcDbEntity
  8
None
  6
Continuous
 62
     7
370
    15
100
AcDbVertex
100
AcDb2dVertex
 10
-283.7016172644832
 20
622.0579801361423
 30
0.0
  0
VERTEX
  5
31D
330
30F
100
AcDbEntity
  8
None
  6
Continuous
 62
     7
370
    15
100
AcDbVertex
100
AcDb2dVertex
 10
-259.7016172644829
 20
622.0579801361423
 30
0.0
  0
VERTEX
  5
31E
330
30F
100
AcDbEntity
  8
None
  6
Continuous
 62
     7
370
    15
100
AcDbVertex
100
AcDb2dVertex
 10
-259.7016172644829
 20
552.0579801361426
 30
0.0
  0
VERTEX
  5
31F
330
30F
100
AcDbEntity
  8
None
  6
Continuous
 62
     7
370
    15
100
AcDbVertex
100
AcDb2dVertex
 10
-283.7016172644832
 20
552.0579801361426
 30
0.0
  0
VERTEX
  5
320
330
30F
100
AcDbEntity
  8
None
  6
Continuous
 62
     7
370
    15
100
AcDbVertex
100
AcDb2dVertex
 10
-283.7016172644832
 20
535.0579801361425
 30
0.0
  0
VERTEX
  5
321
330
30F
100
AcDbEntity
  8
None
  6
Continuous
 62
     7
370
    15
100
AcDbVertex
100
AcDb2dVertex
 10
-245.7016172644827
 20
535.0579801361425
 30
0.0
  0
VERTEX
  5
322
330
30F
100
AcDbEntity
  8
None
  6
Continuous
 62
     7
370
    15
100
AcDbVertex
100
AcDb2dVertex
 10
-245.7016172644827
 20
622.0579801361423
 30
0.0
  0
VERTEX
  5
323
330
30F
100
AcDbEntity
  8
None
  6
Continuous
 62
     7
370
    15
100
AcDbVertex
100
AcDb2dVertex
 10
-74.7016172644829
 20
622.0579801361423
 30
0.0
  0
VERTEX
  5
324
330
30F
100
AcDbEntity
  8
None
  6
Continuous
 62
     7
370
    15
100
AcDbVertex
100
AcDb2dVertex
 10
-74.7016172644829
 20
145.0579801361422
 30
0.0
  0
VERTEX
  5
325
330
30F
100
AcDbEntity
  8
None
  6
Continuous
 62
     7
370
    15
100
AcDbVertex
100
AcDb2dVertex
 10
-57.70161726448336
 20
145.0579801361422
 30
0.0
  0
SEQEND
  5
326
330
30F
100
AcDbEntity
  8
None
  6
Continuous
 62
     7
370
    15
  0
HATCH
  5
327
330
69
100
AcDbEntity
  8
None
  6
Continuous
 62
     7
370
     0
100
AcDbHatch
 10
0.0
 20
0.0
 30
0.0
210
0.0
220
0.0
230
1.0
  2
SOLID
 70
     1
 71
     1
 91
        1
 92
        1
 93
       22
 72
     1
 10
-57.70161726448336
 20
622.0579801361423
 11
26.29838273551687
 21
622.0579801361423
 72
     1
 10
26.29838273551687
 20
622.0579801361423
 11
26.29838273551687
 21
-520.9420198638577
 72
     1
 10
26.29838273551687
 20
-520.9420198638577
 11
43.29838273551699
 21
-520.9420198638577
 72
     1
 10
43.29838273551699
 20
-520.9420198638577
 11
43.29838273551699
 21
186.3606025562224
 72
     1
 10
43.29838273551699
 20
186.3606025562224
 11
51.79838273551676
 21
186.3606025562224
 72
     1
 10
51.79838273551676
 20
186.3606025562224
 11
51.79838273551676
 21
242.3606025562225
 72
     1
 10
51.79838273551676
 20
242.3606025562225
 11
43.29838273551699
 21
242.3606025562225
 72
     1
 10
43.29838273551699
 20
242.3606025562225
 11
43.29838273551699
 21
622.0579801361423
 72
     1
 10
43.29838273551699
 20
622.0579801361423
 11
87.360882735517
 21
622.0579801361423
 72
     1
 10
87.360882735517
 20
622.0579801361423
 11
87.360882735517
 21
649.0579801361422
 72
     1
 10
87.360882735517
 20
649.0579801361422
 11
-283.7016172644832
 21
649.0579801361422
 72
     1
 10
-283.7016172644832
 20
649.0579801361422
 11
-283.7016172644832
 21
622.0579801361423
 72
     1
 10
-283.7016172644832
 20
622.0579801361423
 11
-259.7016172644829
 21
622.0579801361423
 72
     1
 10
-259.7016172644829
 20
622.0579801361423
 11
-259.7016172644829
 21
552.0579801361426
 72
     1
 10
-259.7016172644829
 20
552.0579801361426
 11
-283.7016172644832
 21
552.0579801361426
 72
     1
 10
-283.7016172644832
 20
552.0579801361426
 11
-283.7016172644832
 21
535.0579801361425
 72
     1
 10
-283.7016172644832
 20
535.0579801361425
 11
-245.7016172644827
 21
535.0579801361425
 72
     1
 10
-245.7016172644827
 20
535.0579801361425
 11
-245.7016172644827
 21
622.0579801361423
 72
     1
 10
-245.7016172644827
 20
622.0579801361423
 11
-74.7016172644829
 21
622.0579801361423
 72
     1
 10
-74.7016172644829
 20
622.0579801361423
 11
-74.7016172644829
 21
145.0579801361422
 72
     1
 10
-74.7016172644829
 20
145.0579801361422
 11
-57.70161726448336
 21
145.0579801361422
 72
     1
 10
-57.70161726448336
 20
145.0579801361422
 11
-57.70161726448336
 21
622.0579801361423
 97
        1
330
30F
 75
     0
 76
     1
 98
        1
 10
0.0
 20
0.0
  0
POLYLINE
  5
328
330
69
100
AcDbEntity
  8
None
  6
Continuous
 62
     7
370
     9
100
AcDb2dPolyline
 66
     1
 10
0.0
 20
0.0
 30
0.0
 70
     1
  0
VERTEX
  5
329
330
328
100
AcDbEntity
  8
None
  6
Continuous
 62
     7
370
     9
100
AcDbVertex
100
AcDb2dVertex
 10
-110.7016172644832
 20
143.0579801361423
 30
0.0
  0
VERTEX
  5
32A
330
328
100
AcDbEntity
  8
None
  6
Continuous
 62
     7
370
     9
100
AcDbVertex
100
AcDb2dVertex
 10
-110.7016172644832
 20
145.0579801361423
 30
0.0
  0
VERTEX
  5
32B
330
328
100
AcDbEntity
  8
None
  6
Continuous
 62
     7
370
     9
100
AcDbVertex
100
AcDb2dVertex
 10
-74.7016172644829
 20
145.0579801361423
 30
0.0
  0
VERTEX
  5
32C
330
328
100
AcDbEntity
  8
None
  6
Continuous
 62
     7
370
     9
100
AcDbVertex
100
AcDb2dVertex
 10
-74.7016172644829
 20
143.0579801361423
 30
0.0
  0
SEQEND
  5
32D
330
328
100
AcDbEntity
  8
None
  6
Continuous
 62
     7
370
     9
  0
POLYLINE
  5
32E
102
{ACAD_REACTORS
330
344
102
}
330
69
100
AcDbEntity
  8
None
  6
Continuous
 62
     7
370
    15
100
AcDb2dPolyline
 66
     1
 10
0.0
 20
0.0
 30
0.0
 70
     1
  0
VERTEX
  5
32F
330
32E
100
AcDbEntity
  8
None
  6
Continuous
 62
     7
370
    15
100
AcDbVertex
100
AcDb2dVertex
 10
26.29838273551687
 20
-583.9420198638577
 30
0.0
  0
VERTEX
  5
330
330
32E
100
AcDbEntity
  8
None
  6
Continuous
 62
     7
370
    15
100
AcDbVertex
100
AcDb2dVertex
 10
-57.70161726448336
 20
-583.9420198638577
 30
0.0
  0
VERTEX
  5
331
330
32E
100
AcDbEntity
  8
None
  6
Continuous
 62
     7
370
    15
100
AcDbVertex
100
AcDb2dVertex
 10
-57.70161726448336
 20
109.0579801361423
 30
0.0
  0
VERTEX
  5
332
330
32E
100
AcDbEntity
  8
None
  6
Continuous
 62
     7
370
    15
100
AcDbVertex
100
AcDb2dVertex
 10
-74.7016172644829
 20
109.0579801361423
 30
0.0
  0
VERTEX
  5
333
330
32E
100
AcDbEntity
  8
None
  6
Continuous
 62
     7
370
    15
100
AcDbVertex
100
AcDb2dVertex
 10
-74.7016172644829
 20
-583.9420198638577
 30
0.0
  0
VERTEX
  5
334
330
32E
100
AcDbEntity
  8
None
  6
Continuous
 62
     7
370
    15
100
AcDbVertex
100
AcDb2dVertex
 10
-154.7016172644835
 20
-583.9420198638577
 30
0.0
  0
VERTEX
  5
335
330
32E
100
AcDbEntity
  8
None
  6
Continuous
 62
     7
370
    15
100
AcDbVertex
100
AcDb2dVertex
 10
-154.7016172644835
 20
-559.9420198638578
 30
0.0
  0
VERTEX
  5
336
330
32E
100
AcDbEntity
  8
None
  6
Continuous
 62
     7
370
    15
100
AcDbVertex
100
AcDb2dVertex
 10
-188.7016172644831
 20
-559.9420198638578
 30
0.0
  0
VERTEX
  5
337
330
32E
100
AcDbEntity
  8
None
  6
Continuous
 62
     7
370
    15
100
AcDbVertex
100
AcDb2dVertex
 10
-188.7016172644831
 20
-576.9420198638578
 30
0.0
  0
VERTEX
  5
338
330
32E
100
AcDbEntity
  8
None
  6
Continuous
 62
     7
370
    15
100
AcDbVertex
100
AcDb2dVertex
 10
-171.2016172644837
 20
-576.9420198638578
 30
0.0
  0
VERTEX
  5
339
330
32E
100
AcDbEntity
  8
None
  6
Continuous
 62
     7
370
    15
100
AcDbVertex
100
AcDb2dVertex
 10
-171.2016172644837
 20
-648.9420198638578
 30
0.0
  0
VERTEX
  5
33A
330
32E
100
AcDbEntity
  8
None
  6
Continuous
 62
     7
370
    15
100
AcDbVertex
100
AcDb2dVertex
 10
-188.7016172644831
 20
-648.9420198638578
 30
0.0
  0
VERTEX
  5
33B
330
32E
100
AcDbEntity
  8
None
  6
Continuous
 62
     7
370
    15
100
AcDbVertex
100
AcDb2dVertex
 10
-188.7016172644831
 20
-665.9420198638577
 30
0.0
  0
VERTEX
  5
33C
330
32E
100
AcDbEntity
  8
None
  6
Continuous
 62
     7
370
    15
100
AcDbVertex
100
AcDb2dVertex
 10
-154.7016172644835
 20
-665.9420198638577
 30
0.0
  0
VERTEX
  5
33D
330
32E
100
AcDbEntity
  8
None
  6
Continuous
 62
     7
370
    15
100
AcDbVertex
100
AcDb2dVertex
 10
-154.7016172644835
 20
-610.9420198638578
 30
0.0
  0
VERTEX
  5
33E
330
32E
100
AcDbEntity
  8
None
  6
Continuous
 62
     7
370
    15
100
AcDbVertex
100
AcDb2dVertex
 10
87.360882735517
 20
-610.9420198638578
 30
0.0
  0
VERTEX
  5
33F
330
32E
100
AcDbEntity
  8
None
  6
Continuous
 62
     7
370
    15
100
AcDbVertex
100
AcDb2dVertex
 10
87.360882735517
 20
-583.9420198638577
 30
0.0
  0
VERTEX
  5
340
330
32E
100
AcDbEntity
  8
None
  6
Continuous
 62
     7
370
    15
100
AcDbVertex
100
AcDb2dVertex
 10
43.29838273551699
 20
-583.9420198638577
 30
0.0
  0
VERTEX
  5
341
330
32E
100
AcDbEntity
  8
None
  6
Continuous
 62
     7
370
    15
100
AcDbVertex
100
AcDb2dVertex
 10
43.29838273551699
 20
-556.9420198638578
 30
0.0
  0
VERTEX
  5
342
330
32E
100
AcDbEntity
  8
None
  6
Continuous
 62
     7
370
    15
100
AcDbVertex
100
AcDb2dVertex
 10
26.29838273551687
 20
-556.9420198638578
 30
0.0
  0
SEQEND
  5
343
330
32E
100
AcDbEntity
  8
None
  6
Continuous
 62
     7
370
    15
  0
HATCH
  5
344
330
69
100
AcDbEntity
  8
None
  6
Continuous
 62
     7
370
     0
100
AcDbHatch
 10
0.0
 20
0.0
 30
0.0
210
0.0
220
0.0
230
1.0
  2
SOLID
 70
     1
 71
     1
 91
        1
 92
        1
 93
       20
 72
     1
 10
26.29838273551687
 20
-583.9420198638577
 11
-57.70161726448336
 21
-583.9420198638577
 72
     1
 10
-57.70161726448336
 20
-583.9420198638577
 11
-57.70161726448336
 21
109.0579801361423
 72
     1
 10
-57.70161726448336
 20
109.0579801361423
 11
-74.7016172644829
 21
109.0579801361423
 72
     1
 10
-74.7016172644829
 20
109.0579801361423
 11
-74.7016172644829
 21
-583.9420198638577
 72
     1
 10
-74.7016172644829
 20
-583.9420198638577
 11
-154.7016172644835
 21
-583.9420198638577
 72
     1
 10
-154.7016172644835
 20
-583.9420198638577
 11
-154.7016172644835
 21
-559.9420198638578
 72
     1
 10
-154.7016172644835
 20
-559.9420198638578
 11
-188.7016172644831
 21
-559.9420198638578
 72
     1
 10
-188.7016172644831
 20
-559.9420198638578
 11
-188.7016172644831
 21
-576.9420198638578
 72
     1
 10
-188.7016172644831
 20
-576.9420198638578
 11
-171.2016172644837
 21
-576.9420198638578
 72
     1
 10
-171.2016172644837
 20
-576.9420198638578
 11
-171.2016172644837
 21
-648.9420198638578
 72
     1
 10
-171.2016172644837
 20
-648.9420198638578
 11
-188.7016172644831
 21
-648.9420198638578
 72
     1
 10
-188.7016172644831
 20
-648.9420198638578
 11
-188.7016172644831
 21
-665.9420198638577
 72
     1
 10
-188.7016172644831
 20
-665.9420198638577
 11
-154.7016172644835
 21
-665.9420198638577
 72
     1
 10
-154.7016172644835
 20
-665.9420198638577
 11
-154.7016172644835
 21
-610.9420198638578
 72
     1
 10
-154.7016172644835
 20
-610.9420198638578
 11
87.36088273551698
 21
-610.9420198638578
 72
     1
 10
87.360882735517
 20
-610.9420198638578
 11
87.360882735517
 21
-583.9420198638577
 72
     1
 10
87.360882735517
 20
-583.9420198638577
 11
43.29838273551699
 21
-583.9420198638577
 72
     1
 10
43.29838273551699
 20
-583.9420198638577
 11
43.29838273551699
 21
-556.9420198638578
 72
     1
 10
43.29838273551699
 20
-556.9420198638578
 11
26.29838273551687
 21
-556.9420198638578
 72
     1
 10
26.29838273551687
 20
-556.9420198638578
 11
26.29838273551687
 21
-583.9420198638577
 97
        1
330
32E
 75
     0
 76
     1
 98
        1
 10
0.0
 20
0.0
  0
POLYLINE
  5
345
102
{ACAD_REACTORS
330
34F
102
}
330
69
100
AcDbEntity
  8
None
  6
Continuous
 62
     7
370
    15
100
AcDb2dPolyline
 66
     1
 10
0.0
 20
0.0
 30
0.0
 70
     1
  0
VERTEX
  5
346
330
345
100
AcDbEntity
  8
None
  6
Continuous
 62
     7
370
    15
100
AcDbVertex
100
AcDb2dVertex
 10
-323.7016172644832
 20
622.0579801361421
 30
0.0
  0
VERTEX
  5
347
330
345
100
AcDbEntity
  8
None
  6
Continuous
 62
     7
370
    15
100
AcDbVertex
100
AcDb2dVertex
 10
-323.7016172644832
 20
649.0579801361422
 30
0.0
  0
VERTEX
  5
348
330
345
100
AcDbEntity
  8
None
  6
Continuous
 62
     7
370
    15
100
AcDbVertex
100
AcDb2dVertex
 10
-369.7016172644829
 20
649.0579801361422
 30
0.0
  0
VERTEX
  5
349
330
345
100
AcDbEntity
  8
None
  6
Continuous
 62
     7
370
    15
100
AcDbVertex
100
AcDb2dVertex
 10
-369.7016172644829
 20
640.0579801361422
 30
0.0
  0
VERTEX
  5
34A
330
345
100
AcDbEntity
  8
None
  6
Continuous
 62
     7
370
    15
100
AcDbVertex
100
AcDb2dVertex
 10
-365.7016172644827
 20
640.0579801361422
 30
0.0
  0
VERTEX
  5
34B
330
345
100
AcDbEntity
  8
None
  6
Continuous
 62
     7
370
    15
100
AcDbVertex
100
AcDb2dVertex
 10
-365.7016172644827
 20
635.0579801361422
 30
0.0
  0
VERTEX
  5
34C
330
345
100
AcDbEntity
  8
None
  6
Continuous
 62
     7
370
    15
100
AcDbVertex
100
AcDb2dVertex
 10
-369.7016172644829
 20
635.0579801361422
 30
0.0
  0
VERTEX
  5
34D
330
345
100
AcDbEntity
  8
None
  6
Continuous
 62
     7
370
    15
100
AcDbVertex
100
AcDb2dVertex
 10
-369.7016172644829
 20
622.0579801361423
 30
0.0
  0
SEQEND
  5
34E
330
345
100
AcDbEntity
  8
None
  6
Continuous
 62
     7
370
    15
  0
HATCH
  5
34F
330
69
100
AcDbEntity
  8
None
  6
Continuous
 62
     7
370
     0
100
AcDbHatch
 10
0.0
 20
0.0
 30
0.0
210
0.0
220
0.0
230
1.0
  2
SOLID
 70
     1
 71
     1
 91
        1
 92
        1
 93
        8
 72
     1
 10
-323.7016172644832
 20
622.0579801361421
 11
-323.7016172644832
 21
649.0579801361422
 72
     1
 10
-323.7016172644832
 20
649.0579801361422
 11
-369.7016172644829
 21
649.0579801361422
 72
     1
 10
-369.7016172644829
 20
649.0579801361422
 11
-369.7016172644829
 21
640.0579801361422
 72
     1
 10
-369.7016172644829
 20
640.0579801361422
 11
-365.7016172644827
 21
640.0579801361422
 72
     1
 10
-365.7016172644827
 20
640.0579801361422
 11
-365.7016172644827
 21
635.0579801361422
 72
     1
 10
-365.7016172644827
 20
635.0579801361422
 11
-369.7016172644829
 21
635.0579801361422
 72
     1
 10
-369.7016172644829
 20
635.0579801361422
 11
-369.7016172644829
 21
622.0579801361423
 72
     1
 10
-369.7016172644829
 20
622.0579801361423
 11
-323.7016172644832
 21
622.0579801361421
 97
        1
330
345
 75
     0
 76
     1
 98
        1
 10
0.0
 20
0.0
  0
POLYLINE
  5
350
102
{ACAD_REACTORS
330
36E
102
}
330
69
100
AcDbEntity
  8
None
  6
Continuous
 62
     7
370
    15
100
AcDb2dPolyline
 66
     1
 10
0.0
 20
0.0
 30
0.0
 70
     1
  0
VERTEX
  5
351
330
350
100
AcDbEntity
  8
None
  6
Continuous
 62
     7
370
    15
100
AcDbVertex
100
AcDb2dVertex
 10
-353.7016172644832
 20
-559.9420198638578
 30
0.0
  0
VERTEX
  5
352
330
350
100
AcDbEntity
  8
None
  6
Continuous
 62
     7
370
    15
100
AcDbVertex
100
AcDb2dVertex
 10
-319.7016172644829
 20
-559.9420198638578
 30
0.0
  0
VERTEX
  5
353
330
350
100
AcDbEntity
  8
None
  6
Continuous
 62
     7
370
    15
100
AcDbVertex
100
AcDb2dVertex
 10
-319.7016172644829
 20
-576.9420198638578
 30
0.0
  0
VERTEX
  5
354
330
350
100
AcDbEntity
  8
None
  6
Continuous
 62
     7
370
    15
100
AcDbVertex
100
AcDb2dVertex
 10
-337.2016172644829
 20
-576.9420198638578
 30
0.0
  0
VERTEX
  5
355
330
350
100
AcDbEntity
  8
None
  6
Continuous
 62
     7
370
    15
100
AcDbVertex
100
AcDb2dVertex
 10
-337.2016172644829
 20
-648.9420198638578
 30
0.0
  0
VERTEX
  5
356
330
350
100
AcDbEntity
  8
None
  6
Continuous
 62
     7
370
    15
100
AcDbVertex
100
AcDb2dVertex
 10
-319.7016172644829
 20
-648.9420198638578
 30
0.0
  0
VERTEX
  5
357
330
350
100
AcDbEntity
  8
None
  6
Continuous
 62
     7
370
    15
100
AcDbVertex
100
AcDb2dVertex
 10
-319.7016172644829
 20
-665.9420198638577
 30
0.0
  0
VERTEX
  5
358
330
350
100
AcDbEntity
  8
None
  6
Continuous
 62
     7
370
    15
100
AcDbVertex
100
AcDb2dVertex
 10
-353.7016172644832
 20
-665.9420198638577
 30
0.0
  0
VERTEX
  5
359
330
350
100
AcDbEntity
  8
None
  6
Continuous
 62
     7
370
    15
100
AcDbVertex
100
AcDb2dVertex
 10
-353.7016172644832
 20
-610.9420198638578
 30
0.0
  0
VERTEX
  5
35A
330
350
100
AcDbEntity
  8
None
  6
Continuous
 62
     7
370
    15
100
AcDbVertex
100
AcDb2dVertex
 10
-1126.701617264483
 20
-610.9420198638578
 30
0.0
  0
VERTEX
  5
35B
330
350
100
AcDbEntity
  8
None
  6
Continuous
 62
     7
370
    15
100
AcDbVertex
100
AcDb2dVertex
 10
-1126.701617264483
 20
-583.9420198638579
 30
0.0
  0
VERTEX
  5
35C
330
350
100
AcDbEntity
  8
None
  6
Continuous
 62
     7
370
    15
100
AcDbVertex
100
AcDb2dVertex
 10
-1126.701617264483
 20
649.0579801361422
 30
0.0
  0
VERTEX
  5
35D
330
350
100
AcDbEntity
  8
None
  6
Continuous
 62
     7
370
    15
100
AcDbVertex
100
AcDb2dVertex
 10
-513.7016172644826
 20
649.0579801361422
 30
0.0
  0
VERTEX
  5
35E
330
350
100
AcDbEntity
  8
None
  6
Continuous
 62
     7
370
    15
100
AcDbVertex
100
AcDb2dVertex
 10
-513.7016172644826
 20
640.0579801361422
 30
0.0
  0
VERTEX
  5
35F
330
350
100
AcDbEntity
  8
None
  6
Continuous
 62
     7
370
    15
100
AcDbVertex
100
AcDb2dVertex
 10
-517.7016172644828
 20
640.0579801361422
 30
0.0
  0
VERTEX
  5
360
330
350
100
AcDbEntity
  8
None
  6
Continuous
 62
     7
370
    15
100
AcDbVertex
100
AcDb2dVertex
 10
-517.7016172644828
 20
635.0579801361422
 30
0.0
  0
VERTEX
  5
361
330
350
100
AcDbEntity
  8
None
  6
Continuous
 62
     7
370
    15
100
AcDbVertex
100
AcDb2dVertex
 10
-513.7016172644826
 20
635.0579801361422
 30
0.0
  0
VERTEX
  5
362
330
350
100
AcDbEntity
  8
None
  6
Continuous
 62
     7
370
    15
100
AcDbVertex
100
AcDb2dVertex
 10
-513.7016172644826
 20
622.0579801361423
 30
0.0
  0
VERTEX
  5
363
330
350
100
AcDbEntity
  8
None
  6
Continuous
 62
     7
370
    15
100
AcDbVertex
100
AcDb2dVertex
 10
-537.7016172644834
 20
622.0579801361423
 30
0.0
  0
VERTEX
  5
364
330
350
100
AcDbEntity
  8
None
  6
Continuous
 62
     7
370
    15
100
AcDbVertex
100
AcDb2dVertex
 10
-537.7016172644834
 20
552.0579801361426
 30
0.0
  0
VERTEX
  5
365
330
350
100
AcDbEntity
  8
None
  6
Continuous
 62
     7
370
    15
100
AcDbVertex
100
AcDb2dVertex
 10
-513.7016172644832
 20
552.0579801361426
 30
0.0
  0
VERTEX
  5
366
330
350
100
AcDbEntity
  8
None
  6
Continuous
 62
     7
370
    15
100
AcDbVertex
100
AcDb2dVertex
 10
-513.7016172644832
 20
535.0579801361425
 30
0.0
  0
VERTEX
  5
367
330
350
100
AcDbEntity
  8
None
  6
Continuous
 62
     7
370
    15
100
AcDbVertex
100
AcDb2dVertex
 10
-556.701617264483
 20
535.0579801361425
 30
0.0
  0
VERTEX
  5
368
330
350
100
AcDbEntity
  8
None
  6
Continuous
 62
     7
370
    15
100
AcDbVertex
100
AcDb2dVertex
 10
-556.701617264483
 20
622.0579801361423
 30
0.0
  0
VERTEX
  5
369
330
350
100
AcDbEntity
  8
None
  6
Continuous
 62
     7
370
    15
100
AcDbVertex
100
AcDb2dVertex
 10
-559.7016172644829
 20
622.0579801361421
 30
0.0
  0
VERTEX
  5
36A
330
350
100
AcDbEntity
  8
None
  6
Continuous
 62
     7
370
    15
100
AcDbVertex
100
AcDb2dVertex
 10
-1099.701617264483
 20
622.0579801361423
 30
0.0
  0
VERTEX
  5
36B
330
350
100
AcDbEntity
  8
None
  6
Continuous
 62
     7
370
    15
100
AcDbVertex
100
AcDb2dVertex
 10
-1099.701617264483
 20
-583.9420198638579
 30
0.0
  0
VERTEX
  5
36C
330
350
100
AcDbEntity
  8
None
  6
Continuous
 62
     7
370
    15
100
AcDbVertex
100
AcDb2dVertex
 10
-353.7016172644832
 20
-583.9420198638577
 30
0.0
  0
SEQEND
  5
36D
330
350
100
AcDbEntity
  8
None
  6
Continuous
 62
     7
370
    15
  0
HATCH
  5
36E
330
69
100
AcDbEntity
  8
None
  6
Continuous
 62
     7
370
     0
100
AcDbHatch
 10
0.0
 20
0.0
 30
0.0
210
0.0
220
0.0
230
1.0
  2
SOLID
 70
     1
 71
     1
 91
        1
 92
        1
 93
       28
 72
     1
 10
-353.7016172644832
 20
-559.9420198638578
 11
-319.7016172644829
 21
-559.9420198638578
 72
     1
 10
-319.7016172644829
 20
-559.9420198638578
 11
-319.7016172644829
 21
-576.9420198638578
 72
     1
 10
-319.7016172644829
 20
-576.9420198638578
 11
-337.2016172644829
 21
-576.9420198638578
 72
     1
 10
-337.2016172644829
 20
-576.9420198638578
 11
-337.2016172644829
 21
-648.9420198638578
 72
     1
 10
-337.2016172644829
 20
-648.9420198638578
 11
-319.7016172644829
 21
-648.9420198638578
 72
     1
 10
-319.7016172644829
 20
-648.9420198638578
 11
-319.7016172644829
 21
-665.9420198638577
 72
     1
 10
-319.7016172644829
 20
-665.9420198638577
 11
-353.7016172644832
 21
-665.9420198638577
 72
     1
 10
-353.7016172644832
 20
-665.9420198638577
 11
-353.7016172644832
 21
-610.9420198638578
 72
     1
 10
-353.7016172644832
 20
-610.9420198638578
 11
-1126.701617264483
 21
-610.9420198638578
 72
     1
 10
-1126.701617264483
 20
-610.9420198638578
 11
-1126.701617264483
 21
-583.9420198638579
 72
     1
 10
-1126.701617264483
 20
-583.9420198638579
 11
-1126.701617264483
 21
649.0579801361421
 72
     1
 10
-1126.701617264483
 20
649.0579801361422
 11
-513.7016172644826
 21
649.0579801361422
 72
     1
 10
-513.7016172644826
 20
649.0579801361422
 11
-513.7016172644826
 21
640.0579801361422
 72
     1
 10
-513.7016172644826
 20
640.0579801361422
 11
-517.7016172644828
 21
640.0579801361422
 72
     1
 10
-517.7016172644828
 20
640.0579801361422
 11
-517.7016172644828
 21
635.0579801361422
 72
     1
 10
-517.7016172644828
 20
635.0579801361422
 11
-513.7016172644826
 21
635.0579801361422
 72
     1
 10
-513.7016172644826
 20
635.0579801361422
 11
-513.7016172644826
 21
622.0579801361423
 72
     1
 10
-513.7016172644826
 20
622.0579801361423
 11
-537.7016172644834
 21
622.0579801361423
 72
     1
 10
-537.7016172644834
 20
622.0579801361423
 11
-537.7016172644834
 21
552.0579801361426
 72
     1
 10
-537.7016172644834
 20
552.0579801361426
 11
-513.7016172644832
 21
552.0579801361426
 72
     1
 10
-513.7016172644832
 20
552.0579801361426
 11
-513.7016172644832
 21
535.0579801361425
 72
     1
 10
-513.7016172644832
 20
535.0579801361425
 11
-556.701617264483
 21
535.0579801361425
 72
     1
 10
-556.701617264483
 20
535.0579801361425
 11
-556.701617264483
 21
622.0579801361423
 72
     1
 10
-556.701617264483
 20
622.0579801361423
 11
-559.7016172644829
 21
622.0579801361421
 72
     1
 10
-559.7016172644829
 20
622.0579801361421
 11
-1099.701617264483
 21
622.0579801361423
 72
     1
 10
-1099.701617264483
 20
622.0579801361423
 11
-1099.701617264483
 21
-583.9420198638579
 72
     1
 10
-1099.701617264483
 20
-583.9420198638579
 11
-353.7016172644832
 21
-583.9420198638577
 72
     1
 10
-353.7016172644832
 20
-583.9420198638577
 11
-353.7016172644832
 21
-559.9420198638578
 97
        1
330
350
 75
     0
 76
     1
 98
        1
 10
0.0
 20
0.0
  0
WIPEOUT
  5
36F
330
69
100
AcDbEntity
  8
None
  6
Continuous
 62
     7
370
     9
 92
      152
310
98000000040000000C0000000E000000B20000000C00000016000000000000C20C00000014000000010000006C000000070000000400000011AFE6B318D353409DDBB541896781C00000000000000000445ECD6731A645409DDBB541896781C00000000000000000445ECD6731A645409DDBB541895781C000000000000000
310
0011AFE6B318D353409DDBB541895781C00000000000000000
100
AcDbWipeout
 90
        0
 10
43.29838273551699
 20
-556.9420198638578
 30
0.0
 11
35.99999999999977
 21
0.0
 31
0.0
 12
0.0
 22
35.99999999999977
 32
0.0
 13
1.0
 23
1.0
340
0
 70
     4
280
     1
281
    50
282
    50
283
     0
360
0
 71
     2
 91
        5
 14
0.4999999999999998
 24
0.5
 14
-0.5
 24
0.5
 14
-0.5
 24
0.4444444444444429
 14
0.4999999999999998
 24
0.4444444444444429
 14
0.4999999999999998
 24
0.5
  0
POLYLINE
  5
370
330
69
100
AcDbEntity
  8
None
  6
Continuous
 62
     7
370
     9
100
AcDb2dPolyline
 66
     1
 10
0.0
 20
0.0
 30
0.0
 70
     1
  0
VERTEX
  5
371
330
370
100
AcDbEntity
  8
None
  6
Continuous
 62
     7
370
     9
100
AcDbVertex
100
AcDb2dVertex
 10
79.29838273551675
 20
-556.9420198638578
 30
0.0
  0
VERTEX
  5
372
330
370
100
AcDbEntity
  8
None
  6
Continuous
 62
     7
370
     9
100
AcDbVertex
100
AcDb2dVertex
 10
43.29838273551699
 20
-556.9420198638578
 30
0.0
  0
VERTEX
  5
373
330
370
100
AcDbEntity
  8
None
  6
Continuous
 62
     7
370
     9
100
AcDbVertex
100
AcDb2dVertex
 10
43.29838273551699
 20
-554.9420198638578
 30
0.0
  0
VERTEX
  5
374
330
370
100
AcDbEntity
  8
None
  6
Continuous
 62
     7
370
     9
100
AcDbVertex
100
AcDb2dVertex
 10
79.29838273551675
 20
-554.9420198638578
 30
0.0
  0
SEQEND
  5
375
330
370
100
AcDbEntity
  8
None
  6
Continuous
 62
     7
370
     9
  0
ARC
  5
376
330
69
100
AcDbEntity
  8
None
  6
Continuous
 62
     7
370
     9
100
AcDbCircle
 10
43.32774652018253
 20
-556.9697523271528
 30
0.0
 40
36.02774442951731
100
AcDbArc
 50
3.226456152381062
 51
90.04669793085228
  0
SOLID
  5
377
330
69
100
AcDbEntity
  8
None
  6
Continuous
 62
     7
370
    15
100
AcDbTrace
 10
-228.7016172644831
 20
-559.9420198638578
 30
0.0
 11
-279.7016172644829
 21
-559.9420198638578
 31
0.0
 12
-228.7016172644831
 22
-576.9420198638578
 32
0.0
 13
-279.7016172644829
 23
-576.9420198638578
 33
0.0
  0
SOLID
  5
378
330
69
100
AcDbEntity
  8
None
  6
Continuous
 62
     7
370
    15
100
AcDbTrace
 10
-228.7016172644831
 20
-648.9420198638578
 30
0.0
 11
-279.7016172644829
 21
-648.9420198638578
 31
0.0
 12
-228.7016172644831
 22
-665.9420198638577
 32
0.0
 13
-279.7016172644829
 23
-665.9420198638577
 33
0.0
  0
WIPEOUT
  5
379
330
69
100
AcDbEntity
  8
None
  6
Continuous
 62
     7
370
     9
 92
      152
310
98000000040000000C0000000E000000B20000000C00000016000000000000C20C00000014000000010000006C000000070000000400000078A80CA673D667C09EDBB541890782C0000000000000000074A80CA6739667C09EDBB541890782C0000000000000000074A80CA6739667C09EDBB541894783C000000000000000
310
0078A80CA673D667C09EDBB541894783C00000000000000000
100
AcDbWipeout
 90
        0
 10
-190.7016172644832
 20
-616.9420198638578
 30
0.0
 11
40.0
 21
0.0
 31
0.0
 12
0.0
 22
40.0
 32
0.0
 13
1.0
 23
1.0
340
0
 70
     4
280
     1
281
    50
282
    50
283
     0
360
0
 71
     2
 91
        5
 14
-0.5000000000000009
 24
-0.4999999999999982
 14
-0.4499999999999975
 24
-0.4999999999999982
 14
-0.4499999999999975
 24
0.5000000000000018
 14
-0.5000000000000009
 24
0.5000000000000018
 14
-0.5000000000000009
 24
-0.4999999999999982
  0
POLYLINE
  5
37A
330
69
100
AcDbEntity
  8
None
  6
Continuous
 62
     7
370
     9
100
AcDb2dPolyline
 66
     1
 10
0.0
 20
0.0
 30
0.0
 70
     1
  0
VERTEX
  5
37B
330
37A
100
AcDbEntity
  8
None
  6
Continuous
 62
     7
370
     9
100
AcDbVertex
100
AcDb2dVertex
 10
-190.7016172644832
 20
-576.9420198638578
 30
0.0
  0
VERTEX
  5
37C
330
37A
100
AcDbEntity
  8
None
  6
Continuous
 62
     7
370
     9
100
AcDbVertex
100
AcDb2dVertex
 10
-188.7016172644831
 20
-576.9420198638578
 30
0.0
  0
VERTEX
  5
37D
330
37A
100
AcDbEntity
  8
None
  6
Continuous
 62
     7
370
     9
100
AcDbVertex
100
AcDb2dVertex
 10
-188.7016172644831
 20
-616.9420198638578
 30
0.0
  0
VERTEX
  5
37E
330
37A
100
AcDbEntity
  8
None
  6
Continuous
 62
     7
370
     9
100
AcDbVertex
100
AcDb2dVertex
 10
-190.7016172644832
 20
-616.9420198638578
 30
0.0
  0
SEQEND
  5
37F
330
37A
100
AcDbEntity
  8
None
  6
Continuous
 62
     7
370
     9
  0
ARC
  5
380
330
69
100
AcDbEntity
  8
None
  6
Continuous
 62
     7
370
     9
100
AcDbCircle
 10
-188.6766501159946
 20
-576.9683010727932
 30
0.0
 40
40.02497577687627
100
AcDbArc
 50
179.9623784291811
 51
267.1000201420475
  0
WIPEOUT
  5
381
330
69
100
AcDbEntity
  8
None
  6
Continuous
 62
     7
370
     9
 92
      152
310
98000000040000000C0000000E000000B20000000C00000016000000000000C20C00000014000000010000006C000000070000000400000078A80CA673D667C09CDBB54189CF84C0000000000000000074A80CA6739667C09CDBB54189CF84C0000000000000000074A80CA6739667C09CDBB541890F86C000000000000000
310
0078A80CA673D667C09CDBB541890F86C00000000000000000
100
AcDbWipeout
 90
        0
 10
-190.7016172644832
 20
-705.9420198638577
 30
0.0
 11
40.0
 21
0.0
 31
0.0
 12
0.0
 22
40.0
 32
0.0
 13
1.0
 23
1.0
340
0
 70
     4
280
     1
281
    50
282
    50
283
     0
360
0
 71
     2
 91
        5
 14
-0.5000000000000009
 24
-0.5
 14
-0.4499999999999975
 24
-0.5
 14
-0.4499999999999975
 24
0.5
 14
-0.5000000000000009
 24
0.5
 14
-0.5000000000000009
 24
-0.5
  0
POLYLINE
  5
382
330
69
100
AcDbEntity
  8
None
  6
Continuous
 62
     7
370
     9
100
AcDb2dPolyline
 66
     1
 10
0.0
 20
0.0
 30
0.0
 70
     1
  0
VERTEX
  5
383
330
382
100
AcDbEntity
  8
None
  6
Continuous
 62
     7
370
     9
100
AcDbVertex
100
AcDb2dVertex
 10
-190.7016172644832
 20
-665.9420198638577
 30
0.0
  0
VERTEX
  5
384
330
382
100
AcDbEntity
  8
None
  6
Continuous
 62
     7
370
     9
100
AcDbVertex
100
AcDb2dVertex
 10
-188.7016172644831
 20
-665.9420198638577
 30
0.0
  0
VERTEX
  5
385
330
382
100
AcDbEntity
  8
None
  6
Continuous
 62
     7
370
     9
100
AcDbVertex
100
AcDb2dVertex
 10
-188.7016172644831
 20
-705.9420198638577
 30
0.0
  0
VERTEX
  5
386
330
382
100
AcDbEntity
  8
None
  6
Continuous
 62
     7
370
     9
100
AcDbVertex
100
AcDb2dVertex
 10
-190.7016172644832
 20
-705.9420198638577
 30
0.0
  0
SEQEND
  5
387
330
382
100
AcDbEntity
  8
None
  6
Continuous
 62
     7
370
     9
  0
ARC
  5
388
330
69
100
AcDbEntity
  8
None
  6
Continuous
 62
     7
370
     9
100
AcDbCircle
 10
-188.6766501159946
 20
-665.9683010727932
 30
0.0
 40
40.02497577687627
100
AcDbArc
 50
179.9623784291811
 51
267.1000201420475
  0
WIPEOUT
  5
389
330
69
100
AcDbEntity
  8
None
  6
Continuous
 62
     7
370
     9
 92
      152
310
98000000040000000C0000000E000000B20000000C00000016000000000000C20C00000014000000010000006C0000000700000004000000365406D339FB73C09EDBB541890782C000000000000000003E5406D339DB73C09EDBB541890782C000000000000000003E5406D339DB73C09EDBB541894783C000000000000000
310
00365406D339FB73C09EDBB541894783C00000000000000000
100
AcDbWipeout
 90
        0
 10
-319.7016172644829
 20
-616.9420198638578
 30
0.0
 11
40.0
 21
0.0
 31
0.0
 12
0.0
 22
40.0
 32
0.0
 13
1.0
 23
1.0
340
0
 70
     4
280
     1
281
    50
282
    50
283
     0
360
0
 71
     2
 91
        5
 14
-0.5
 24
-0.4999999999999982
 14
-0.4500000000000108
 24
-0.4999999999999982
 14
-0.4500000000000108
 24
0.5000000000000018
 14
-0.5
 24
0.5000000000000018
 14
-0.5
 24
-0.4999999999999982
  0
POLYLINE
  5
38A
330
69
100
AcDbEntity
  8
None
  6
Continuous
 62
     7
370
     9
100
AcDb2dPolyline
 66
     1
 10
0.0
 20
0.0
 30
0.0
 70
     1
  0
VERTEX
  5
38B
330
38A
100
AcDbEntity
  8
None
  6
Continuous
 62
     7
370
     9
100
AcDbVertex
100
AcDb2dVertex
 10
-319.7016172644829
 20
-576.9420198638578
 30
0.0
  0
VERTEX
  5
38C
330
38A
100
AcDbEntity
  8
None
  6
Continuous
 62
     7
370
     9
100
AcDbVertex
100
AcDb2dVertex
 10
-317.7016172644834
 20
-576.9420198638578
 30
0.0
  0
VERTEX
  5
38D
330
38A
100
AcDbEntity
  8
None
  6
Continuous
 62
     7
370
     9
100
AcDbVertex
100
AcDb2dVertex
 10
-317.7016172644834
 20
-616.9420198638578
 30
0.0
  0
VERTEX
  5
38E
330
38A
100
AcDbEntity
  8
None
  6
Continuous
 62
     7
370
     9
100
AcDbVertex
100
AcDb2dVertex
 10
-319.7016172644829
 20
-616.9420198638578
 30
0.0
  0
SEQEND
  5
38F
330
38A
100
AcDbEntity
  8
None
  6
Continuous
 62
     7
370
     9
  0
ARC
  5
390
330
69
100
AcDbEntity
  8
None
  6
Continuous
 62
     7
370
     9
100
AcDbCircle
 10
-319.726584412972
 20
-576.9683010727932
 30
0.0
 40
40.02497577687654
100
AcDbArc
 50
272.8999798579525
 51
0.037621570818942
  0
WIPEOUT
  5
391
330
69
100
AcDbEntity
  8
None
  6
Continuous
 62
     7
370
     9
 92
      152
310
98000000040000000C0000000E000000B20000000C00000016000000000000C20C00000014000000010000006C0000000700000004000000365406D339FB73C09CDBB54189CF84C000000000000000003E5406D339DB73C09CDBB54189CF84C000000000000000003E5406D339DB73C09CDBB541890F86C000000000000000
310
00365406D339FB73C09CDBB541890F86C00000000000000000
100
AcDbWipeout
 90
        0
 10
-319.7016172644829
 20
-705.9420198638577
 30
0.0
 11
40.0
 21
0.0
 31
0.0
 12
0.0
 22
40.0
 32
0.0
 13
1.0
 23
1.0
340
0
 70
     4
280
     1
281
    50
282
    50
283
     0
360
0
 71
     2
 91
        5
 14
-0.5
 24
-0.5
 14
-0.4500000000000108
 24
-0.5
 14
-0.4500000000000108
 24
0.5
 14
-0.5
 24
0.5
 14
-0.5
 24
-0.5
  0
POLYLINE
  5
392
330
69
100
AcDbEntity
  8
None
  6
Continuous
 62
     7
370
     9
100
AcDb2dPolyline
 66
     1
 10
0.0
 20
0.0
 30
0.0
 70
     1
  0
VERTEX
  5
393
330
392
100
AcDbEntity
  8
None
  6
Continuous
 62
     7
370
     9
100
AcDbVertex
100
AcDb2dVertex
 10
-319.7016172644829
 20
-665.9420198638577
 30
0.0
  0
VERTEX
  5
394
330
392
100
AcDbEntity
  8
None
  6
Continuous
 62
     7
370
     9
100
AcDbVertex
100
AcDb2dVertex
 10
-317.7016172644834
 20
-665.9420198638577
 30
0.0
  0
VERTEX
  5
395
330
392
100
AcDbEntity
  8
None
  6
Continuous
 62
     7
370
     9
100
AcDbVertex
100
AcDb2dVertex
 10
-317.7016172644834
 20
-705.9420198638577
 30
0.0
  0
VERTEX
  5
396
330
392
100
AcDbEntity
  8
None
  6
Continuous
 62
     7
370
     9
100
AcDbVertex
100
AcDb2dVertex
 10
-319.7016172644829
 20
-705.9420198638577
 30
0.0
  0
SEQEND
  5
397
330
392
100
AcDbEntity
  8
None
  6
Continuous
 62
     7
370
     9
  0
ARC
  5
398
330
69
100
AcDbEntity
  8
None
  6
Continuous
 62
     7
370
     9
100
AcDbCircle
 10
-319.726584412972
 20
-665.9683010727932
 30
0.0
 40
40.02497577687654
100
AcDbArc
 50
272.8999798579525
 51
0.037621570818942
  0
LINE
  5
399
330
69
100
AcDbEntity
  8
None
  6
Dash Style-2
 62
     7
370
     9
100
AcDbLine
 10
-74.7016172644829
 20
166.0579801361424
 30
0.0
 11
-1099.701617264483
 21
166.0579801361424
 31
0.0
  0
WIPEOUT
  5
39A
330
69
100
AcDbEntity
  8
None
  6
Continuous
 62
     7
370
    50
 92
      392
310
88010000040000000C0000000E000000B20000000C00000016000000000000C20C00000014000000010000005C010000070000000E00000076A80CA6734E63C0629128F9DA796940000000000000000076A80CA6734E63C05F9128F9DA61694000000000000000006FA80CA6732264C06A9128F9DA61694000000000000000
310
0076A80CA673DE64C05F9128F9DA616940000000000000000076A80CA673DE64C0629128F9DA79694000000000000000006FA80CA6732264C0629128F9DA79694000000000000000006FA80CA6732264C0599128F9DA496C40000000000000000076A80CA673DE64C0599128F9DA496C40000000000000000076A80CA673DE
310
64C05C9128F9DA616C4000000000000000006BA80CA6730A64C0679128F9DA616C40000000000000000076A80CA6734E63C05C9128F9DA616C40000000000000000076A80CA6734E63C0599128F9DA496C4000000000000000006BA80CA6730A64C0599128F9DA496C4000000000000000006BA80CA6730A64C0629128F9DA
310
7969400000000000000000
100
AcDbWipeout
 90
        0
 10
-166.9516172644832
 20
203.0579801361409
 30
0.0
 11
24.00000000000023
 21
0.0
 31
0.0
 12
0.0
 22
24.00000000000023
 32
0.0
 13
1.0
 23
1.0
340
0
 70
     4
280
     1
281
    50
282
    50
283
     0
360
0
 71
     2
 91
       15
 14
0.0208333333333295
 24
0.4687499999999964
 14
0.0208333333333295
 24
0.5
 14
-0.2552083333333259
 24
0.4999999999999876
 14
-0.4999999999999991
 24
0.5
 14
-0.4999999999999991
 24
0.4687499999999964
 14
-0.2552083333333259
 24
0.4687499999999964
 14
-0.2552083333333259
 24
-0.468749999999984
 14
-0.4999999999999991
 24
-0.468749999999984
 14
-0.4999999999999991
 24
-0.4999999999999876
 14
-0.2239583333333215
 24
-0.5
 14
0.0208333333333295
 24
-0.4999999999999876
 14
0.0208333333333295
 24
-0.468749999999984
 14
-0.2239583333333215
 24
-0.468749999999984
 14
-0.2239583333333215
 24
0.4687499999999964
 14
0.0208333333333295
 24
0.4687499999999964
  0
POLYLINE
  5
39B
330
69
100
AcDbEntity
  8
None
  6
Continuous
 62
     7
370
    50
100
AcDb2dPolyline
 66
     1
 10
0.0
 20
0.0
 30
0.0
 70
     1
  0
VERTEX
  5
39C
330
39B
100
AcDbEntity
  8
None
  6
Continuous
 62
     7
370
    50
100
AcDbVertex
100
AcDb2dVertex
 10
-154.4516172644832
 20
203.807980136141
 30
0.0
  0
VERTEX
  5
39D
330
39B
100
AcDbEntity
  8
None
  6
Continuous
 62
     7
370
    50
100
AcDbVertex
100
AcDb2dVertex
 10
-154.4516172644832
 20
203.0579801361409
 30
0.0
  0
VERTEX
  5
39E
330
39B
100
AcDbEntity
  8
None
  6
Continuous
 62
     7
370
    50
100
AcDbVertex
100
AcDb2dVertex
 10
-161.076617264483
 20
203.0579801361412
 30
0.0
  0
VERTEX
  5
39F
330
39B
100
AcDbEntity
  8
None
  6
Continuous
 62
     7
370
    50
100
AcDbVertex
100
AcDb2dVertex
 10
-166.9516172644832
 20
203.0579801361409
 30
0.0
  0
VERTEX
  5
3A0
330
39B
100
AcDbEntity
  8
None
  6
Continuous
 62
     7
370
    50
100
AcDbVertex
100
AcDb2dVertex
 10
-166.9516172644832
 20
203.807980136141
 30
0.0
  0
VERTEX
  5
3A1
330
39B
100
AcDbEntity
  8
None
  6
Continuous
 62
     7
370
    50
100
AcDbVertex
100
AcDb2dVertex
 10
-161.076617264483
 20
203.807980136141
 30
0.0
  0
VERTEX
  5
3A2
330
39B
100
AcDbEntity
  8
None
  6
Continuous
 62
     7
370
    50
100
AcDbVertex
100
AcDb2dVertex
 10
-161.076617264483
 20
226.3079801361407
 30
0.0
  0
VERTEX
  5
3A3
330
39B
100
AcDbEntity
  8
None
  6
Continuous
 62
     7
370
    50
100
AcDbVertex
100
AcDb2dVertex
 10
-166.9516172644832
 20
226.3079801361407
 30
0.0
  0
VERTEX
  5
3A4
330
39B
100
AcDbEntity
  8
None
  6
Continuous
 62
     7
370
    50
100
AcDbVertex
100
AcDb2dVertex
 10
-166.9516172644832
 20
227.0579801361409
 30
0.0
  0
VERTEX
  5
3A5
330
39B
100
AcDbEntity
  8
None
  6
Continuous
 62
     7
370
    50
100
AcDbVertex
100
AcDb2dVertex
 10
-160.3266172644829
 20
227.0579801361411
 30
0.0
  0
VERTEX
  5
3A6
330
39B
100
AcDbEntity
  8
None
  6
Continuous
 62
     7
370
    50
100
AcDbVertex
100
AcDb2dVertex
 10
-154.4516172644832
 20
227.0579801361409
 30
0.0
  0
VERTEX
  5
3A7
330
39B
100
AcDbEntity
  8
None
  6
Continuous
 62
     7
370
    50
100
AcDbVertex
100
AcDb2dVertex
 10
-154.4516172644832
 20
226.3079801361407
 30
0.0
  0
VERTEX
  5
3A8
330
39B
100
AcDbEntity
  8
None
  6
Continuous
 62
     7
370
    50
100
AcDbVertex
100
AcDb2dVertex
 10
-160.3266172644829
 20
226.3079801361407
 30
0.0
  0
VERTEX
  5
3A9
330
39B
100
AcDbEntity
  8
None
  6
Continuous
 62
     7
370
    50
100
AcDbVertex
100
AcDb2dVertex
 10
-160.3266172644829
 20
203.807980136141
 30
0.0
  0
SEQEND
  5
3AA
330
39B
100
AcDbEntity
  8
None
  6
Continuous
 62
     7
370
    50
  0
WIPEOUT
  5
3AB
330
69
100
AcDbEntity
  8
None
  6
Continuous
 62
     7
370
    50
 92
      392
310
88010000040000000C0000000E000000B20000000C00000016000000000000C20C00000014000000010000005C010000070000000E0000003D5406D339A775C0629128F9DA79694000000000000000003D5406D339A775C05F9128F9DA61694000000000000000003A5406D3391176C06A9128F9DA61694000000000000000
310
003D5406D3396F76C05F9128F9DA61694000000000000000003D5406D3396F76C0629128F9DA79694000000000000000003A5406D3391176C0629128F9DA79694000000000000000003A5406D3391176C0599128F9DA496C4000000000000000003D5406D3396F76C0599128F9DA496C4000000000000000003D5406D3396F
310
76C05C9128F9DA616C4000000000000000002D5406D3390576C0679128F9DA616C4000000000000000003D5406D339A775C05C9128F9DA616C4000000000000000003D5406D339A775C0599128F9DA496C4000000000000000002D5406D3390576C0599128F9DA496C4000000000000000002D5406D3390576C0629128F9DA
310
7969400000000000000000
100
AcDbWipeout
 90
        0
 10
-358.9516172644834
 20
203.0579801361409
 30
0.0
 11
24.00000000000023
 21
0.0
 31
0.0
 12
0.0
 22
24.00000000000023
 32
0.0
 13
1.0
 23
1.0
340
0
 70
     4
280
     1
281
    50
282
    50
283
     0
360
0
 71
     2
 91
       15
 14
0.0208333333333304
 24
0.4687499999999964
 14
0.0208333333333304
 24
0.5
 14
-0.255208333333325
 24
0.4999999999999876
 14
-0.4999999999999982
 24
0.5
 14
-0.4999999999999982
 24
0.4687499999999964
 14
-0.255208333333325
 24
0.4687499999999964
 14
-0.255208333333325
 24
-0.468749999999984
 14
-0.4999999999999982
 24
-0.468749999999984
 14
-0.4999999999999982
 24
-0.4999999999999876
 14
-0.2239583333332966
 24
-0.5
 14
0.0208333333333304
 24
-0.4999999999999876
 14
0.0208333333333304
 24
-0.468749999999984
 14
-0.2239583333332966
 24
-0.468749999999984
 14
-0.2239583333332966
 24
0.4687499999999964
 14
0.0208333333333304
 24
0.4687499999999964
  0
POLYLINE
  5
3AC
330
69
100
AcDbEntity
  8
None
  6
Continuous
 62
     7
370
    50
100
AcDb2dPolyline
 66
     1
 10
0.0
 20
0.0
 30
0.0
 70
     1
  0
VERTEX
  5
3AD
330
3AC
100
AcDbEntity
  8
None
  6
Continuous
 62
     7
370
    50
100
AcDbVertex
100
AcDb2dVertex
 10
-346.4516172644834
 20
203.807980136141
 30
0.0
  0
VERTEX
  5
3AE
330
3AC
100
AcDbEntity
  8
None
  6
Continuous
 62
     7
370
    50
100
AcDbVertex
100
AcDb2dVertex
 10
-346.4516172644834
 20
203.0579801361409
 30
0.0
  0
VERTEX
  5
3AF
330
3AC
100
AcDbEntity
  8
None
  6
Continuous
 62
     7
370
    50
100
AcDbVertex
100
AcDb2dVertex
 10
-353.0766172644832
 20
203.0579801361412
 30
0.0
  0
VERTEX
  5
3B0
330
3AC
100
AcDbEntity
  8
None
  6
Continuous
 62
     7
370
    50
100
AcDbVertex
100
AcDb2dVertex
 10
-358.9516172644834
 20
203.0579801361409
 30
0.0
  0
VERTEX
  5
3B1
330
3AC
100
AcDbEntity
  8
None
  6
Continuous
 62
     7
370
    50
100
AcDbVertex
100
AcDb2dVertex
 10
-358.9516172644834
 20
203.807980136141
 30
0.0
  0
VERTEX
  5
3B2
330
3AC
100
AcDbEntity
  8
None
  6
Continuous
 62
     7
370
    50
100
AcDbVertex
100
AcDb2dVertex
 10
-353.0766172644832
 20
203.807980136141
 30
0.0
  0
VERTEX
  5
3B3
330
3AC
100
AcDbEntity
  8
None
  6
Continuous
 62
     7
370
    50
100
AcDbVertex
100
AcDb2dVertex
 10
-353.0766172644832
 20
226.3079801361407
 30
0.0
  0
VERTEX
  5
3B4
330
3AC
100
AcDbEntity
  8
None
  6
Continuous
 62
     7
370
    50
100
AcDbVertex
100
AcDb2dVertex
 10
-358.9516172644834
 20
226.3079801361407
 30
0.0
  0
VERTEX
  5
3B5
330
3AC
100
AcDbEntity
  8
None
  6
Continuous
 62
     7
370
    50
100
AcDbVertex
100
AcDb2dVertex
 10
-358.9516172644834
 20
227.0579801361409
 30
0.0
  0
VERTEX
  5
3B6
330
3AC
100
AcDbEntity
  8
None
  6
Continuous
 62
     7
370
    50
100
AcDbVertex
100
AcDb2dVertex
 10
-352.3266172644825
 20
227.0579801361411
 30
0.0
  0
VERTEX
  5
3B7
330
3AC
100
AcDbEntity
  8
None
  6
Continuous
 62
     7
370
    50
100
AcDbVertex
100
AcDb2dVertex
 10
-346.4516172644834
 20
227.0579801361409
 30
0.0
  0
VERTEX
  5
3B8
330
3AC
100
AcDbEntity
  8
None
  6
Continuous
 62
     7
370
    50
100
AcDbVertex
100
AcDb2dVertex
 10
-346.4516172644834
 20
226.3079801361407
 30
0.0
  0
VERTEX
  5
3B9
330
3AC
100
AcDbEntity
  8
None
  6
Continuous
 62
     7
370
    50
100
AcDbVertex
100
AcDb2dVertex
 10
-352.3266172644825
 20
226.3079801361407
 30
0.0
  0
VERTEX
  5
3BA
330
3AC
100
AcDbEntity
  8
None
  6
Continuous
 62
     7
370
    50
100
AcDbVertex
100
AcDb2dVertex
 10
-352.3266172644825
 20
203.807980136141
 30
0.0
  0
SEQEND
  5
3BB
330
3AC
100
AcDbEntity
  8
None
  6
Continuous
 62
     7
370
    50
  0
WIPEOUT
  5
3BC
330
69
100
AcDbEntity
  8
None
  6
Continuous
 62
     7
370
    50
 92
      392
310
88010000040000000C0000000E000000B20000000C00000016000000000000C20C00000014000000010000005C010000070000000E0000001B2A83E99CD380C0629128F9DA79694000000000000000001B2A83E99CD380C05F9128F9DA6169400000000000000000192A83E99C0881C06A9128F9DA61694000000000000000
310
001B2A83E99C3781C05F9128F9DA61694000000000000000001B2A83E99C3781C0629128F9DA7969400000000000000000192A83E99C0881C0629128F9DA7969400000000000000000192A83E99C0881C0599128F9DA496C4000000000000000001B2A83E99C3781C0599128F9DA496C4000000000000000001B2A83E99C37
310
81C05C9128F9DA616C4000000000000000001C2A83E99C0281C0679128F9DA616C4000000000000000001B2A83E99CD380C05C9128F9DA616C4000000000000000001B2A83E99CD380C0599128F9DA496C4000000000000000001C2A83E99C0281C0599128F9DA496C4000000000000000001C2A83E99C0281C0629128F9DA
310
7969400000000000000000
100
AcDbWipeout
 90
        0
 10
-550.9516172644829
 20
203.0579801361409
 30
0.0
 11
24.00000000000023
 21
0.0
 31
0.0
 12
0.0
 22
24.00000000000023
 32
0.0
 13
1.0
 23
1.0
340
0
 70
     4
280
     1
281
    50
282
    50
283
     0
360
0
 71
     2
 91
       15
 14
0.0208333333333286
 24
0.4687499999999964
 14
0.0208333333333286
 24
0.5
 14
-0.255208333333325
 24
0.4999999999999876
 14
-0.5
 24
0.5
 14
-0.5
 24
0.4687499999999964
 14
-0.255208333333325
 24
0.4687499999999964
 14
-0.255208333333325
 24
-0.468749999999984
 14
-0.5
 24
-0.468749999999984
 14
-0.5
 24
-0.4999999999999876
 14
-0.2239583333333428
 24
-0.5
 14
0.0208333333333286
 24
-0.4999999999999876
 14
0.0208333333333286
 24
-0.468749999999984
 14
-0.2239583333333428
 24
-0.468749999999984
 14
-0.2239583333333428
 24
0.4687499999999964
 14
0.0208333333333286
 24
0.4687499999999964
  0
POLYLINE
  5
3BD
330
69
100
AcDbEntity
  8
None
  6
Continuous
 62
     7
370
    50
100
AcDb2dPolyline
 66
     1
 10
0.0
 20
0.0
 30
0.0
 70
     1
  0
VERTEX
  5
3BE
330
3BD
100
AcDbEntity
  8
None
  6
Continuous
 62
     7
370
    50
100
AcDbVertex
100
AcDb2dVertex
 10
-538.4516172644829
 20
203.807980136141
 30
0.0
  0
VERTEX
  5
3BF
330
3BD
100
AcDbEntity
  8
None
  6
Continuous
 62
     7
370
    50
100
AcDbVertex
100
AcDb2dVertex
 10
-538.4516172644829
 20
203.0579801361409
 30
0.0
  0
VERTEX
  5
3C0
330
3BD
100
AcDbEntity
  8
None
  6
Continuous
 62
     7
370
    50
100
AcDbVertex
100
AcDb2dVertex
 10
-545.0766172644827
 20
203.0579801361412
 30
0.0
  0
VERTEX
  5
3C1
330
3BD
100
AcDbEntity
  8
None
  6
Continuous
 62
     7
370
    50
100
AcDbVertex
100
AcDb2dVertex
 10
-550.9516172644829
 20
203.0579801361409
 30
0.0
  0
VERTEX
  5
3C2
330
3BD
100
AcDbEntity
  8
None
  6
Continuous
 62
     7
370
    50
100
AcDbVertex
100
AcDb2dVertex
 10
-550.9516172644829
 20
203.807980136141
 30
0.0
  0
VERTEX
  5
3C3
330
3BD
100
AcDbEntity
  8
None
  6
Continuous
 62
     7
370
    50
100
AcDbVertex
100
AcDb2dVertex
 10
-545.0766172644827
 20
203.807980136141
 30
0.0
  0
VERTEX
  5
3C4
330
3BD
100
AcDbEntity
  8
None
  6
Continuous
 62
     7
370
    50
100
AcDbVertex
100
AcDb2dVertex
 10
-545.0766172644827
 20
226.3079801361407
 30
0.0
  0
VERTEX
  5
3C5
330
3BD
100
AcDbEntity
  8
None
  6
Continuous
 62
     7
370
    50
100
AcDbVertex
100
AcDb2dVertex
 10
-550.9516172644829
 20
226.3079801361407
 30
0.0
  0
VERTEX
  5
3C6
330
3BD
100
AcDbEntity
  8
None
  6
Continuous
 62
     7
370
    50
100
AcDbVertex
100
AcDb2dVertex
 10
-550.9516172644829
 20
227.0579801361409
 30
0.0
  0
VERTEX
  5
3C7
330
3BD
100
AcDbEntity
  8
None
  6
Continuous
 62
     7
370
    50
100
AcDbVertex
100
AcDb2dVertex
 10
-544.3266172644832
 20
227.0579801361411
 30
0.0
  0
VERTEX
  5
3C8
330
3BD
100
AcDbEntity
  8
None
  6
Continuous
 62
     7
370
    50
100
AcDbVertex
100
AcDb2dVertex
 10
-538.4516172644829
 20
227.0579801361409
 30
0.0
  0
VERTEX
  5
3C9
330
3BD
100
AcDbEntity
  8
None
  6
Continuous
 62
     7
370
    50
100
AcDbVertex
100
AcDb2dVertex
 10
-538.4516172644829
 20
226.3079801361407
 30
0.0
  0
VERTEX
  5
3CA
330
3BD
100
AcDbEntity
  8
None
  6
Continuous
 62
     7
370
    50
100
AcDbVertex
100
AcDb2dVertex
 10
-544.3266172644832
 20
226.3079801361407
 30
0.0
  0
VERTEX
  5
3CB
330
3BD
100
AcDbEntity
  8
None
  6
Continuous
 62
     7
370
    50
100
AcDbVertex
100
AcDb2dVertex
 10
-544.3266172644832
 20
203.807980136141
 30
0.0
  0
SEQEND
  5
3CC
330
3BD
100
AcDbEntity
  8
None
  6
Continuous
 62
     7
370
    50
  0
WIPEOUT
  5
3CD
330
69
100
AcDbEntity
  8
None
  6
Continuous
 62
     7
370
    50
 92
      392
310
88010000040000000C0000000E000000B20000000C00000016000000000000C20C00000014000000010000005C010000070000000E0000001F2A83E99CD386C0629128F9DA79694000000000000000001F2A83E99CD386C05F9128F9DA61694000000000000000001D2A83E99C0887C06A9128F9DA61694000000000000000
310
00202A83E99C3787C05F9128F9DA6169400000000000000000202A83E99C3787C0629128F9DA79694000000000000000001D2A83E99C0887C0629128F9DA79694000000000000000001D2A83E99C0887C0599128F9DA496C400000000000000000202A83E99C3787C0599128F9DA496C400000000000000000202A83E99C37
310
87C05C9128F9DA616C400000000000000000182A83E99C0287C0679128F9DA616C4000000000000000001F2A83E99CD386C05C9128F9DA616C4000000000000000001F2A83E99CD386C0599128F9DA496C400000000000000000182A83E99C0287C0599128F9DA496C400000000000000000182A83E99C0287C0629128F9DA
310
7969400000000000000000
100
AcDbWipeout
 90
        0
 10
-742.9516172644836
 20
203.0579801361409
 30
0.0
 11
24.00000000000023
 21
0.0
 31
0.0
 12
0.0
 22
24.00000000000023
 32
0.0
 13
1.0
 23
1.0
340
0
 70
     4
280
     1
281
    50
282
    50
283
     0
360
0
 71
     2
 91
       15
 14
0.0208333333333357
 24
0.4687499999999964
 14
0.0208333333333357
 24
0.5
 14
-0.2552083333333179
 24
0.4999999999999876
 14
-0.4999999999999929
 24
0.5
 14
-0.4999999999999929
 24
0.4687499999999964
 14
-0.2552083333333179
 24
0.4687499999999964
 14
-0.2552083333333179
 24
-0.468749999999984
 14
-0.4999999999999929
 24
-0.468749999999984
 14
-0.4999999999999929
 24
-0.4999999999999876
 14
-0.2239583333332931
 24
-0.5
 14
0.0208333333333357
 24
-0.4999999999999876
 14
0.0208333333333357
 24
-0.468749999999984
 14
-0.2239583333332931
 24
-0.468749999999984
 14
-0.2239583333332931
 24
0.4687499999999964
 14
0.0208333333333357
 24
0.4687499999999964
  0
POLYLINE
  5
3CE
330
69
100
AcDbEntity
  8
None
  6
Continuous
 62
     7
370
    50
100
AcDb2dPolyline
 66
     1
 10
0.0
 20
0.0
 30
0.0
 70
     1
  0
VERTEX
  5
3CF
330
3CE
100
AcDbEntity
  8
None
  6
Continuous
 62
     7
370
    50
100
AcDbVertex
100
AcDb2dVertex
 10
-730.4516172644836
 20
203.807980136141
 30
0.0
  0
VERTEX
  5
3D0
330
3CE
100
AcDbEntity
  8
None
  6
Continuous
 62
     7
370
    50
100
AcDbVertex
100
AcDb2dVertex
 10
-730.4516172644836
 20
203.0579801361409
 30
0.0
  0
VERTEX
  5
3D1
330
3CE
100
AcDbEntity
  8
None
  6
Continuous
 62
     7
370
    50
100
AcDbVertex
100
AcDb2dVertex
 10
-737.0766172644834
 20
203.0579801361412
 30
0.0
  0
VERTEX
  5
3D2
330
3CE
100
AcDbEntity
  8
None
  6
Continuous
 62
     7
370
    50
100
AcDbVertex
100
AcDb2dVertex
 10
-742.9516172644836
 20
203.0579801361409
 30
0.0
  0
VERTEX
  5
3D3
330
3CE
100
AcDbEntity
  8
None
  6
Continuous
 62
     7
370
    50
100
AcDbVertex
100
AcDb2dVertex
 10
-742.9516172644836
 20
203.807980136141
 30
0.0
  0
VERTEX
  5
3D4
330
3CE
100
AcDbEntity
  8
None
  6
Continuous
 62
     7
370
    50
100
AcDbVertex
100
AcDb2dVertex
 10
-737.0766172644834
 20
203.807980136141
 30
0.0
  0
VERTEX
  5
3D5
330
3CE
100
AcDbEntity
  8
None
  6
Continuous
 62
     7
370
    50
100
AcDbVertex
100
AcDb2dVertex
 10
-737.0766172644834
 20
226.3079801361407
 30
0.0
  0
VERTEX
  5
3D6
330
3CE
100
AcDbEntity
  8
None
  6
Continuous
 62
     7
370
    50
100
AcDbVertex
100
AcDb2dVertex
 10
-742.9516172644836
 20
226.3079801361407
 30
0.0
  0
VERTEX
  5
3D7
330
3CE
100
AcDbEntity
  8
None
  6
Continuous
 62
     7
370
    50
100
AcDbVertex
100
AcDb2dVertex
 10
-742.9516172644836
 20
227.0579801361409
 30
0.0
  0
VERTEX
  5
3D8
330
3CE
100
AcDbEntity
  8
None
  6
Continuous
 62
     7
370
    50
100
AcDbVertex
100
AcDb2dVertex
 10
-736.3266172644827
 20
227.0579801361411
 30
0.0
  0
VERTEX
  5
3D9
330
3CE
100
AcDbEntity
  8
None
  6
Continuous
 62
     7
370
    50
100
AcDbVertex
100
AcDb2dVertex
 10
-730.4516172644836
 20
227.0579801361409
 30
0.0
  0
VERTEX
  5
3DA
330
3CE
100
AcDbEntity
  8
None
  6
Continuous
 62
     7
370
    50
100
AcDbVertex
100
AcDb2dVertex
 10
-730.4516172644836
 20
226.3079801361407
 30
0.0
  0
VERTEX
  5
3DB
330
3CE
100
AcDbEntity
  8
None
  6
Continuous
 62
     7
370
    50
100
AcDbVertex
100
AcDb2dVertex
 10
-736.3266172644827
 20
226.3079801361407
 30
0.0
  0
VERTEX
  5
3DC
330
3CE
100
AcDbEntity
  8
None
  6
Continuous
 62
     7
370
    50
100
AcDbVertex
100
AcDb2dVertex
 10
-736.3266172644827
 20
203.807980136141
 30
0.0
  0
SEQEND
  5
3DD
330
3CE
100
AcDbEntity
  8
None
  6
Continuous
 62
     7
370
    50
  0
WIPEOUT
  5
3DE
330
69
100
AcDbEntity
  8
None
  6
Continuous
 62
     7
370
    50
 92
      392
310
88010000040000000C0000000E000000B20000000C00000016000000000000C20C00000014000000010000005C010000070000000E0000001B2A83E99CD38CC0629128F9DA79694000000000000000001B2A83E99CD38CC05F9128F9DA6169400000000000000000192A83E99C088DC06A9128F9DA61694000000000000000
310
001C2A83E99C378DC05F9128F9DA61694000000000000000001C2A83E99C378DC0629128F9DA7969400000000000000000192A83E99C088DC0629128F9DA7969400000000000000000192A83E99C088DC0599128F9DA496C4000000000000000001C2A83E99C378DC0599128F9DA496C4000000000000000001C2A83E99C37
310
8DC05C9128F9DA616C4000000000000000001D2A83E99C028DC0679128F9DA616C4000000000000000001B2A83E99CD38CC05C9128F9DA616C4000000000000000001B2A83E99CD38CC0599128F9DA496C4000000000000000001D2A83E99C028DC0599128F9DA496C4000000000000000001D2A83E99C028DC0629128F9DA
310
7969400000000000000000
100
AcDbWipeout
 90
        0
 10
-934.9516172644832
 20
203.0579801361409
 30
0.0
 11
24.00000000000023
 21
0.0
 31
0.0
 12
0.0
 22
24.00000000000023
 32
0.0
 13
1.0
 23
1.0
340
0
 70
     4
280
     1
281
    50
282
    50
283
     0
360
0
 71
     2
 91
       15
 14
0.0208333333333357
 24
0.4687499999999964
 14
0.0208333333333357
 24
0.5
 14
-0.2552083333333144
 24
0.4999999999999876
 14
-0.4999999999999929
 24
0.5
 14
-0.4999999999999929
 24
0.4687499999999964
 14
-0.2552083333333144
 24
0.4687499999999964
 14
-0.2552083333333144
 24
-0.468749999999984
 14
-0.4999999999999929
 24
-0.468749999999984
 14
-0.4999999999999929
 24
-0.4999999999999876
 14
-0.2239583333333357
 24
-0.5
 14
0.0208333333333357
 24
-0.4999999999999876
 14
0.0208333333333357
 24
-0.468749999999984
 14
-0.2239583333333357
 24
-0.468749999999984
 14
-0.2239583333333357
 24
0.4687499999999964
 14
0.0208333333333357
 24
0.4687499999999964
  0
POLYLINE
  5
3DF
330
69
100
AcDbEntity
  8
None
  6
Continuous
 62
     7
370
    50
100
AcDb2dPolyline
 66
     1
 10
0.0
 20
0.0
 30
0.0
 70
     1
  0
VERTEX
  5
3E0
330
3DF
100
AcDbEntity
  8
None
  6
Continuous
 62
     7
370
    50
100
AcDbVertex
100
AcDb2dVertex
 10
-922.4516172644832
 20
203.807980136141
 30
0.0
  0
VERTEX
  5
3E1
330
3DF
100
AcDbEntity
  8
None
  6
Continuous
 62
     7
370
    50
100
AcDbVertex
100
AcDb2dVertex
 10
-922.4516172644832
 20
203.0579801361409
 30
0.0
  0
VERTEX
  5
3E2
330
3DF
100
AcDbEntity
  8
None
  6
Continuous
 62
     7
370
    50
100
AcDbVertex
100
AcDb2dVertex
 10
-929.0766172644829
 20
203.0579801361412
 30
0.0
  0
VERTEX
  5
3E3
330
3DF
100
AcDbEntity
  8
None
  6
Continuous
 62
     7
370
    50
100
AcDbVertex
100
AcDb2dVertex
 10
-934.9516172644832
 20
203.0579801361409
 30
0.0
  0
VERTEX
  5
3E4
330
3DF
100
AcDbEntity
  8
None
  6
Continuous
 62
     7
370
    50
100
AcDbVertex
100
AcDb2dVertex
 10
-934.9516172644832
 20
203.807980136141
 30
0.0
  0
VERTEX
  5
3E5
330
3DF
100
AcDbEntity
  8
None
  6
Continuous
 62
     7
370
    50
100
AcDbVertex
100
AcDb2dVertex
 10
-929.0766172644829
 20
203.807980136141
 30
0.0
  0
VERTEX
  5
3E6
330
3DF
100
AcDbEntity
  8
None
  6
Continuous
 62
     7
370
    50
100
AcDbVertex
100
AcDb2dVertex
 10
-929.0766172644829
 20
226.3079801361407
 30
0.0
  0
VERTEX
  5
3E7
330
3DF
100
AcDbEntity
  8
None
  6
Continuous
 62
     7
370
    50
100
AcDbVertex
100
AcDb2dVertex
 10
-934.9516172644832
 20
226.3079801361407
 30
0.0
  0
VERTEX
  5
3E8
330
3DF
100
AcDbEntity
  8
None
  6
Continuous
 62
     7
370
    50
100
AcDbVertex
100
AcDb2dVertex
 10
-934.9516172644832
 20
227.0579801361409
 30
0.0
  0
VERTEX
  5
3E9
330
3DF
100
AcDbEntity
  8
None
  6
Continuous
 62
     7
370
    50
100
AcDbVertex
100
AcDb2dVertex
 10
-928.3266172644834
 20
227.0579801361411
 30
0.0
  0
VERTEX
  5
3EA
330
3DF
100
AcDbEntity
  8
None
  6
Continuous
 62
     7
370
    50
100
AcDbVertex
100
AcDb2dVertex
 10
-922.4516172644832
 20
227.0579801361409
 30
0.0
  0
VERTEX
  5
3EB
330
3DF
100
AcDbEntity
  8
None
  6
Continuous
 62
     7
370
    50
100
AcDbVertex
100
AcDb2dVertex
 10
-922.4516172644832
 20
226.3079801361407
 30
0.0
  0
VERTEX
  5
3EC
330
3DF
100
AcDbEntity
  8
None
  6
Continuous
 62
     7
370
    50
100
AcDbVertex
100
AcDb2dVertex
 10
-928.3266172644834
 20
226.3079801361407
 30
0.0
  0
VERTEX
  5
3ED
330
3DF
100
AcDbEntity
  8
None
  6
Continuous
 62
     7
370
    50
100
AcDbVertex
100
AcDb2dVertex
 10
-928.3266172644834
 20
203.807980136141
 30
0.0
  0
SEQEND
  5
3EE
330
3DF
100
AcDbEntity
  8
None
  6
Continuous
 62
     7
370
    50
  0
INSERT
  5
3EF
330
69
100
AcDbEntity
  8
None
 62
     7
100
AcDbBlockReference
  2
Group-5-1
 10
0.0
 20
0.0
 30
0.0
  0
LINE
  5
3F0
330
69
100
AcDbEntity
  8
None
  6
Dash Style-2
 62
     7
370
     9
100
AcDbLine
 10
-166.9516172644832
 20
203.0579801361409
 30
0.0
 11
-346.4516172644834
 21
203.0579801361409
 31
0.0
  0
LINE
  5
3F1
330
69
100
AcDbEntity
  8
None
  6
Dash Style-2
 62
     7
370
     9
100
AcDbLine
 10
-74.7016172644829
 20
227.0579801361409
 30
0.0
 11
-346.4516172644834
 21
227.0579801361409
 31
0.0
  0
LINE
  5
3F2
330
69
100
AcDbEntity
  8
None
  6
Dash Style-2
 62
     7
370
     9
100
AcDbLine
 10
-550.9516172644829
 20
227.0579801361409
 30
0.0
 11
-1099.701617264483
 21
227.0579801361409
 31
0.0
  0
LINE
  5
3F3
330
69
100
AcDbEntity
  8
None
  6
Dash Style-2
 62
     7
370
     9
100
AcDbLine
 10
-550.9516172644829
 20
203.0579801361409
 30
0.0
 11
-1099.701617264483
 21
203.0579801361409
 31
0.0
  0
INSERT
  5
3F4
330
69
100
AcDbEntity
  8
None
 62
     7
100
AcDbBlockReference
  2
Group-6-1
 10
0.0
 20
0.0
 30
0.0
  0
INSERT
  5
3F5
330
69
100
AcDbEntity
  8
None
 62
     7
100
AcDbBlockReference
  2
Group-7-1
 10
0.0
 20
0.0
 30
0.0
  0
WIPEOUT
  5
3F6
330
69
100
AcDbEntity
  8
None
  6
Continuous
 62
     7
370
     9
 92
      152
310
98000000040000000C0000000E000000B20000000C00000016000000000000C20C00000014000000010000006C00000007000000040000002E5406D339EB76C063244ABE76F8834000000000000000001C2A83E99C2580C063244ABE76F8834000000000000000001C2A83E99C2580C065244ABE76E0834000000000000000
310
002E5406D339EB76C065244ABE76E083400000000000000000
100
AcDbWipeout
 90
        0
 10
-516.701617264483
 20
636.0579801361423
 30
0.0
 11
150.0000000000006
 21
0.0
 31
0.0
 12
0.0
 22
150.0000000000006
 32
0.0
 13
1.0
 23
1.0
340
0
 70
     4
280
     1
281
    50
282
    50
283
     0
360
0
 71
     2
 91
        5
 14
0.5
 24
0.4800000000000004
 14
-0.5
 24
0.4800000000000004
 14
-0.5
 24
0.4999999999999991
 14
0.5
 24
0.4999999999999991
 14
0.5
 24
0.4800000000000004
  0
POLYLINE
  5
3F7
330
69
100
AcDbEntity
  8
None
  6
Continuous
 62
     7
370
     9
100
AcDb2dPolyline
 66
     1
 10
0.0
 20
0.0
 30
0.0
 70
     1
  0
VERTEX
  5
3F8
330
3F7
100
AcDbEntity
  8
None
  6
Continuous
 62
     7
370
     9
100
AcDbVertex
100
AcDb2dVertex
 10
-366.7016172644825
 20
639.0579801361422
 30
0.0
  0
VERTEX
  5
3F9
330
3F7
100
AcDbEntity
  8
None
  6
Continuous
 62
     7
370
     9
100
AcDbVertex
100
AcDb2dVertex
 10
-516.701617264483
 20
639.0579801361422
 30
0.0
  0
VERTEX
  5
3FA
330
3F7
100
AcDbEntity
  8
None
  6
Continuous
 62
     7
370
     9
100
AcDbVertex
100
AcDb2dVertex
 10
-516.701617264483
 20
636.0579801361423
 30
0.0
  0
VERTEX
  5
3FB
330
3F7
100
AcDbEntity
  8
None
  6
Continuous
 62
     7
370
     9
100
AcDbVertex
100
AcDb2dVertex
 10
-366.7016172644825
 20
636.0579801361423
 30
0.0
  0
SEQEND
  5
3FC
330
3F7
100
AcDbEntity
  8
None
  6
Continuous
 62
     7
370
     9
  0
SOLID
  5
3FD
330
69
100
AcDbEntity
  8
None
  6
Continuous
 62
     7
370
    15
100
AcDbTrace
 10
-323.7016172644832
 20
552.0579801361426
 30
0.0
 11
-369.7016172644829
 21
552.0579801361426
 31
0.0
 12
-323.7016172644832
 22
535.0579801361425
 32
0.0
 13
-369.7016172644829
 23
535.0579801361425
 33
0.0
  0
INSERT
  5
3FE
330
69
100
AcDbEntity
  8
None
 62
     7
100
AcDbBlockReference
  2
Group-8-1
 10
0.0
 20
0.0
 30
0.0
  0
WIPEOUT
  5
3FF
330
69
100
AcDbEntity
  8
None
  6
Continuous
 62
     7
370
     9
 92
      152
310
98000000040000000C0000000E000000B20000000C00000016000000000000C20C00000014000000010000006C0000000700000004000000365406D3391B77C066244ABE7640814000000000000000000713A0C02A3D77C0F8447D477E2F8140000000000000000078F70907C16B7AC02E37B26AC9C6824000000000000000
310
00A7387019D0497AC099167FE1C1D782400000000000000000
100
AcDbWipeout
 90
        0
 10
-422.734625853474
 20
549.9366597925829
 30
0.0
 11
53.03300858899104
 21
0.0
 31
0.0
 12
0.0
 22
53.03300858899104
 32
0.0
 13
1.0
 23
1.0
340
0
 70
     4
280
     1
281
    50
282
    50
283
     0
360
0
 71
     2
 91
        5
 14
0.5
 24
0.4600000000000009
 14
0.4600000000000097
 24
0.5000000000000036
 14
-0.5
 24
-0.4600000000000009
 14
-0.4600000000000088
 24
-0.4999999999999964
 14
0.5
 24
0.4600000000000009
  0
POLYLINE
  5
400
330
69
100
AcDbEntity
  8
None
  6
Continuous
 62
     7
370
     9
100
AcDb2dPolyline
 66
     1
 10
0.0
 20
0.0
 30
0.0
 70
     1
  0
VERTEX
  5
401
330
400
100
AcDbEntity
  8
None
  6
Continuous
 62
     7
370
     9
100
AcDbVertex
100
AcDb2dVertex
 10
-369.7016172644829
 20
552.0579801361426
 30
0.0
  0
VERTEX
  5
402
330
400
100
AcDbEntity
  8
None
  6
Continuous
 62
     7
370
     9
100
AcDbVertex
100
AcDb2dVertex
 10
-371.8229376080421
 20
549.9366597925829
 30
0.0
  0
VERTEX
  5
403
330
400
100
AcDbEntity
  8
None
  6
Continuous
 62
     7
370
     9
100
AcDbVertex
100
AcDb2dVertex
 10
-422.734625853474
 20
600.8483480380145
 30
0.0
  0
VERTEX
  5
404
330
400
100
AcDbEntity
  8
None
  6
Continuous
 62
     7
370
     9
100
AcDbVertex
100
AcDb2dVertex
 10
-420.6133055099148
 20
602.9696683815739
 30
0.0
  0
SEQEND
  5
405
330
400
100
AcDbEntity
  8
None
  6
Continuous
 62
     7
370
     9
  0
ARC
  5
406
330
69
100
AcDbEntity
  8
None
  6
Continuous
 62
     7
370
     9
100
AcDbCircle
 10
-369.6704699012248
 20
552.1381030865684
 30
0.0
 40
72.0311919251272
100
AcDbArc
 50
137.4496210002654
 51
180.0637322210768
  0
WIPEOUT
  5
407
330
69
100
AcDbEntity
  8
None
  6
Continuous
 62
     7
370
     9
 92
      152
310
98000000040000000C0000000E000000B20000000C00000016000000000000C20C00000014000000010000006C0000000700000004000000192A83E99C0D80C068244ABE76408140000000000000000057956CE548F97FC0FA447D477E2F81400000000000000000F0B0029FB2CA7CC03037B26AC9C6824000000000000000
310
00CA6F9C8CA3EC7CC09B167FE1C1D782400000000000000000
100
AcDbWipeout
 90
        0
 10
-513.7016172644826
 20
549.9366597925829
 30
0.0
 11
53.03300858899109
 21
0.0
 31
0.0
 12
0.0
 22
53.03300858899109
 32
0.0
 13
1.0
 23
1.0
340
0
 70
     4
280
     1
281
    50
282
    50
283
     0
360
0
 71
     2
 91
        5
 14
-0.5000000000000036
 24
0.4599999999999955
 14
-0.4600000000000009
 24
0.4999999999999982
 14
0.4999999999999964
 24
-0.4600000000000044
 14
0.4599999999999955
 24
-0.5
 14
-0.5000000000000036
 24
0.4599999999999955
  0
POLYLINE
  5
408
330
69
100
AcDbEntity
  8
None
  6
Continuous
 62
     7
370
     9
100
AcDb2dPolyline
 66
     1
 10
0.0
 20
0.0
 30
0.0
 70
     1
  0
VERTEX
  5
409
330
408
100
AcDbEntity
  8
None
  6
Continuous
 62
     7
370
     9
100
AcDbVertex
100
AcDb2dVertex
 10
-513.7016172644826
 20
552.0579801361426
 30
0.0
  0
VERTEX
  5
40A
330
408
100
AcDbEntity
  8
None
  6
Continuous
 62
     7
370
     9
100
AcDbVertex
100
AcDb2dVertex
 10
-511.5802969209228
 20
549.9366597925829
 30
0.0
  0
VERTEX
  5
40B
330
408
100
AcDbEntity
  8
None
  6
Continuous
 62
     7
370
     9
100
AcDbVertex
100
AcDb2dVertex
 10
-460.6686086754915
 20
600.8483480380145
 30
0.0
  0
VERTEX
  5
40C
330
408
100
AcDbEntity
  8
None
  6
Continuous
 62
     7
370
     9
100
AcDbVertex
100
AcDb2dVertex
 10
-462.7899290190513
 20
602.9696683815739
 30
0.0
  0
SEQEND
  5
40D
330
408
100
AcDbEntity
  8
None
  6
Continuous
 62
     7
370
     9
  0
ARC
  5
40E
330
69
100
AcDbEntity
  8
None
  6
Continuous
 62
     7
370
     9
100
AcDbCircle
 10
-513.7327646277407
 20
552.1381030865684
 30
0.0
 40
72.03119192512787
100
AcDbArc
 50
359.9362677789232
 51
42.55037899973462
  0
WIPEOUT
  5
40F
330
69
100
AcDbEntity
  8
None
  6
Continuous
 62
     7
370
     9
 92
      152
310
98000000040000000C0000000E000000B20000000C00000016000000000000C20C00000014000000010000006C00000007000000040000007670128FD3BA71C0684B3691AC88854000000000000000007970128FD3DA71C0684B3691AC88854000000000000000007970128FD3DA71C0684B3691AC48844000000000000000
310
007670128FD3BA71C0684B3691AC4884400000000000000000
100
AcDbWipeout
 90
        0
 10
-285.6766501159941
 20
649.0842613450777
 30
0.0
 11
40.0
 21
0.0
 31
0.0
 12
0.0
 22
40.0
 32
0.0
 13
1.0
 23
1.0
340
0
 70
     4
280
     1
281
    50
282
    50
283
     0
360
0
 71
     2
 91
        5
 14
-0.4499999999999975
 24
-0.5
 14
-0.5000000000000009
 24
-0.5
 14
-0.5000000000000009
 24
0.5
 14
-0.4499999999999975
 24
0.5
 14
-0.4499999999999975
 24
-0.5
  0
POLYLINE
  5
410
330
69
100
AcDbEntity
  8
None
  6
Continuous
 62
     7
370
     9
100
AcDb2dPolyline
 66
     1
 10
0.0
 20
0.0
 30
0.0
 70
     1
  0
VERTEX
  5
411
330
410
100
AcDbEntity
  8
None
  6
Continuous
 62
     7
370
     9
100
AcDbVertex
100
AcDb2dVertex
 10
-283.676650115994
 20
689.0842613450777
 30
0.0
  0
VERTEX
  5
412
330
410
100
AcDbEntity
  8
None
  6
Continuous
 62
     7
370
     9
100
AcDbVertex
100
AcDb2dVertex
 10
-285.6766501159941
 20
689.0842613450777
 30
0.0
  0
VERTEX
  5
413
330
410
100
AcDbEntity
  8
None
  6
Continuous
 62
     7
370
     9
100
AcDbVertex
100
AcDb2dVertex
 10
-285.6766501159941
 20
649.0842613450777
 30
0.0
  0
VERTEX
  5
414
330
410
100
AcDbEntity
  8
None
  6
Continuous
 62
     7
370
     9
100
AcDbVertex
100
AcDb2dVertex
 10
-283.676650115994
 20
649.0842613450777
 30
0.0
  0
SEQEND
  5
415
330
410
100
AcDbEntity
  8
None
  6
Continuous
 62
     7
370
     9
  0
ARC
  5
416
330
69
100
AcDbEntity
  8
None
  6
Continuous
 62
     7
370
     9
100
AcDbCircle
 10
-283.6516829675049
 20
649.1105425540135
 30
0.0
 40
40.02497577687658
100
AcDbArc
 50
92.89997985795333
 51
180.0376215708189
  0
INSERT
  5
417
330
69
100
AcDbEntity
  8
None
 62
     7
100
AcDbBlockReference
  2
Group-9-1
 10
0.0
 20
0.0
 30
0.0
  0
WIPEOUT
  5
418
330
69
100
AcDbEntity
  8
None
  6
Continuous
 62
     7
370
     9
 92
      152
310
98000000040000000C0000000E000000B20000000C00000016000000000000C20C00000014000000010000006C00000007000000040000003B5406D339BB71C067244ABE768082400000000000000000335406D339DB71C067244ABE768082400000000000000000335406D339DB71C067244ABE7640814000000000000000
310
003B5406D339BB71C067244ABE764081400000000000000000
100
AcDbWipeout
 90
        0
 10
-285.7016172644827
 20
552.0579801361426
 30
0.0
 11
40.0
 21
0.0
 31
0.0
 12
0.0
 22
40.0
 32
0.0
 13
1.0
 23
1.0
340
0
 70
     4
280
     1
281
    50
282
    50
283
     0
360
0
 71
     2
 91
        5
 14
-0.4500000000000126
 24
-0.5
 14
-0.5000000000000018
 24
-0.5
 14
-0.5000000000000018
 24
0.5
 14
-0.4500000000000126
 24
0.5
 14
-0.4500000000000126
 24
-0.5
  0
POLYLINE
  5
419
330
69
100
AcDbEntity
  8
None
  6
Continuous
 62
     7
370
     9
100
AcDb2dPolyline
 66
     1
 10
0.0
 20
0.0
 30
0.0
 70
     1
  0
VERTEX
  5
41A
330
419
100
AcDbEntity
  8
None
  6
Continuous
 62
     7
370
     9
100
AcDbVertex
100
AcDb2dVertex
 10
-283.7016172644832
 20
592.0579801361426
 30
0.0
  0
VERTEX
  5
41B
330
419
100
AcDbEntity
  8
None
  6
Continuous
 62
     7
370
     9
100
AcDbVertex
100
AcDb2dVertex
 10
-285.7016172644827
 20
592.0579801361426
 30
0.0
  0
VERTEX
  5
41C
330
419
100
AcDbEntity
  8
None
  6
Continuous
 62
     7
370
     9
100
AcDbVertex
100
AcDb2dVertex
 10
-285.7016172644827
 20
552.0579801361426
 30
0.0
  0
VERTEX
  5
41D
330
419
100
AcDbEntity
  8
None
  6
Continuous
 62
     7
370
     9
100
AcDbVertex
100
AcDb2dVertex
 10
-283.7016172644832
 20
552.0579801361426
 30
0.0
  0
SEQEND
  5
41E
330
419
100
AcDbEntity
  8
None
  6
Continuous
 62
     7
370
     9
  0
ARC
  5
41F
330
69
100
AcDbEntity
  8
None
  6
Continuous
 62
     7
370
     9
100
AcDbCircle
 10
-283.676650115994
 20
552.0842613450783
 30
0.0
 40
40.02497577687654
100
AcDbArc
 50
92.89997985795249
 51
180.0376215708189
  0
WIPEOUT
  5
420
330
69
100
AcDbEntity
  8
None
  6
Continuous
 62
     7
370
     9
 92
      152
310
98000000040000000C0000000E000000B20000000C00000016000000000000C20C00000014000000010000006C0000000700000004000000D550194CE7AC52C0EA7A4F2397E780400000000000000000D550194CE7AC52C0E87A4F2397FF80400000000000000000FD50194CE7CC5FC0E87A4F2397FF804000000000000000
310
00FD50194CE7CC5FC0EA7A4F2397E780400000000000000000
100
AcDbWipeout
 90
        0
 10
-127.2016172644835
 20
540.9487978181253
 30
0.0
 11
52.50000000000057
 21
0.0
 31
0.0
 12
0.0
 22
52.50000000000057
 32
0.0
 13
1.0
 23
1.0
340
0
 70
     4
280
     1
281
    50
282
    50
283
     0
360
0
 71
     2
 91
        5
 14
0.5000000000000002
 24
0.5
 14
0.5000000000000002
 24
0.4428571428571466
 14
-0.4999999999999998
 24
0.4428571428571466
 14
-0.4999999999999998
 24
0.5
 14
0.5000000000000002
 24
0.5
  0
POLYLINE
  5
421
330
69
100
AcDbEntity
  8
None
  6
Continuous
 62
     7
370
     9
100
AcDb2dPolyline
 66
     1
 10
0.0
 20
0.0
 30
0.0
 70
     1
  0
VERTEX
  5
422
330
421
100
AcDbEntity
  8
None
  6
Continuous
 62
     7
370
     9
100
AcDbVertex
100
AcDb2dVertex
 10
-74.7016172644829
 20
540.9487978181253
 30
0.0
  0
VERTEX
  5
423
330
421
100
AcDbEntity
  8
None
  6
Continuous
 62
     7
370
     9
100
AcDbVertex
100
AcDb2dVertex
 10
-74.7016172644829
 20
543.9487978181252
 30
0.0
  0
VERTEX
  5
424
330
421
100
AcDbEntity
  8
None
  6
Continuous
 62
     7
370
     9
100
AcDbVertex
100
AcDb2dVertex
 10
-127.2016172644835
 20
543.9487978181252
 30
0.0
  0
VERTEX
  5
425
330
421
100
AcDbEntity
  8
None
  6
Continuous
 62
     7
370
     9
100
AcDbVertex
100
AcDb2dVertex
 10
-127.2016172644835
 20
540.9487978181253
 30
0.0
  0
SEQEND
  5
426
330
421
100
AcDbEntity
  8
None
  6
Continuous
 62
     7
370
     9
  0
WIPEOUT
  5
427
330
69
100
AcDbEntity
  8
None
  6
Continuous
 62
     7
370
     9
 92
      152
310
98000000040000000C0000000E000000B20000000C00000016000000000000C20C00000014000000010000006C000000070000000400000062A80CA673F66AC0EA7A4F2397E78040000000000000000077A80CA6736664C0EA7A4F2397E78040000000000000000077A80CA6736664C0E97A4F2397FF804000000000000000
310
0062A80CA673F66AC0E97A4F2397FF80400000000000000000
100
AcDbWipeout
 90
        0
 10
-215.7016172644827
 20
540.9487978181253
 30
0.0
 11
52.49999999999943
 21
0.0
 31
0.0
 12
0.0
 22
52.49999999999943
 32
0.0
 13
1.0
 23
1.0
340
0
 70
     4
280
     1
281
    50
282
    50
283
     0
360
0
 71
     2
 91
        5
 14
-0.4999999999999996
 24
0.5
 14
0.5
 24
0.5
 14
0.5
 24
0.4428571428571448
 14
-0.4999999999999996
 24
0.4428571428571448
 14
-0.4999999999999996
 24
0.5
  0
POLYLINE
  5
428
330
69
100
AcDbEntity
  8
None
  6
Continuous
 62
     7
370
     9
100
AcDb2dPolyline
 66
     1
 10
0.0
 20
0.0
 30
0.0
 70
     1
  0
VERTEX
  5
429
330
428
100
AcDbEntity
  8
None
  6
Continuous
 62
     7
370
     9
100
AcDbVertex
100
AcDb2dVertex
 10
-215.7016172644827
 20
540.9487978181253
 30
0.0
  0
VERTEX
  5
42A
330
428
100
AcDbEntity
  8
None
  6
Continuous
 62
     7
370
     9
100
AcDbVertex
100
AcDb2dVertex
 10
-163.2016172644832
 20
540.9487978181253
 30
0.0
  0
VERTEX
  5
42B
330
428
100
AcDbEntity
  8
None
  6
Continuous
 62
     7
370
     9
100
AcDbVertex
100
AcDb2dVertex
 10
-163.2016172644832
 20
543.9487978181252
 30
0.0
  0
VERTEX
  5
42C
330
428
100
AcDbEntity
  8
None
  6
Continuous
 62
     7
370
     9
100
AcDbVertex
100
AcDb2dVertex
 10
-215.7016172644827
 20
543.9487978181252
 30
0.0
  0
SEQEND
  5
42D
330
428
100
AcDbEntity
  8
None
  6
Continuous
 62
     7
370
     9
  0
WIPEOUT
  5
42E
330
69
100
AcDbEntity
  8
None
  6
Continuous
 62
     7
370
     9
 92
      176
310
B0000000040000000C0000000E000000B20000000C00000016000000000000C20C00000014000000010000008400000007000000050000000E95C174CE2E91C0C648947CED607D4000000000000000000E95C174CED690C0C648947CED607D4000000000000000000E95C174CED690C0C448947CED907D4000000000000000
310
000D95C174CEE290C0C448947CED907D4000000000000000000E95C174CE2E91C0C448947CED907D400000000000000000
100
AcDbWipeout
 90
        0
 10
-1099.701617264483
 20
470.0579801361422
 30
0.0
 11
22.00000000000023
 21
0.0
 31
0.0
 12
0.0
 22
22.00000000000023
 32
0.0
 13
1.0
 23
1.0
340
0
 70
     4
280
     1
281
    50
282
    50
283
     0
360
0
 71
     2
 91
        6
 14
-0.5
 24
0.5
 14
0.5
 24
0.5
 14
0.5
 24
0.3636363636363704
 14
0.3636363636363669
 24
0.3636363636363704
 14
-0.5
 24
0.3636363636363704
 14
-0.5
 24
0.5
  0
POLYLINE
  5
42F
330
69
100
AcDbEntity
  8
None
  6
Continuous
 62
     7
370
     9
100
AcDb2dPolyline
 66
     1
 10
0.0
 20
0.0
 30
0.0
 70
     1
  0
VERTEX
  5
430
330
42F
100
AcDbEntity
  8
None
  6
Continuous
 62
     7
370
     9
100
AcDbVertex
100
AcDb2dVertex
 10
-1099.701617264483
 20
470.0579801361422
 30
0.0
  0
VERTEX
  5
431
330
42F
100
AcDbEntity
  8
None
  6
Continuous
 62
     7
370
     9
100
AcDbVertex
100
AcDb2dVertex
 10
-1077.701617264483
 20
470.0579801361422
 30
0.0
  0
VERTEX
  5
432
330
42F
100
AcDbEntity
  8
None
  6
Continuous
 62
     7
370
     9
100
AcDbVertex
100
AcDb2dVertex
 10
-1077.701617264483
 20
473.0579801361421
 30
0.0
  0
VERTEX
  5
433
330
42F
100
AcDbEntity
  8
None
  6
Continuous
 62
     7
370
     9
100
AcDbVertex
100
AcDb2dVertex
 10
-1080.701617264483
 20
473.0579801361421
 30
0.0
  0
VERTEX
  5
434
330
42F
100
AcDbEntity
  8
None
  6
Continuous
 62
     7
370
     9
100
AcDbVertex
100
AcDb2dVertex
 10
-1099.701617264483
 20
473.0579801361421
 30
0.0
  0
SEQEND
  5
435
330
42F
100
AcDbEntity
  8
None
  6
Continuous
 62
     7
370
     9
  0
WIPEOUT
  5
436
330
69
100
AcDbEntity
  8
None
  6
Continuous
 62
     7
370
     9
 92
      200
310
C8000000040000000C0000000E000000B20000000C00000016000000000000C20C00000014000000010000009C00000007000000060000000E95C174CEE290C065244ABE7698814000000000000000000E95C174CEE290C0C448947CEDD07F4000000000000000000D95C174CED690C0C448947CEDD07F4000000000000000
310
000D95C174CED690C064244ABE76B0814000000000000000000E95C174CE2E91C064244ABE76B0814000000000000000000E95C174CE2E91C065244ABE769881400000000000000000
100
AcDbWipeout
 90
        0
 10
-1099.701617264483
 20
509.0579801361421
 30
0.0
 11
57.00000000000017
 21
0.0
 31
0.0
 12
0.0
 22
57.00000000000017
 32
0.0
 13
1.0
 23
1.0
340
0
 70
     4
280
     1
281
    50
282
    50
283
     0
360
0
 71
     2
 91
        7
 14
-0.1666666666666643
 24
-0.4473684210526336
 14
-0.1666666666666643
 24
0.5
 14
-0.1140350877192944
 24
0.5
 14
-0.1140350877192944
 24
-0.5
 14
-0.5
 24
-0.5
 14
-0.5
 24
-0.4473684210526336
 14
-0.1666666666666643
 24
-0.4473684210526336
  0
POLYLINE
  5
437
330
69
100
AcDbEntity
  8
None
  6
Continuous
 62
     7
370
     9
100
AcDb2dPolyline
 66
     1
 10
0.0
 20
0.0
 30
0.0
 70
     1
  0
VERTEX
  5
438
330
437
100
AcDbEntity
  8
None
  6
Continuous
 62
     7
370
     9
100
AcDbVertex
100
AcDb2dVertex
 10
-1080.701617264483
 20
563.0579801361424
 30
0.0
  0
VERTEX
  5
439
330
437
100
AcDbEntity
  8
None
  6
Continuous
 62
     7
370
     9
100
AcDbVertex
100
AcDb2dVertex
 10
-1080.701617264483
 20
509.0579801361421
 30
0.0
  0
VERTEX
  5
43A
330
437
100
AcDbEntity
  8
None
  6
Continuous
 62
     7
370
     9
100
AcDbVertex
100
AcDb2dVertex
 10
-1077.701617264483
 20
509.0579801361421
 30
0.0
  0
VERTEX
  5
43B
330
437
100
AcDbEntity
  8
None
  6
Continuous
 62
     7
370
     9
100
AcDbVertex
100
AcDb2dVertex
 10
-1077.701617264483
 20
566.0579801361423
 30
0.0
  0
VERTEX
  5
43C
330
437
100
AcDbEntity
  8
None
  6
Continuous
 62
     7
370
     9
100
AcDbVertex
100
AcDb2dVertex
 10
-1099.701617264483
 20
566.0579801361423
 30
0.0
  0
VERTEX
  5
43D
330
437
100
AcDbEntity
  8
None
  6
Continuous
 62
     7
370
     9
100
AcDbVertex
100
AcDb2dVertex
 10
-1099.701617264483
 20
563.0579801361424
 30
0.0
  0
SEQEND
  5
43E
330
437
100
AcDbEntity
  8
None
  6
Continuous
 62
     7
370
     9
  0
WIPEOUT
  5
43F
330
69
100
AcDbEntity
  8
None
  6
Continuous
 62
     7
370
     9
 92
      152
310
98000000040000000C0000000E000000B20000000C00000016000000000000C20C00000014000000010000006C00000007000000040000000E95C174CED690C0C648947CED907D400000000000000000C40428B04ADF90C0A1072E6ADEB27D40000000000000000036C85AE7777990C0CFF9628D294A7F4000000000000000
310
008058F4ABFB7090C0FE3AC99F38287F400000000000000000
100
AcDbWipeout
 90
        0
 10
-1079.822937608043
 20
473.0579801361421
 30
0.0
 11
27.57716446627569
 21
0.0
 31
0.0
 12
0.0
 22
27.57716446627569
 32
0.0
 13
1.0
 23
1.0
340
0
 70
     4
280
     1
281
    50
282
    50
283
     0
360
0
 71
     2
 91
        5
 14
-0.4230769230769198
 24
0.4999999999999964
 14
-0.5
 24
0.4230769230769162
 14
0.4230769230769198
 24
-0.4999999999999822
 14
0.5
 24
-0.4230769230769234
 14
-0.4230769230769198
 24
0.4999999999999964
  0
POLYLINE
  5
440
330
69
100
AcDbEntity
  8
None
  6
Continuous
 62
     7
370
     9
100
AcDb2dPolyline
 66
     1
 10
0.0
 20
0.0
 30
0.0
 70
     1
  0
VERTEX
  5
441
330
440
100
AcDbEntity
  8
None
  6
Continuous
 62
     7
370
     9
100
AcDbVertex
100
AcDb2dVertex
 10
-1077.701617264483
 20
473.0579801361421
 30
0.0
  0
VERTEX
  5
442
330
440
100
AcDbEntity
  8
None
  6
Continuous
 62
     7
370
     9
100
AcDbVertex
100
AcDb2dVertex
 10
-1079.822937608043
 20
475.1793004797019
 30
0.0
  0
VERTEX
  5
443
330
440
100
AcDbEntity
  8
None
  6
Continuous
 62
     7
370
     9
100
AcDbVertex
100
AcDb2dVertex
 10
-1054.367093485327
 20
500.6351446024172
 30
0.0
  0
VERTEX
  5
444
330
440
100
AcDbEntity
  8
None
  6
Continuous
 62
     7
370
     9
100
AcDbVertex
100
AcDb2dVertex
 10
-1052.245773141767
 20
498.513824258858
 30
0.0
  0
SEQEND
  5
445
330
440
100
AcDbEntity
  8
None
  6
Continuous
 62
     7
370
     9
  0
ARC
  5
446
330
69
100
AcDbEntity
  8
None
  6
Continuous
 62
     7
370
     9
100
AcDbCircle
 10
-1077.428960999055
 20
473.2790819375164
 30
0.0
 40
35.7799370841641
100
AcDbArc
 50
49.86824605994357
 51
90.43661911504967
  0
INSERT
  5
447
330
69
100
AcDbEntity
  8
None
 62
     7
100
AcDbBlockReference
  2
Group-10-1
 10
0.0
 20
0.0
 30
0.0
  0
WIPEOUT
  5
448
330
69
100
AcDbEntity
  8
None
  6
Continuous
 62
     7
370
     9
 92
      152
310
98000000040000000C0000000E000000B20000000C00000016000000000000C20C00000014000000010000006C0000000700000004000000940AAAC7EB5863C098141D3E44BA8140000000000000000038264081552A60C07C9B82AC9EEE80400000000000000000FF50194CE7CC5FC0EA7A4F2397FF804000000000000000
310
00F08C76EC091563C003F4E9B43CCB81400000000000000000
100
AcDbWipeout
 90
        0
 10
-154.7787817307586
 20
541.8274774745654
 30
0.0
 11
27.57716446627535
 21
0.0
 31
0.0
 12
0.0
 22
27.57716446627535
 32
0.0
 13
1.0
 23
1.0
340
0
 70
     4
280
     1
281
    50
282
    50
283
     0
360
0
 71
     2
 91
        5
 14
-0.5000000000000009
 24
-0.4230769230769376
 14
0.4230769230769091
 24
0.4999999999999929
 14
0.4999999999999911
 24
0.4230769230769127
 14
-0.4230769230769402
 24
-0.5000000000000071
 14
-0.5000000000000009
 24
-0.4230769230769376
  0
POLYLINE
  5
449
330
69
100
AcDbEntity
  8
None
  6
Continuous
 62
     7
370
     9
100
AcDb2dPolyline
 66
     1
 10
0.0
 20
0.0
 30
0.0
 70
     1
  0
VERTEX
  5
44A
330
449
100
AcDbEntity
  8
None
  6
Continuous
 62
     7
370
     9
100
AcDbVertex
100
AcDb2dVertex
 10
-154.7787817307586
 20
567.2833215972813
 30
0.0
  0
VERTEX
  5
44B
330
449
100
AcDbEntity
  8
None
  6
Continuous
 62
     7
370
     9
100
AcDbVertex
100
AcDb2dVertex
 10
-129.3229376080432
 20
541.8274774745654
 30
0.0
  0
VERTEX
  5
44C
330
449
100
AcDbEntity
  8
None
  6
Continuous
 62
     7
370
     9
100
AcDbVertex
100
AcDb2dVertex
 10
-127.2016172644835
 20
543.9487978181252
 30
0.0
  0
VERTEX
  5
44D
330
449
100
AcDbEntity
  8
None
  6
Continuous
 62
     7
370
     9
100
AcDbVertex
100
AcDb2dVertex
 10
-152.6574613871994
 20
569.4046419408407
 30
0.0
  0
SEQEND
  5
44E
330
449
100
AcDbEntity
  8
None
  6
Continuous
 62
     7
370
     9
  0
ARC
  5
44F
330
69
100
AcDbEntity
  8
None
  6
Continuous
 62
     7
370
     9
100
AcDbCircle
 10
-127.1400312385497
 20
544.1194150147763
 30
0.0
 40
36.06198964191523
100
AcDbArc
 50
140.0337852415726
 51
180.2710799334226
  0
ARC
  5
450
330
69
100
AcDbEntity
  8
None
  6
Continuous
 62
     7
370
     9
100
AcDbCircle
 10
-74.73098104914845
 20
145.0857125994377
 30
0.0
 40
36.02774442951789
100
AcDbArc
 50
183.226456152381
 51
270.0466979308522
  0
ENDBLK
  5
6B
330
69
100
AcDbEntity
  8
0
100
AcDbBlockEnd
  0
BLOCK
  5
6D
330
6C
100
AcDbEntity
  8
0
100
AcDbBlockBegin
  2
Group-12-1
 70
     0
 10
0.0
 20
0.0
 30
0.0
  3
Group-12-1
  1

  0
LINE
  5
451
330
6C
100
AcDbEntity
  8
None
  6
Dash Style-3
 62
     7
370
    15
100
AcDbLine
 10
43.29838273551727
 20
649.0579801361422
 30
0.0
 11
43.29838273551727
 21
622.0579801361426
 31
0.0
  0
LINE
  5
452
330
6C
100
AcDbEntity
  8
None
  6
Dash Style-3
 62
     7
370
    15
100
AcDbLine
 10
599.9999999999999
 20
649.0579801361422
 30
0.0
 11
43.29838273551727
 21
649.0579801361422
 31
0.0
  0
LINE
  5
453
330
6C
100
AcDbEntity
  8
None
  6
Dash Style-3
 62
     7
370
    15
100
AcDbLine
 10
43.29838273551727
 20
622.0579801361426
 30
0.0
 11
599.9999999999999
 21
622.0579801361426
 31
0.0
  0
LINE
  5
454
330
6C
100
AcDbEntity
  8
None
  6
Dash Style-3
 62
     7
370
    15
100
AcDbLine
 10
43.29838273551727
 20
-583.9420198638575
 30
0.0
 11
43.29838273551727
 21
-610.9420198638577
 31
0.0
  0
LINE
  5
455
330
6C
100
AcDbEntity
  8
None
  6
Dash Style-3
 62
     7
370
    15
100
AcDbLine
 10
599.9999999999999
 20
-583.9420198638575
 30
0.0
 11
43.29838273551727
 21
-583.9420198638575
 31
0.0
  0
LINE
  5
456
330
6C
100
AcDbEntity
  8
None
  6
Dash Style-3
 62
     7
370
    15
100
AcDbLine
 10
43.29838273551727
 20
-610.9420198638577
 30
0.0
 11
599.9999999999999
 21
-610.9420198638577
 31
0.0
  0
ENDBLK
  5
6E
330
6C
100
AcDbEntity
  8
0
100
AcDbBlockEnd
  0
BLOCK
  5
70
330
6F
100
AcDbEntity
  8
0
100
AcDbBlockBegin
  2
Group-13-1
 70
     0
 10
0.0
 20
0.0
 30
0.0
  3
Group-13-1
  1

  0
WIPEOUT
  5
457
330
6F
100
AcDbEntity
  8
None
  6
Continuous
 62
     7
370
    15
 92
      152
310
98000000040000000C0000000E000000B20000000C00000016000000000000C20C00000014000000010000006C000000070000000400000024FE471A489691C0386D9BCEC0E185C0000000000000000024FE471A486691C0386D9BCEC0E185C0000000000000000024FE471A486691C0396D9BCEC01186C000000000000000
310
0024FE471A489691C0396D9BCEC01186C00000000000000000
100
AcDbWipeout
 90
        0
 10
-1125.570412754904
 20
-706.2191440718371
 30
0.0
 11
12.00000000000023
 21
0.0
 31
0.0
 12
0.0
 22
12.00000000000023
 32
0.0
 13
1.0
 23
1.0
340
0
 70
     4
280
     1
281
    50
282
    50
283
     0
360
0
 71
     2
 91
        5
 14
-0.5
 24
0.0
 14
0.5
 24
0.0
 14
0.5
 24
0.5
 14
-0.5
 24
0.5
 14
-0.5
 24
0.0
  0
POLYLINE
  5
458
330
6F
100
AcDbEntity
  8
None
  6
Continuous
 62
     7
370
    15
100
AcDb2dPolyline
 66
     1
 10
0.0
 20
0.0
 30
0.0
 70
     1
  0
VERTEX
  5
459
330
458
100
AcDbEntity
  8
None
  6
Continuous
 62
     7
370
    15
100
AcDbVertex
100
AcDb2dVertex
 10
-1125.570412754904
 20
-700.219144071837
 30
0.0
  0
VERTEX
  5
45A
330
458
100
AcDbEntity
  8
None
  6
Continuous
 62
     7
370
    15
100
AcDbVertex
100
AcDb2dVertex
 10
-1113.570412754904
 20
-700.219144071837
 30
0.0
  0
VERTEX
  5
45B
330
458
100
AcDbEntity
  8
None
  6
Continuous
 62
     7
370
    15
100
AcDbVertex
100
AcDb2dVertex
 10
-1113.570412754904
 20
-706.2191440718371
 30
0.0
  0
VERTEX
  5
45C
330
458
100
AcDbEntity
  8
None
  6
Continuous
 62
     7
370
    15
100
AcDbVertex
100
AcDb2dVertex
 10
-1125.570412754904
 20
-706.2191440718371
 30
0.0
  0
SEQEND
  5
45D
330
458
100
AcDbEntity
  8
None
  6
Continuous
 62
     7
370
    15
  0
WIPEOUT
  5
45E
330
6F
100
AcDbEntity
  8
None
  6
Continuous
 62
     7
370
    15
 92
      152
310
98000000040000000C0000000E000000B20000000C00000016000000000000C20C00000014000000010000006C000000070000000400000021FE471A486691C0396D9BCEC01186C0000000000000000023FE471A483691C0396D9BCEC01186C0000000000000000023FE471A483691C0386D9BCEC04186C000000000000000
310
0021FE471A486691C0386D9BCEC04186C00000000000000000
100
AcDbWipeout
 90
        0
 10
-1113.570412754904
 20
-712.219144071837
 30
0.0
 11
11.99999999999955
 21
0.0
 31
0.0
 12
0.0
 22
11.99999999999955
 32
0.0
 13
1.0
 23
1.0
340
0
 70
     4
280
     1
281
    50
282
    50
283
     0
360
0
 71
     2
 91
        5
 14
-0.5
 24
-0.0000000000000071
 14
0.5
 24
-0.0000000000000071
 14
0.5
 24
0.5
 14
-0.5
 24
0.5
 14
-0.5
 24
-0.0000000000000071
  0
POLYLINE
  5
45F
330
6F
100
AcDbEntity
  8
None
  6
Continuous
 62
     7
370
    15
100
AcDb2dPolyline
 66
     1
 10
0.0
 20
0.0
 30
0.0
 70
     1
  0
VERTEX
  5
460
330
45F
100
AcDbEntity
  8
None
  6
Continuous
 62
     7
370
    15
100
AcDbVertex
100
AcDb2dVertex
 10
-1113.570412754904
 20
-706.2191440718371
 30
0.0
  0
VERTEX
  5
461
330
45F
100
AcDbEntity
  8
None
  6
Continuous
 62
     7
370
    15
100
AcDbVertex
100
AcDb2dVertex
 10
-1101.570412754904
 20
-706.2191440718371
 30
0.0
  0
VERTEX
  5
462
330
45F
100
AcDbEntity
  8
None
  6
Continuous
 62
     7
370
    15
100
AcDbVertex
100
AcDb2dVertex
 10
-1101.570412754904
 20
-712.219144071837
 30
0.0
  0
VERTEX
  5
463
330
45F
100
AcDbEntity
  8
None
  6
Continuous
 62
     7
370
    15
100
AcDbVertex
100
AcDb2dVertex
 10
-1113.570412754904
 20
-712.219144071837
 30
0.0
  0
SEQEND
  5
464
330
45F
100
AcDbEntity
  8
None
  6
Continuous
 62
     7
370
    15
  0
WIPEOUT
  5
465
330
6F
100
AcDbEntity
  8
None
  6
Continuous
 62
     7
370
    15
 92
      152
310
98000000040000000C0000000E000000B20000000C00000016000000000000C20C00000014000000010000006C000000070000000400000022FE471A483691C0386D9BCEC0E185C0000000000000000022FE471A480691C0386D9BCEC0E185C0000000000000000022FE471A480691C0396D9BCEC01186C000000000000000
310
0022FE471A483691C0396D9BCEC01186C00000000000000000
100
AcDbWipeout
 90
        0
 10
-1101.570412754904
 20
-706.2191440718371
 30
0.0
 11
12.00000000000023
 21
0.0
 31
0.0
 12
0.0
 22
12.00000000000023
 32
0.0
 13
1.0
 23
1.0
340
0
 70
     4
280
     1
281
    50
282
    50
283
     0
360
0
 71
     2
 91
        5
 14
-0.5
 24
0.0
 14
0.5
 24
0.0
 14
0.5
 24
0.5
 14
-0.5
 24
0.5
 14
-0.5
 24
0.0
  0
POLYLINE
  5
466
330
6F
100
AcDbEntity
  8
None
  6
Continuous
 62
     7
370
    15
100
AcDb2dPolyline
 66
     1
 10
0.0
 20
0.0
 30
0.0
 70
     1
  0
VERTEX
  5
467
330
466
100
AcDbEntity
  8
None
  6
Continuous
 62
     7
370
    15
100
AcDbVertex
100
AcDb2dVertex
 10
-1101.570412754904
 20
-700.219144071837
 30
0.0
  0
VERTEX
  5
468
330
466
100
AcDbEntity
  8
None
  6
Continuous
 62
     7
370
    15
100
AcDbVertex
100
AcDb2dVertex
 10
-1089.570412754904
 20
-700.219144071837
 30
0.0
  0
VERTEX
  5
469
330
466
100
AcDbEntity
  8
None
  6
Continuous
 62
     7
370
    15
100
AcDbVertex
100
AcDb2dVertex
 10
-1089.570412754904
 20
-706.2191440718371
 30
0.0
  0
VERTEX
  5
46A
330
466
100
AcDbEntity
  8
None
  6
Continuous
 62
     7
370
    15
100
AcDbVertex
100
AcDb2dVertex
 10
-1101.570412754904
 20
-706.2191440718371
 30
0.0
  0
SEQEND
  5
46B
330
466
100
AcDbEntity
  8
None
  6
Continuous
 62
     7
370
    15
  0
WIPEOUT
  5
46C
330
6F
100
AcDbEntity
  8
None
  6
Continuous
 62
     7
370
    15
 92
      152
310
98000000040000000C0000000E000000B20000000C00000016000000000000C20C00000014000000010000006C000000070000000400000022FE471A480691C0396D9BCEC01186C0000000000000000022FE471A48D690C0396D9BCEC01186C0000000000000000022FE471A48D690C0386D9BCEC04186C000000000000000
310
0022FE471A480691C0386D9BCEC04186C00000000000000000
100
AcDbWipeout
 90
        0
 10
-1089.570412754904
 20
-712.219144071837
 30
0.0
 11
12.0
 21
0.0
 31
0.0
 12
0.0
 22
12.0
 32
0.0
 13
1.0
 23
1.0
340
0
 70
     4
280
     1
281
    50
282
    50
283
     0
360
0
 71
     2
 91
        5
 14
-0.5
 24
0.0000000000000071
 14
0.5
 24
0.0000000000000071
 14
0.5
 24
0.5
 14
-0.5
 24
0.5
 14
-0.5
 24
0.0000000000000071
  0
POLYLINE
  5
46D
330
6F
100
AcDbEntity
  8
None
  6
Continuous
 62
     7
370
    15
100
AcDb2dPolyline
 66
     1
 10
0.0
 20
0.0
 30
0.0
 70
     1
  0
VERTEX
  5
46E
330
46D
100
AcDbEntity
  8
None
  6
Continuous
 62
     7
370
    15
100
AcDbVertex
100
AcDb2dVertex
 10
-1089.570412754904
 20
-706.2191440718371
 30
0.0
  0
VERTEX
  5
46F
330
46D
100
AcDbEntity
  8
None
  6
Continuous
 62
     7
370
    15
100
AcDbVertex
100
AcDb2dVertex
 10
-1077.570412754904
 20
-706.2191440718371
 30
0.0
  0
VERTEX
  5
470
330
46D
100
AcDbEntity
  8
None
  6
Continuous
 62
     7
370
    15
100
AcDbVertex
100
AcDb2dVertex
 10
-1077.570412754904
 20
-712.219144071837
 30
0.0
  0
VERTEX
  5
471
330
46D
100
AcDbEntity
  8
None
  6
Continuous
 62
     7
370
    15
100
AcDbVertex
100
AcDb2dVertex
 10
-1089.570412754904
 20
-712.219144071837
 30
0.0
  0
SEQEND
  5
472
330
46D
100
AcDbEntity
  8
None
  6
Continuous
 62
     7
370
    15
  0
WIPEOUT
  5
473
330
6F
100
AcDbEntity
  8
None
  6
Continuous
 62
     7
370
    15
 92
      152
310
98000000040000000C0000000E000000B20000000C00000016000000000000C20C00000014000000010000006C000000070000000400000022FE471A48D690C0386D9BCEC0E185C0000000000000000022FE471A48A690C0386D9BCEC0E185C0000000000000000022FE471A48A690C0396D9BCEC01186C000000000000000
310
0022FE471A48D690C0396D9BCEC01186C00000000000000000
100
AcDbWipeout
 90
        0
 10
-1077.570412754904
 20
-706.2191440718371
 30
0.0
 11
12.00000000000023
 21
0.0
 31
0.0
 12
0.0
 22
12.00000000000023
 32
0.0
 13
1.0
 23
1.0
340
0
 70
     4
280
     1
281
    50
282
    50
283
     0
360
0
 71
     2
 91
        5
 14
-0.5
 24
0.0
 14
0.5
 24
0.0
 14
0.5
 24
0.5
 14
-0.5
 24
0.5
 14
-0.5
 24
0.0
  0
POLYLINE
  5
474
330
6F
100
AcDbEntity
  8
None
  6
Continuous
 62
     7
370
    15
100
AcDb2dPolyline
 66
     1
 10
0.0
 20
0.0
 30
0.0
 70
     1
  0
VERTEX
  5
475
330
474
100
AcDbEntity
  8
None
  6
Continuous
 62
     7
370
    15
100
AcDbVertex
100
AcDb2dVertex
 10
-1077.570412754904
 20
-700.219144071837
 30
0.0
  0
VERTEX
  5
476
330
474
100
AcDbEntity
  8
None
  6
Continuous
 62
     7
370
    15
100
AcDbVertex
100
AcDb2dVertex
 10
-1065.570412754904
 20
-700.219144071837
 30
0.0
  0
VERTEX
  5
477
330
474
100
AcDbEntity
  8
None
  6
Continuous
 62
     7
370
    15
100
AcDbVertex
100
AcDb2dVertex
 10
-1065.570412754904
 20
-706.2191440718371
 30
0.0
  0
VERTEX
  5
478
330
474
100
AcDbEntity
  8
None
  6
Continuous
 62
     7
370
    15
100
AcDbVertex
100
AcDb2dVertex
 10
-1077.570412754904
 20
-706.2191440718371
 30
0.0
  0
SEQEND
  5
479
330
474
100
AcDbEntity
  8
None
  6
Continuous
 62
     7
370
    15
  0
WIPEOUT
  5
47A
330
6F
100
AcDbEntity
  8
None
  6
Continuous
 62
     7
370
    15
 92
      152
310
98000000040000000C0000000E000000B20000000C00000016000000000000C20C00000014000000010000006C000000070000000400000023FE471A48A690C03A6D9BCEC01186C0000000000000000046FC8F34906C8FC03A6D9BCEC01186C0000000000000000046FC8F34906C8FC0386D9BCEC04186C000000000000000
310
0023FE471A48A690C0386D9BCEC04186C00000000000000000
100
AcDbWipeout
 90
        0
 10
-1065.570412754904
 20
-712.219144071837
 30
0.0
 11
60.00000000000011
 21
0.0
 31
0.0
 12
0.0
 22
60.00000000000011
 32
0.0
 13
1.0
 23
1.0
340
0
 70
     4
280
     1
281
    50
282
    50
283
     0
360
0
 71
     2
 91
        5
 14
-0.4999999999999964
 24
0.4000000000000021
 14
0.5000000000000036
 24
0.4000000000000021
 14
0.5000000000000036
 24
0.5
 14
-0.4999999999999964
 24
0.5
 14
-0.4999999999999964
 24
0.4000000000000021
  0
POLYLINE
  5
47B
330
6F
100
AcDbEntity
  8
None
  6
Continuous
 62
     7
370
    15
100
AcDb2dPolyline
 66
     1
 10
0.0
 20
0.0
 30
0.0
 70
     1
  0
VERTEX
  5
47C
330
47B
100
AcDbEntity
  8
None
  6
Continuous
 62
     7
370
    15
100
AcDbVertex
100
AcDb2dVertex
 10
-1065.570412754904
 20
-706.2191440718371
 30
0.0
  0
VERTEX
  5
47D
330
47B
100
AcDbEntity
  8
None
  6
Continuous
 62
     7
370
    15
100
AcDbVertex
100
AcDb2dVertex
 10
-1005.570412754904
 20
-706.2191440718371
 30
0.0
  0
VERTEX
  5
47E
330
47B
100
AcDbEntity
  8
None
  6
Continuous
 62
     7
370
    15
100
AcDbVertex
100
AcDb2dVertex
 10
-1005.570412754904
 20
-712.219144071837
 30
0.0
  0
VERTEX
  5
47F
330
47B
100
AcDbEntity
  8
None
  6
Continuous
 62
     7
370
    15
100
AcDbVertex
100
AcDb2dVertex
 10
-1065.570412754904
 20
-712.219144071837
 30
0.0
  0
SEQEND
  5
480
330
47B
100
AcDbEntity
  8
None
  6
Continuous
 62
     7
370
    15
  0
WIPEOUT
  5
481
330
6F
100
AcDbEntity
  8
None
  6
Continuous
 62
     7
370
    15
 92
      152
310
98000000040000000C0000000E000000B20000000C00000016000000000000C20C00000014000000010000006C000000070000000400000047FC8F34906C8FC0396D9BCEC0E185C0000000000000000048FC8F3490AC8BC0396D9BCEC0E185C0000000000000000048FC8F3490AC8BC03A6D9BCEC01186C000000000000000
310
0047FC8F34906C8FC03A6D9BCEC01186C00000000000000000
100
AcDbWipeout
 90
        0
 10
-1005.570412754904
 20
-706.2191440718371
 30
0.0
 11
119.9999999999999
 21
0.0
 31
0.0
 12
0.0
 22
119.9999999999999
 32
0.0
 13
1.0
 23
1.0
340
0
 70
     4
280
     1
281
    50
282
    50
283
     0
360
0
 71
     2
 91
        5
 14
-0.4999999999999991
 24
0.4499999999999993
 14
0.5000000000000009
 24
0.4499999999999993
 14
0.5000000000000009
 24
0.5
 14
-0.4999999999999991
 24
0.5
 14
-0.4999999999999991
 24
0.4499999999999993
  0
POLYLINE
  5
482
330
6F
100
AcDbEntity
  8
None
  6
Continuous
 62
     7
370
    15
100
AcDb2dPolyline
 66
     1
 10
0.0
 20
0.0
 30
0.0
 70
     1
  0
VERTEX
  5
483
330
482
100
AcDbEntity
  8
None
  6
Continuous
 62
     7
370
    15
100
AcDbVertex
100
AcDb2dVertex
 10
-1005.570412754904
 20
-700.219144071837
 30
0.0
  0
VERTEX
  5
484
330
482
100
AcDbEntity
  8
None
  6
Continuous
 62
     7
370
    15
100
AcDbVertex
100
AcDb2dVertex
 10
-885.5704127549043
 20
-700.219144071837
 30
0.0
  0
VERTEX
  5
485
330
482
100
AcDbEntity
  8
None
  6
Continuous
 62
     7
370
    15
100
AcDbVertex
100
AcDb2dVertex
 10
-885.5704127549043
 20
-706.2191440718371
 30
0.0
  0
VERTEX
  5
486
330
482
100
AcDbEntity
  8
None
  6
Continuous
 62
     7
370
    15
100
AcDbVertex
100
AcDb2dVertex
 10
-1005.570412754904
 20
-706.2191440718371
 30
0.0
  0
SEQEND
  5
487
330
482
100
AcDbEntity
  8
None
  6
Continuous
 62
     7
370
    15
  0
WIPEOUT
  5
488
330
6F
100
AcDbEntity
  8
None
  6
Continuous
 62
     7
370
    15
 92
      152
310
98000000040000000C0000000E000000B20000000C00000016000000000000C20C00000014000000010000006C000000070000000400000048FC8F3490AC8BC03A6D9BCEC01186C000000000000000004BFC8F34902C84C03A6D9BCEC01186C000000000000000004BFC8F34902C84C0386D9BCEC04186C000000000000000
310
0048FC8F3490AC8BC0386D9BCEC04186C00000000000000000
100
AcDbWipeout
 90
        0
 10
-885.5704127549043
 20
-712.219144071837
 30
0.0
 11
239.9999999999997
 21
0.0
 31
0.0
 12
0.0
 22
239.9999999999997
 32
0.0
 13
1.0
 23
1.0
340
0
 70
     4
280
     1
281
    50
282
    50
283
     0
360
0
 71
     2
 91
        5
 14
-0.4999999999999996
 24
0.4750000000000005
 14
0.5000000000000004
 24
0.4750000000000005
 14
0.5000000000000004
 24
0.5
 14
-0.4999999999999996
 24
0.5
 14
-0.4999999999999996
 24
0.4750000000000005
  0
POLYLINE
  5
489
330
6F
100
AcDbEntity
  8
None
  6
Continuous
 62
     7
370
    15
100
AcDb2dPolyline
 66
     1
 10
0.0
 20
0.0
 30
0.0
 70
     1
  0
VERTEX
  5
48A
330
489
100
AcDbEntity
  8
None
  6
Continuous
 62
     7
370
    15
100
AcDbVertex
100
AcDb2dVertex
 10
-885.5704127549043
 20
-706.2191440718371
 30
0.0
  0
VERTEX
  5
48B
330
489
100
AcDbEntity
  8
None
  6
Continuous
 62
     7
370
    15
100
AcDbVertex
100
AcDb2dVertex
 10
-645.5704127549046
 20
-706.2191440718371
 30
0.0
  0
VERTEX
  5
48C
330
489
100
AcDbEntity
  8
None
  6
Continuous
 62
     7
370
    15
100
AcDbVertex
100
AcDb2dVertex
 10
-645.5704127549046
 20
-712.219144071837
 30
0.0
  0
VERTEX
  5
48D
330
489
100
AcDbEntity
  8
None
  6
Continuous
 62
     7
370
    15
100
AcDbVertex
100
AcDb2dVertex
 10
-885.5704127549043
 20
-712.219144071837
 30
0.0
  0
SEQEND
  5
48E
330
489
100
AcDbEntity
  8
None
  6
Continuous
 62
     7
370
    15
  0
LINE
  5
48F
330
6F
100
AcDbEntity
  8
None
  6
Continuous
 62
     7
370
    15
100
AcDbLine
 10
-1125.570412754904
 20
-700.219144071837
 30
0.0
 11
-1125.570412754904
 21
-712.219144071837
 31
0.0
  0
LINE
  5
490
330
6F
100
AcDbEntity
  8
None
  6
Continuous
 62
     7
370
    15
100
AcDbLine
 10
-405.5704127549045
 20
-712.219144071837
 30
0.0
 11
-405.5704127549045
 21
-700.219144071837
 31
0.0
  0
WIPEOUT
  5
491
330
6F
100
AcDbEntity
  8
None
  6
Continuous
 62
     7
370
    15
 92
      152
310
98000000040000000C0000000E000000B20000000C00000016000000000000C20C00000014000000010000006C000000070000000400000044FC8F34902C84C0386D9BCEC0E185C000000000000000007EF81F69205979C0386D9BCEC0E185C000000000000000007EF81F69205979C0386D9BCEC01186C000000000000000
310
0044FC8F34902C84C0386D9BCEC01186C00000000000000000
100
AcDbWipeout
 90
        0
 10
-645.5704127549038
 20
-706.219144071837
 30
0.0
 11
240.0000000000006
 21
0.0
 31
0.0
 12
0.0
 22
240.0000000000006
 32
0.0
 13
1.0
 23
1.0
340
0
 70
     4
280
     1
281
    50
282
    50
283
     0
360
0
 71
     2
 91
        5
 14
-0.4999999999999996
 24
0.4749999999999996
 14
0.5000000000000002
 24
0.4749999999999996
 14
0.5000000000000002
 24
0.4999999999999996
 14
-0.4999999999999996
 24
0.4999999999999996
 14
-0.4999999999999996
 24
0.4749999999999996
  0
POLYLINE
  5
492
330
6F
100
AcDbEntity
  8
None
  6
Continuous
 62
     7
370
    15
100
AcDb2dPolyline
 66
     1
 10
0.0
 20
0.0
 30
0.0
 70
     1
  0
VERTEX
  5
493
330
492
100
AcDbEntity
  8
None
  6
Continuous
 62
     7
370
    15
100
AcDbVertex
100
AcDb2dVertex
 10
-645.5704127549038
 20
-700.219144071837
 30
0.0
  0
VERTEX
  5
494
330
492
100
AcDbEntity
  8
None
  6
Continuous
 62
     7
370
    15
100
AcDbVertex
100
AcDb2dVertex
 10
-405.5704127549033
 20
-700.219144071837
 30
0.0
  0
VERTEX
  5
495
330
492
100
AcDbEntity
  8
None
  6
Continuous
 62
     7
370
    15
100
AcDbVertex
100
AcDb2dVertex
 10
-405.5704127549033
 20
-706.219144071837
 30
0.0
  0
VERTEX
  5
496
330
492
100
AcDbEntity
  8
None
  6
Continuous
 62
     7
370
    15
100
AcDbVertex
100
AcDb2dVertex
 10
-645.5704127549038
 20
-706.219144071837
 30
0.0
  0
SEQEND
  5
497
330
492
100
AcDbEntity
  8
None
  6
Continuous
 62
     7
370
    15
  0
ENDBLK
  5
71
330
6F
100
AcDbEntity
  8
0
100
AcDbBlockEnd
  0
BLOCK
  5
73
330
72
100
AcDbEntity
  8
0
100
AcDbBlockBegin
  2
Group-14-1
 70
     0
 10
0.0
 20
0.0
 30
0.0
  3
Group-14-1
  1

  0
INSERT
  5
498
330
72
100
AcDbEntity
  8
None
 62
     7
100
AcDbBlockReference
  2
Group-13-1
 10
0.0
 20
0.0
 30
0.0
  0
WIPEOUT
  5
499
330
72
100
AcDbEntity
  8
None
  6
Continuous
 62
     7
370
     9
 92
      152
310
98000000040000000C0000000E000000B20000000C00000016000000000000C20C00000014000000010000006C000000070000000400000023FE471A48AE91C046BF8D98B93A87C000000000000000003FC5B9B68D8091C046BF8D98B93A87C000000000000000003FC5B9B68D8091C07E4D71D1479686C000000000000000
310
0023FE471A48AE91C07E4D71D1479686C00000000000000000
100
AcDbWipeout
 90
        0
 10
-1131.570412754904
 20
-743.3406230043408
 30
0.0
 11
20.55555555555554
 21
0.0
 31
0.0
 12
0.0
 22
20.55555555555554
 32
0.0
 13
1.0
 23
1.0
340
0
 70
     4
280
     1
281
    50
282
    50
283
     0
360
0
 71
     2
 91
        5
 14
-0.5
 24
0.5
 14
0.0561523437500071
 24
0.5
 14
0.0561523437500071
 24
-0.5
 14
-0.5
 24
-0.5
 14
-0.5
 24
0.5
  0
MTEXT
  5
49A
330
72
100
AcDbEntity
  8
None
 62
     7
100
AcDbMText
 10
-1131.570412754904
 20
-723.867750378923
 30
0.0
 40
14.74509484764017
 41
0.0
 71
     1
 72
     1
  1
0
  7
Helvetica
 73
     1
 44
0.8397955333929318
  0
WIPEOUT
  5
49B
330
72
100
AcDbEntity
  8
None
  6
Continuous
 62
     7
370
     9
 92
      152
310
98000000040000000C0000000E000000B20000000C00000016000000000000C20C00000014000000010000006C0000000700000004000000A083209BA1BC90C046BF8D98B93A87C00000000000000000A083209B347F90C046BF8D98B93A87C00000000000000000A083209B347F90C07E4D71D1479686C000000000000000
310
00A083209BA1BC90C07E4D71D1479686C00000000000000000
100
AcDbWipeout
 90
        0
 10
-1071.157818325075
 20
-743.3406230043408
 30
0.0
 11
20.55555555555554
 21
0.0
 31
0.0
 12
0.0
 22
20.55555555555554
 32
0.0
 13
1.0
 23
1.0
340
0
 70
     4
280
     1
281
    50
282
    50
283
     0
360
0
 71
     2
 91
        5
 14
-0.5
 24
0.5
 14
0.2470703125
 24
0.5
 14
0.2470703125
 24
-0.5
 14
-0.5
 24
-0.5
 14
-0.5
 24
0.5
  0
MTEXT
  5
49C
330
72
100
AcDbEntity
  8
None
 62
     7
100
AcDbMText
 10
-1071.157818325075
 20
-723.867750378923
 30
0.0
 40
14.74509484764017
 41
0.0
 71
     1
 72
     1
  1
5'
  7
Helvetica
 73
     1
 44
0.8397955333929318
  0
WIPEOUT
  5
49D
330
72
100
AcDbEntity
  8
None
  6
Continuous
 62
     7
370
     9
 92
      152
310
98000000040000000C0000000E000000B20000000C00000016000000000000C20C00000014000000010000006C0000000700000004000000C8B1F67517DD8FC046BF8D98B93A87C000000000000000000140DAAEC8068FC046BF8D98B93A87C000000000000000000140DAAEC8068FC07F4D71D1479686C000000000000000
310
00C8B1F67517DD8FC07F4D71D1479686C00000000000000000
100
AcDbWipeout
 90
        0
 10
-1019.636455466557
 20
-743.3406230043408
 30
0.0
 11
26.78846571180554
 21
0.0
 31
0.0
 12
0.0
 22
26.78846571180554
 32
0.0
 13
1.0
 23
1.0
340
0
 70
     4
280
     1
281
    50
282
    50
283
     0
360
0
 71
     2
 91
        5
 14
-0.4999999999999929
 24
0.5000000000000036
 14
0.5000000000000071
 24
0.5000000000000036
 14
0.5000000000000071
 24
-0.2673285874859488
 14
-0.4999999999999929
 24
-0.2673285874859488
 14
-0.4999999999999929
 24
0.5000000000000036
  0
MTEXT
  5
49E
330
72
100
AcDbEntity
  8
None
 62
     7
100
AcDbMText
 10
-1019.636455466557
 20
-723.867750378923
 30
0.0
 40
14.74509484764017
 41
0.0
 71
     1
 72
     1
  1
10'
  7
Helvetica
 73
     1
 44
0.8397955333929318
  0
WIPEOUT
  5
49F
330
72
100
AcDbEntity
  8
None
  6
Continuous
 62
     7
370
     9
 92
      152
310
98000000040000000C0000000E000000B20000000C00000016000000000000C20C00000014000000010000006C00000007000000040000003A12F237F6FD8BC046BF8D98B93A87C0000000000000000074A0D570A7278BC046BF8D98B93A87C0000000000000000074A0D570A7278BC07F4D71D1479686C000000000000000
310
003A12F237F6FD8BC07F4D71D1479686C00000000000000000
100
AcDbWipeout
 90
        0
 10
-895.7452238952458
 20
-743.3406230043408
 30
0.0
 11
26.78846571180543
 21
0.0
 31
0.0
 12
0.0
 22
26.78846571180543
 32
0.0
 13
1.0
 23
1.0
340
0
 70
     4
280
     1
281
    50
282
    50
283
     0
360
0
 71
     2
 91
        5
 14
-0.5
 24
0.5
 14
0.5
 24
0.5
 14
0.5
 24
-0.2673285874859523
 14
-0.5
 24
-0.2673285874859523
 14
-0.5
 24
0.5
  0
MTEXT
  5
4A0
330
72
100
AcDbEntity
  8
None
 62
     7
100
AcDbMText
 10
-895.7452238952458
 20
-723.867750378923
 30
0.0
 40
14.74509484764017
 41
0.0
 71
     1
 72
     1
  1
20'
  7
Helvetica
 73
     1
 44
0.8397955333929318
  0
WIPEOUT
  5
4A1
330
72
100
AcDbEntity
  8
None
  6
Continuous
 62
     7
370
     9
 92
      152
310
98000000040000000C0000000E000000B20000000C00000016000000000000C20C00000014000000010000006C00000007000000040000003212F237F69D84C046BF8D98B93A87C000000000000000006BA0D570A7C783C046BF8D98B93A87C000000000000000006BA0D570A7C783C07F4D71D1479686C000000000000000
310
003212F237F69D84C07F4D71D1479686C00000000000000000
100
AcDbWipeout
 90
        0
 10
-659.745223895245
 20
-743.3406230043408
 30
0.0
 11
26.78846571180554
 21
0.0
 31
0.0
 12
0.0
 22
26.78846571180554
 32
0.0
 13
1.0
 23
1.0
340
0
 70
     4
280
     1
281
    50
282
    50
283
     0
360
0
 71
     2
 91
        5
 14
-0.4999999999999929
 24
0.5000000000000036
 14
0.5000000000000071
 24
0.5000000000000036
 14
0.5000000000000071
 24
-0.2673285874859488
 14
-0.4999999999999929
 24
-0.2673285874859488
 14
-0.4999999999999929
 24
0.5000000000000036
  0
MTEXT
  5
4A2
330
72
100
AcDbEntity
  8
None
 62
     7
100
AcDbMText
 10
-659.745223895245
 20
-723.867750378923
 30
0.0
 40
14.74509484764017
 41
0.0
 71
     1
 72
     1
  1
40'
  7
Helvetica
 73
     1
 44
0.8397955333929318
  0
WIPEOUT
  5
4A3
330
72
100
AcDbEntity
  8
None
  6
Continuous
 62
     7
370
     9
 92
      152
310
98000000040000000C0000000E000000B20000000C00000016000000000000C20C00000014000000010000006C00000007000000040000001CB28A41EA527AC046BF8D98B93A87C000000000000000008DCE51B34CA678C046BF8D98B93A87C000000000000000008DCE51B34CA678C07F4D71D1479686C000000000000000
310
001CB28A41EA527AC07F4D71D1479686C00000000000000000
100
AcDbWipeout
 90
        0
 10
-421.1821914117625
 20
-743.3406230043408
 30
0.0
 11
26.7884657118056
 21
0.0
 31
0.0
 12
0.0
 22
26.7884657118056
 32
0.0
 13
1.0
 23
1.0
340
0
 70
     4
280
     1
281
    50
282
    50
283
     0
360
0
 71
     2
 91
        5
 14
-0.4999999999999964
 24
0.5
 14
0.5000000000000036
 24
0.5
 14
0.5000000000000036
 24
-0.2673285874859488
 14
-0.4999999999999964
 24
-0.2673285874859488
 14
-0.4999999999999964
 24
0.5
  0
MTEXT
  5
4A4
330
72
100
AcDbEntity
  8
None
 62
     7
100
AcDbMText
 10
-421.1821914117625
 20
-723.867750378923
 30
0.0
 40
14.74509484764017
 41
0.0
 71
     1
 72
     1
  1
60'
  7
Helvetica
 73
     1
 44
0.8397955333929318
  0
ENDBLK
  5
74
330
72
100
AcDbEntity
  8
0
100
AcDbBlockEnd
  0
BLOCK
  5
76
330
75
100
AcDbEntity
  8
0
100
AcDbBlockBegin
  2
Group-15-1
 70
     0
 10
0.0
 20
0.0
 30
0.0
  3
Group-15-1
  1

  0
INSERT
  5
4A5
330
75
100
AcDbEntity
  8
None
 62
     7
100
AcDbBlockReference
  2
Group-14-1
 10
0.0
 20
0.0
 30
0.0
  0
ENDBLK
  5
77
330
75
100
AcDbEntity
  8
0
100
AcDbBlockEnd
  0
BLOCK
  5
79
330
78
100
AcDbEntity
  8
0
100
AcDbBlockBegin
  2
Group-16-1
 70
     0
 10
0.0
 20
0.0
 30
0.0
  3
Group-16-1
  1

  0
WIPEOUT
  5
4A6
330
78
100
AcDbEntity
  8
None
  6
Continuous
 62
     7
370
     9
 92
      152
310
98000000040000000C0000000E000000B20000000C00000016000000000000C20C00000014000000010000006C0000000700000004000000C9E3B43060A191C09EF5E2A2236885C000000000000000003A72148C690E8CC09EF5E2A2236885C000000000000000003A72148C690E8CC0F34A38F8787184C000000000000000
310
00C9E3B43060A191C0F34A38F8787184C00000000000000000
100
AcDbWipeout
 90
        0
 10
-1128.343935800937
 20
-685.017400525208
 30
0.0
 11
230.5423990885419
 21
0.0
 31
0.0
 12
0.0
 22
230.5423990885419
 32
0.0
 13
1.0
 23
1.0
340
0
 70
     4
280
     1
281
    50
282
    50
283
     0
360
0
 71
     2
 91
        5
 14
-0.5
 24
0.5
 14
0.5
 24
0.5
 14
0.5
 24
0.3662574283288711
 14
-0.5
 24
0.3662574283288711
 14
-0.5
 24
0.5
  0
MTEXT
  5
4A7
330
78
100
AcDbEntity
  8
None
 62
     7
100
AcDbMText
 10
-1128.343935800937
 20
-655.808091587081
 30
0.0
 40
22.11764227146026
 41
0.0
 71
     1
 72
     1
  1
SCALE = 1 : 185
  7
Helvetica
 73
     1
 44
0.8397955333929318
  0
INSERT
  5
4A8
330
78
100
AcDbEntity
  8
None
 62
     7
100
AcDbBlockReference
  2
Group-15-1
 10
0.0
 20
0.0
 30
0.0
  0
ENDBLK
  5
7A
330
78
100
AcDbEntity
  8
0
100
AcDbBlockEnd
  0
BLOCK
  5
93
330
92
100
AcDbEntity
  8
0
100
AcDbBlockBegin
  2
VW_SLASH
 70
     0
 10
0.0
 20
0.0
 30
0.0
  3
VW_SLASH
  1

  0
INSERT
  5
95
330
92
100
AcDbEntity
  8
None
  6
ByBlock
 62
     0
370
    -2
100
AcDbBlockReference
  2

 10
0.0
 20
0.0
 30
0.0
  0
LINE
  5
96
330
92
100
AcDbEntity
  8
None
  6
ByBlock
 62
     0
370
    -2
100
AcDbLine
 10
0.0
 20
0.0
 30
0.0
 11
-1.0
 21
0.0
 31
0.0
  0
POLYLINE
  5
97
330
92
100
AcDbEntity
  8
None
  6
Continuous
 62
     0
370
    20
100
AcDb2dPolyline
 66
     1
 10
0.0
 20
0.0
 30
0.0
  0
VERTEX
  5
98
330
97
100
AcDbEntity
  8
None
  6
Continuous
 62
     0
370
    20
100
AcDbVertex
100
AcDb2dVertex
 10
0.3513091552037657
 20
0.3513091552037657
 30
0.0
  0
VERTEX
  5
99
330
97
100
AcDbEntity
  8
None
  6
Continuous
 62
     0
370
    20
100
AcDbVertex
100
AcDb2dVertex
 10
-0.3513091552037657
 20
-0.3513091552037657
 30
0.0
  0
SEQEND
  5
9A
330
97
100
AcDbEntity
  8
None
  6
Continuous
 62
     0
370
    20
  0
ENDBLK
  5
94
330
92
100
AcDbEntity
  8
0
100
AcDbBlockEnd
  0
BLOCK
  5
9C
330
9B
100
AcDbEntity
  8
0
100
AcDbBlockBegin
  2
VW_FILLEDARROW
 70
     0
 10
0.0
 20
0.0
 30
0.0
  3
VW_FILLEDARROW
  1

  0
INSERT
  5
9E
330
9B
100
AcDbEntity
  8
None
  6
ByBlock
 62
     0
370
    -2
100
AcDbBlockReference
  2

 10
0.0
 20
0.0
 30
0.0
  0
POLYLINE
  5
9F
102
{ACAD_REACTORS
330
A4
102
}
330
9B
100
AcDbEntity
  8
None
  6
Continuous
 62
     0
370
     5
100
AcDb2dPolyline
 66
     1
 10
0.0
 20
0.0
 30
0.0
 70
     1
  0
VERTEX
  5
A0
330
9F
100
AcDbEntity
  8
None
  6
Continuous
 62
     0
370
     5
100
AcDbVertex
100
AcDb2dVertex
 10
-0.9936523437500001
 20
0.2662483430651049
 30
0.0
  0
VERTEX
  5
A1
330
9F
100
AcDbEntity
  8
None
  6
Continuous
 62
     0
370
     5
100
AcDbVertex
100
AcDb2dVertex
 10
0.0
 20
0.0
 30
0.0
  0
VERTEX
  5
A2
330
9F
100
AcDbEntity
  8
None
  6
Continuous
 62
     0
370
     5
100
AcDbVertex
100
AcDb2dVertex
 10
-0.9936523437500001
 20
-0.2662483430651051
 30
0.0
  0
SEQEND
  5
A3
330
9F
100
AcDbEntity
  8
None
  6
Continuous
 62
     0
370
     5
  0
HATCH
  5
A4
330
9B
100
AcDbEntity
  8
None
  6
Continuous
 62
     0
370
     0
100
AcDbHatch
 10
0.0
 20
0.0
 30
0.0
210
0.0
220
0.0
230
1.0
  2
SOLID
 70
     1
 71
     1
 91
        1
 92
        1
 93
        3
 72
     1
 10
-0.9936523437500001
 20
0.2662483430651049
 11
0.0
 21
0.0
 72
     1
 10
0.0
 20
0.0
 11
-0.9936523437500001
 21
-0.2662483430651051
 72
     1
 10
-0.9936523437500001
 20
-0.2662483430651051
 11
-0.9936523437500001
 21
0.2662483430651049
 97
        1
330
9F
 75
     0
 76
     1
 98
        1
 10
0.0
 20
0.0
  0
ENDBLK
  5
9D
330
9B
100
AcDbEntity
  8
0
100
AcDbBlockEnd
  0
ENDSEC
  0
SECTION
  2
ENTITIES
  0
POLYLINE
  5
4A9
330
1F
100
AcDbEntity
  8
None
  6
Continuous
 62
     7
370
    60
100
AcDb2dPolyline
 66
     1
 10
0.0
 20
0.0
 30
0.0
 70
     1
  0
VERTEX
  5
4AA
330
4A9
100
AcDbEntity
  8
None
  6
Continuous
 62
     7
370
    60
100
AcDbVertex
100
AcDb2dVertex
 10
-1483.641732283465
 20
926.8208661417324
 30
0.0
  0
VERTEX
  5
4AB
330
4A9
100
AcDbEntity
  8
None
  6
Continuous
 62
     7
370
    60
100
AcDbVertex
100
AcDb2dVertex
 10
1476.358267716535
 20
926.8208661417324
 30
0.0
  0
VERTEX
  5
4AC
330
4A9
100
AcDbEntity
  8
None
  6
Continuous
 62
     7
370
    60
100
AcDbVertex
100
AcDb2dVertex
 10
1476.358267716535
 20
-923.1791338582677
 30
0.0
  0
VERTEX
  5
4AD
330
4A9
100
AcDbEntity
  8
None
  6
Continuous
 62
     7
370
    60
100
AcDbVertex
100
AcDb2dVertex
 10
-1483.641732283465
 20
-923.1791338582677
 30
0.0
  0
SEQEND
  5
4AE
330
4A9
100
AcDbEntity
  8
None
  6
Continuous
 62
     7
370
    60
  0
POLYLINE
  5
4AF
330
1F
100
AcDbEntity
  8
None
  6
Continuous
 62
     7
370
    60
100
AcDb2dPolyline
 66
     1
 10
0.0
 20
0.0
 30
0.0
 70
     1
  0
VERTEX
  5
4B0
330
4AF
100
AcDbEntity
  8
None
  6
Continuous
 62
     7
370
    60
100
AcDbVertex
100
AcDb2dVertex
 10
-1483.641732283465
 20
926.8208661417324
 30
0.0
  0
VERTEX
  5
4B1
330
4AF
100
AcDbEntity
  8
None
  6
Continuous
 62
     7
370
    60
100
AcDbVertex
100
AcDb2dVertex
 10
828.8582677165354
 20
926.8208661417324
 30
0.0
  0
VERTEX
  5
4B2
330
4AF
100
AcDbEntity
  8
None
  6
Continuous
 62
     7
370
    60
100
AcDbVertex
100
AcDb2dVertex
 10
828.8582677165354
 20
-923.1791338582677
 30
0.0
  0
VERTEX
  5
4B3
330
4AF
100
AcDbEntity
  8
None
  6
Continuous
 62
     7
370
    60
100
AcDbVertex
100
AcDb2dVertex
 10
-1483.641732283465
 20
-923.1791338582677
 30
0.0
  0
SEQEND
  5
4B4
330
4AF
100
AcDbEntity
  8
None
  6
Continuous
 62
     7
370
    60
  0
WIPEOUT
  5
4B5
330
1F
100
AcDbEntity
  8
None
  6
Continuous
 62
     7
370
     5
 92
      152
310
98000000040000000C0000000E000000B20000000C00000016000000000000C20C00000014000000010000006C0000000700000004000000D48321CDD2BF8C40882D9D19C94972400000000000000000CFFA1EBA7EAC9540882D9D19C94972400000000000000000CFFA1EBA7EAC954086AD3A4EBB4B834000000000000000
310
00D48321CDD2BF8C4086AD3A4EBB4B83400000000000000000
100
AcDbWipeout
 90
        0
 10
919.9779303186755
 20
292.611596693016
 30
0.0
 11
467.1458265516495
 21
0.0
 31
0.0
 12
0.0
 22
467.1458265516495
 32
0.0
 13
1.0
 23
1.0
340
0
 70
     4
280
     1
281
    50
282
    50
283
     0
360
0
 71
     2
 91
        5
 14
-0.4999999999999998
 24
0.4999999999999999
 14
0.5000000000000004
 24
0.4999999999999999
 14
0.5000000000000004
 24
-0.1954035392098146
 14
-0.4999999999999998
 24
-0.1954035392098146
 14
-0.4999999999999998
 24
0.4999999999999999
  0
MTEXT
  5
4B6
330
1F
100
AcDbEntity
  8
None
 62
     7
100
AcDbMText
 10
1153.5508435945
 20
606.5212831820595
 30
0.0
 40
34.94510315571019
 41
0.0
 71
     2
 72
     1
  1
2400 BOUNDARY ROAD\PBURNABY, B.C. V5M 3Z3\PCANADA\P\P{\H0.8947x;\lT: 604•482•2000\P}{\H0.8947x;\lF: 604•482•2007\P}
  7
Arial Narrow
 73
     1
 44
0.9301738196474555
  0
WIPEOUT
  5
4B7
330
1F
100
AcDbEntity
  8
None
  6
Continuous
 62
     7
370
     5
 92
      152
310
98000000040000000C0000000E000000B20000000C00000016000000000000C20C00000014000000010000006C0000000700000004000000E6800C6F1D718B4090A6E3FD79DC5F4000000000000000001EEB30E2570F954090A6E3FD79DC5F4000000000000000001EEB30E2570F95406E50C426BA286B4000000000000000
310
00E6800C6F1D718B406E50C426BA286B400000000000000000
100
AcDbWipeout
 90
        0
 10
878.1393719651068
 20
127.4449457858229
 30
0.0
 11
469.6964518229166
 21
0.0
 31
0.0
 12
0.0
 22
469.6964518229166
 32
0.0
 13
1.0
 23
1.0
340
0
 70
     4
280
     1
281
    50
282
    50
283
     0
360
0
 71
     2
 91
        5
 14
-0.5000000000000002
 24
0.5
 14
0.5
 24
0.5
 14
0.5
 24
0.3087535525781568
 14
-0.5000000000000002
 24
0.3087535525781568
 14
-0.5000000000000002
 24
0.5
  0
MTEXT
  5
4B8
330
1F
100
AcDbEntity
  8
None
 62
     7
100
AcDbMText
 10
1112.987597876565
 20
199.7604441682926
 30
0.0
 40
55.91216504913628
 41
0.0
 71
     2
 72
     1
  1
SOUND STAGE
  7
Arial Narrow (bold)
 73
     1
 44
1.446475657041058
  0
POLYLINE
  5
4B9
330
1F
100
AcDbEntity
  8
None
  6
Continuous
 62
     7
370
    60
100
AcDb2dPolyline
 66
     1
 10
0.0
 20
0.0
 30
0.0
 70
     1
  0
VERTEX
  5
4BA
330
4B9
100
AcDbEntity
  8
None
  6
Continuous
 62
     7
370
    60
100
AcDbVertex
100
AcDb2dVertex
 10
828.8582677165354
 20
-485.625
 30
0.0
  0
VERTEX
  5
4BB
330
4B9
100
AcDbEntity
  8
None
  6
Continuous
 62
     7
370
    60
100
AcDbVertex
100
AcDb2dVertex
 10
1476.358267716535
 20
-485.625
 30
0.0
  0
VERTEX
  5
4BC
330
4B9
100
AcDbEntity
  8
None
  6
Continuous
 62
     7
370
    60
100
AcDbVertex
100
AcDb2dVertex
 10
1476.358267716535
 20
-923.1791338582677
 30
0.0
  0
VERTEX
  5
4BD
330
4B9
100
AcDbEntity
  8
None
  6
Continuous
 62
     7
370
    60
100
AcDbVertex
100
AcDb2dVertex
 10
828.8582677165354
 20
-923.1791338582677
 30
0.0
  0
SEQEND
  5
4BE
330
4B9
100
AcDbEntity
  8
None
  6
Continuous
 62
     7
370
    60
  0
MTEXT
  5
4BF
330
1F
100
AcDbEntity
  8
None
 62
     7
100
AcDbMText
 10
886.8403796171533
 20
70.47357536946524
 30
0.0
 40
41.93412378685221
 41
0.0
 71
     1
 72
     1
  1
FEATURES\P{\H0.7083x;\l•8,584 sq. ft.\P•SOUNDPROOF\P•ELEPHANT DOORS\P•1800 amps 120/208V \P•GRID = 7,500 pounds per truss\P•REVERB. TIME = 1 sec. @ 500hz}
  7
Arial Narrow
 73
     1
 44
0.9818501429612032
  0
INSERT
  5
4C0
330
1F
100
AcDbEntity
  8
elements-ojects
 62
     7
100
AcDbBlockReference
  2
Group-1
 10
0.0
 20
0.0
 30
0.0
 41
185.0
 42
185.0
 43
185.0
  0
WIPEOUT
  5
4C1
330
1F
100
AcDbEntity
  8
None
  6
Continuous
 62
     7
370
     5
 92
      152
310
98000000040000000C0000000E000000B20000000C00000016000000000000C20C00000014000000010000006C0000000700000004000000BAEEE49A994695407B711DADBC4A53400000000000000000F47C68DB348796407B711DADBC4A53400000000000000000F47C68DB348796402C2914F87B74714000000000000000
310
00BAEEE49A994695402C2914F87B7471400000000000000000
100
AcDbWipeout
 90
        0
 10
1361.65000493724
 20
77.16776588321036
 30
0.0
 11
202.1125
 21
0.0
 31
0.0
 12
0.0
 22
202.1125
 32
0.0
 13
1.0
 23
1.0
340
0
 70
     4
280
     1
281
    50
282
    50
283
     0
360
0
 71
     2
 91
        5
 14
-0.5000000000000009
 24
0.4999999999999998
 14
-0.1034306968225343
 24
0.4999999999999998
 14
-0.1034306968225343
 24
-0.5000000000000001
 14
-0.5000000000000009
 24
-0.5000000000000001
 14
-0.5000000000000009
 24
0.4999999999999998
  0
MTEXT
  5
4C2
330
1F
100
AcDbEntity
  8
None
 62
     7
100
AcDbMText
 10
1401.725811581467
 20
239.877637243767
 30
0.0
 40
125.8023713605567
 41
0.0
 71
     2
 72
     1
  1
1
  7
Arial Narrow (bold)
 73
     1
 44
0.6428780697960256
  0
LINE
  5
4C3
330
1F
100
AcDbEntity
  8
None
  6
Continuous
 62
     7
370
    40
100
AcDbLine
 10
1343.160207052887
 20
120.8134415004084
 30
0.0
 11
885.7708320528873
 21
120.8134415004084
 31
0.0
  0
MTEXT
  5
4C4
330
1F
100
AcDbEntity
  8
None
 62
     7
100
AcDbMText
 10
872.4758395413326
 20
-519.3009724570113
 30
0.0
 40
36.78431911127387
 41
0.0
 71
     1
 72
     1
  1
SITE LEGEND\P
  7
Arial Narrow
 73
     1
 44
1.178220171553443
  0
INSERT
  5
4C5
330
1F
100
AcDbEntity
  8
None
 62
     7
100
AcDbBlockReference
  2
Group-4-1
 10
0.0
 20
0.0
 30
0.0
 41
185.0
 42
185.0
 43
185.0
  0
DIMENSION
  5
4C6
330
1F
100
AcDbEntity
  8
Dimension
  6
Continuous
 62
     1
370
     9
100
AcDbDimension
  2
*D5
 10
-1099.701617264483
 20
779.9999999999999
 30
0.0
 11
-587.2016172644829
 21
779.9999999999999
 31
0.0
 70
    32
 71
     5
 42
1025.0
  3
ASME
100
AcDbAlignedDimension
 13
-74.7016172644829
 23
570.0
 33
0.0
 14
-1099.701617264483
 24
566.0579801361423
 34
0.0
100
AcDbRotatedDimension
1001
ACAD
1000
DSTYLE
1002
{
1070
   147
1040
2.890625
1070
   340
1005
7E
1002
}
  0
DIMENSION
  5
4C7
330
1F
100
AcDbEntity
  8
Dimension
  6
Continuous
 62
     1
370
     9
100
AcDbDimension
  2
*D6
 10
-1392.0
 20
622.0579801361421
 30
0.0
 11
-1392.0
 21
19.05798013614208
 31
0.0
 70
    32
 71
     5
 42
1206.0
  3
ASME
100
AcDbAlignedDimension
 13
-1053.701617264483
 23
-583.9420198638579
 33
0.0
 14
-957.7016172644834
 24
622.0579801361421
 34
0.0
 50
-90.0
100
AcDbRotatedDimension
1001
ACAD
1000
DSTYLE
1002
{
1070
   147
1040
2.890625
1070
   340
1005
7E
1002
}
  0
DIMENSION
  5
4C8
330
1F
100
AcDbEntity
  8
Dimension
  6
Continuous
 62
     1
370
     9
100
AcDbDimension
  2
*D7
 10
-1272.0
 20
-583.9420198638579
 30
0.0
 11
-1272.0
 21
-184.4420198638585
 31
0.0
 70
    32
 71
     5
 42
798.9999999999989
  3
ASME
100
AcDbAlignedDimension
 13
-928.3266172644834
 23
215.0579801361409
 33
0.0
 14
-1065.264117264483
 24
-583.9420198638579
 34
0.0
 50
-90.0
100
AcDbRotatedDimension
1001
ACAD
1000
DSTYLE
1002
{
1070
   147
1040
2.890625
1070
   340
1005
7E
1002
}
  0
DIMENSION
  5
4C9
330
1F
100
AcDbEntity
  8
Dimension
  6
Continuous
 62
     1
370
     9
100
AcDbDimension
  2
*D8
 10
-1272.0
 20
215.0579801361409
 30
0.0
 11
-1272.0
 21
418.5579801361415
 31
0.0
 70
    32
 71
     5
 42
407.0000000000012
  3
ASME
100
AcDbAlignedDimension
 13
-992.9999999999999
 23
622.0579801361421
 33
0.0
 14
-928.3266172644834
 24
215.0579801361409
 34
0.0
 50
-90.0
100
AcDbRotatedDimension
1001
ACAD
1000
DSTYLE
1002
{
1070
   147
1040
2.890625
1070
   340
1005
7E
1002
}
  0
WIPEOUT
  5
4CA
330
1F
100
AcDbEntity
  8
None
  6
Continuous
 62
     1
370
     9
 92
      152
310
98000000040000000C0000000E000000B20000000C00000016000000000000C20C00000014000000010000006C000000070000000400000000AAC3E9ED54104000000060664879C0000000000000000000AAC3E9ED54104000000000574B4CC0000000000000000008F9C713A8E33FC000000000574B4CC000000000000000
310
0008F9C713A8E33FC000000060664879C00000000000000000
100
AcDbWipeout
 90
        0
 10
-31.88928340561055
 20
-404.5249938964844
 30
0.0
 11
347.9364013671875
 21
0.0
 31
0.0
 12
0.0
 22
347.9364013671875
 32
0.0
 13
1.0
 23
1.0
340
0
 70
     4
280
     1
281
    50
282
    50
283
     0
360
0
 71
     2
 91
        5
 14
-0.396612650815286
 24
0.4999999999999999
 14
-0.396612650815286
 24
-0.5
 14
-0.5
 24
-0.5
 14
-0.5
 24
0.4999999999999999
 14
-0.396612650815286
 24
0.4999999999999999
  0
MTEXT
  5
4CB
330
1F
100
AcDbEntity
  8
None
 62
     1
100
AcDbMText
 10
-29.99458827786974
 20
-404.5249938964844
 30
0.0
 40
25.8039159833703
 41
0.0
 71
     1
 72
     1
  1
Acoustical Separation
  7
Helvetica
 11
0.0
 21
1.0
 31
0.0
 73
     1
 44
0.8397955333929319
  0
INSERT
  5
4CC
330
1F
100
AcDbEntity
  8
None
 62
     7
100
AcDbBlockReference
  2
Group-11-1
 10
0.0
 20
0.0
 30
0.0
  0
WIPEOUT
  5
4CD
330
1F
100
AcDbEntity
  8
None
  6
Continuous
 62
     1
370
     9
 92
      152
310
98000000040000000C0000000E000000B20000000C00000016000000000000C20C00000014000000010000006C000000070000000400000087E6444D368687C046444444444A724000000000000000000ECD899A8E7374C046444444444A724000000000000000000ECD899A8E7374C09C9999999937744000000000000000
310
0087E6444D368687C09C999999993774400000000000000000
100
AcDbWipeout
 90
        0
 10
-752.7765145666934
 20
292.6416666666667
 30
0.0
 11
425.5541992187501
 21
0.0
 31
0.0
 12
0.0
 22
425.5541992187501
 32
0.0
 13
1.0
 23
1.0
340
0
 70
     4
280
     1
281
    50
282
    50
283
     0
360
0
 71
     2
 91
        5
 14
-0.5
 24
0.4999999999999999
 14
0.4999999999999999
 24
0.4999999999999999
 14
0.4999999999999999
 24
0.4275454609778531
 14
-0.5
 24
0.4275454609778531
 14
-0.5
 24
0.4999999999999999
  0
MTEXT
  5
4CE
330
1F
100
AcDbEntity
  8
None
 62
     1
100
AcDbMText
 10
-752.7765145666934
 20
321.8509756047936
 30
0.0
 40
22.11764227146026
 41
0.0
 71
     1
 72
     1
  1
Height to U.S. of Truss = 19'-7"
  7
Helvetica
 73
     1
 44
0.8397955333929318
  0
LINE
  5
4CF
330
1F
100
AcDbEntity
  8
None
  6
Continuous
 62
     1
370
     9
100
AcDbLine
 10
-325.0
 20
314.0
 30
0.0
 11
-163.4728537886482
 21
314.0
 31
0.0
  0
POLYLINE
  5
4D0
102
{ACAD_REACTORS
330
4D5
102
}
330
1F
100
AcDbEntity
  8
None
  6
Continuous
 62
     1
370
     5
100
AcDb2dPolyline
 66
     1
 10
0.0
 20
0.0
 30
0.0
 70
     1
  0
VERTEX
  5
4D1
330
4D0
100
AcDbEntity
  8
None
  6
Continuous
 62
     1
370
     5
100
AcDbVertex
100
AcDb2dVertex
 10
-186.5978537886482
 20
320.1963250749697
 30
0.0
  0
VERTEX
  5
4D2
330
4D0
100
AcDbEntity
  8
None
  6
Continuous
 62
     1
370
     5
100
AcDbVertex
100
AcDb2dVertex
 10
-163.4728537886482
 20
314.0
 30
0.0
  0
VERTEX
  5
4D3
330
4D0
100
AcDbEntity
  8
None
  6
Continuous
 62
     1
370
     5
100
AcDbVertex
100
AcDb2dVertex
 10
-186.5978537886482
 20
307.8036749250303
 30
0.0
  0
SEQEND
  5
4D4
330
4D0
100
AcDbEntity
  8
None
  6
Continuous
 62
     1
370
     5
  0
HATCH
  5
4D5
330
1F
100
AcDbEntity
  8
None
  6
Continuous
 62
     1
370
     0
100
AcDbHatch
 10
0.0
 20
0.0
 30
0.0
210
0.0
220
0.0
230
1.0
  2
SOLID
 70
     1
 71
     1
 91
        1
 92
        1
 93
        3
 72
     1
 10
-186.5978537886482
 20
320.1963250749697
 11
-163.4728537886482
 21
314.0
 72
     1
 10
-163.4728537886482
 20
314.0
 11
-186.5978537886482
 21
307.8036749250303
 72
     1
 10
-186.5978537886482
 20
307.8036749250303
 11
-186.5978537886482
 21
320.1963250749697
 97
        1
330
4D0
 75
     0
 76
     1
 98
        1
 10
0.0
 20
0.0
  0
WIPEOUT
  5
4D6
330
1F
100
AcDbEntity
  8
None
  6
Continuous
 62
     1
370
     9
 92
      152
310
98000000040000000C0000000E000000B20000000C00000016000000000000C20C00000014000000010000006C0000000700000004000000A01C0F4AA59487C02422222222524D40000000000000000040391E946C9074C02422222222524D40000000000000000040391E946C9074C068666666665E564000000000000000
310
00A01C0F4AA59487C068666666665E56400000000000000000
100
AcDbWipeout
 90
        0
 10
-754.5807076626406
 20
58.64166666666671
 30
0.0
 11
425.5541992187501
 21
0.0
 31
0.0
 12
0.0
 22
425.5541992187501
 32
0.0
 13
1.0
 23
1.0
340
0
 70
     4
280
     1
281
    50
282
    50
283
     0
360
0
 71
     2
 91
        5
 14
-0.5
 24
0.5000000000000001
 14
0.5
 24
0.5000000000000001
 14
0.5
 24
0.4275454609778534
 14
-0.5
 24
0.4275454609778534
 14
-0.5
 24
0.5000000000000001
  0
MTEXT
  5
4D7
330
1F
100
AcDbEntity
  8
None
 62
     1
100
AcDbMText
 10
-754.5807076626406
 20
87.85097560479362
 30
0.0
 40
22.11764227146026
 41
0.0
 71
     1
 72
     1
  1
Height to U.S. of Truss = 38'-7"
  7
Helvetica
 73
     1
 44
0.8397955333929318
  0
LINE
  5
4D8
330
1F
100
AcDbEntity
  8
None
  6
Continuous
 62
     1
370
     9
100
AcDbLine
 10
-329.6601198502138
 20
79.99999999999997
 30
0.0
 11
-257.9999999999999
 21
79.99999999999997
 31
0.0
  0
POLYLINE
  5
4D9
102
{ACAD_REACTORS
330
4DE
102
}
330
1F
100
AcDbEntity
  8
None
  6
Continuous
 62
     1
370
     5
100
AcDb2dPolyline
 66
     1
 10
0.0
 20
0.0
 30
0.0
 70
     1
  0
VERTEX
  5
4DA
330
4D9
100
AcDbEntity
  8
None
  6
Continuous
 62
     1
370
     5
100
AcDbVertex
100
AcDb2dVertex
 10
-281.125
 20
86.19632507496968
 30
0.0
  0
VERTEX
  5
4DB
330
4D9
100
AcDbEntity
  8
None
  6
Continuous
 62
     1
370
     5
100
AcDbVertex
100
AcDb2dVertex
 10
-257.9999999999999
 20
79.99999999999997
 30
0.0
  0
VERTEX
  5
4DC
330
4D9
100
AcDbEntity
  8
None
  6
Continuous
 62
     1
370
     5
100
AcDbVertex
100
AcDb2dVertex
 10
-281.125
 20
73.80367492503025
 30
0.0
  0
SEQEND
  5
4DD
330
4D9
100
AcDbEntity
  8
None
  6
Continuous
 62
     1
370
     5
  0
HATCH
  5
4DE
330
1F
100
AcDbEntity
  8
None
  6
Continuous
 62
     1
370
     0
100
AcDbHatch
 10
0.0
 20
0.0
 30
0.0
210
0.0
220
0.0
230
1.0
  2
SOLID
 70
     1
 71
     1
 91
        1
 92
        1
 93
        3
 72
     1
 10
-281.125
 20
86.19632507496968
 11
-257.9999999999999
 21
79.99999999999997
 72
     1
 10
-257.9999999999999
 20
79.99999999999997
 11
-281.125
 21
73.80367492503025
 72
     1
 10
-281.125
 20
73.80367492503025
 11
-281.125
 21
86.19632507496968
 97
        1
330
4D9
 75
     0
 76
     1
 98
        1
 10
0.0
 20
0.0
  0
LINE
  5
4DF
330
1F
100
AcDbEntity
  8
None
  6
Continuous
 62
     1
370
     9
100
AcDbLine
 10
-755.4496904937726
 20
314.0
 30
0.0
 11
-928.7016172644832
 21
314.0
 31
0.0
  0
POLYLINE
  5
4E0
102
{ACAD_REACTORS
330
4E5
102
}
330
1F
100
AcDbEntity
  8
None
  6
Continuous
 62
     1
370
     5
100
AcDb2dPolyline
 66
     1
 10
0.0
 20
0.0
 30
0.0
 70
     1
  0
VERTEX
  5
4E1
330
4E0
100
AcDbEntity
  8
None
  6
Continuous
 62
     1
370
     5
100
AcDbVertex
100
AcDb2dVertex
 10
-905.5766172644832
 20
307.8036749250303
 30
0.0
  0
VERTEX
  5
4E2
330
4E0
100
AcDbEntity
  8
None
  6
Continuous
 62
     1
370
     5
100
AcDbVertex
100
AcDb2dVertex
 10
-928.7016172644832
 20
314.0
 30
0.0
  0
VERTEX
  5
4E3
330
4E0
100
AcDbEntity
  8
None
  6
Continuous
 62
     1
370
     5
100
AcDbVertex
100
AcDb2dVertex
 10
-905.5766172644832
 20
320.1963250749697
 30
0.0
  0
SEQEND
  5
4E4
330
4E0
100
AcDbEntity
  8
None
  6
Continuous
 62
     1
370
     5
  0
HATCH
  5
4E5
330
1F
100
AcDbEntity
  8
None
  6
Continuous
 62
     1
370
     0
100
AcDbHatch
 10
0.0
 20
0.0
 30
0.0
210
0.0
220
0.0
230
1.0
  2
SOLID
 70
     1
 71
     1
 91
        1
 92
        1
 93
        3
 72
     1
 10
-905.5766172644832
 20
307.8036749250303
 11
-928.7016172644832
 21
314.0
 72
     1
 10
-928.7016172644832
 20
314.0
 11
-905.5766172644832
 21
320.1963250749697
 72
     1
 10
-905.5766172644832
 20
320.1963250749697
 11
-905.5766172644832
 21
307.8036749250303
 97
        1
330
4E0
 75
     0
 76
     1
 98
        1
 10
0.0
 20
0.0
  0
LINE
  5
4E6
330
1F
100
AcDbEntity
  8
None
  6
Continuous
 62
     1
370
     9
100
AcDbLine
 10
-757.2538835897196
 20
79.99999999999997
 30
0.0
 11
-835.4336343659223
 21
79.99999999999997
 31
0.0
  0
POLYLINE
  5
4E7
102
{ACAD_REACTORS
330
4EC
102
}
330
1F
100
AcDbEntity
  8
None
  6
Continuous
 62
     1
370
     5
100
AcDb2dPolyline
 66
     1
 10
0.0
 20
0.0
 30
0.0
 70
     1
  0
VERTEX
  5
4E8
330
4E7
100
AcDbEntity
  8
None
  6
Continuous
 62
     1
370
     5
100
AcDbVertex
100
AcDb2dVertex
 10
-812.3086343659223
 20
73.80367492503025
 30
0.0
  0
VERTEX
  5
4E9
330
4E7
100
AcDbEntity
  8
None
  6
Continuous
 62
     1
370
     5
100
AcDbVertex
100
AcDb2dVertex
 10
-835.4336343659223
 20
79.99999999999997
 30
0.0
  0
VERTEX
  5
4EA
330
4E7
100
AcDbEntity
  8
None
  6
Continuous
 62
     1
370
     5
100
AcDbVertex
100
AcDb2dVertex
 10
-812.3086343659223
 20
86.19632507496968
 30
0.0
  0
SEQEND
  5
4EB
330
4E7
100
AcDbEntity
  8
None
  6
Continuous
 62
     1
370
     5
  0
HATCH
  5
4EC
330
1F
100
AcDbEntity
  8
None
  6
Continuous
 62
     1
370
     0
100
AcDbHatch
 10
0.0
 20
0.0
 30
0.0
210
0.0
220
0.0
230
1.0
  2
SOLID
 70
     1
 71
     1
 91
        1
 92
        1
 93
        3
 72
     1
 10
-812.3086343659223
 20
73.80367492503025
 11
-835.4336343659223
 21
79.99999999999997
 72
     1
 10
-835.4336343659223
 20
79.99999999999997
 11
-812.3086343659223
 21
86.19632507496968
 72
     1
 10
-812.3086343659223
 20
86.19632507496968
 11
-812.3086343659223
 21
73.80367492503025
 97
        1
330
4E7
 75
     0
 76
     1
 98
        1
 10
0.0
 20
0.0
  0
INSERT
  5
4ED
330
1F
100
AcDbEntity
  8
None
 62
     7
100
AcDbBlockReference
  2
Group-12-1
 10
0.0
 20
0.0
 30
0.0
  0
INSERT
  5
4EE
330
1F
100
AcDbEntity
  8
None
 62
     7
100
AcDbBlockReference
  2
Group-16-1
 10
0.0
 20
0.0
 30
0.0
  0
WIPEOUT
  5
4EF
330
1F
100
AcDbEntity
  8
None
  6
Continuous
 62
     1
370
     9
 92
      152
310
98000000040000000C0000000E000000B20000000C00000016000000000000C20C00000014000000010000006C0000000700000004000000D085778F9A727FC044D5C15FE82C84400000000000000000D18577CFC00478C044D5C15FE82C84400000000000000000D18577CFC00478C044D5C15FE8E5844000000000000000
310
00D085778F9A727FC044D5C15FE8E584400000000000000000
100
AcDbWipeout
 90
        0
 10
-503.1627344769341
 20
645.613463892289
 30
0.0
 11
118.8656616210938
 21
0.0
 31
0.0
 12
0.0
 22
118.8656616210938
 32
0.0
 13
1.0
 23
1.0
340
0
 70
     4
280
     1
281
    50
282
    50
283
     0
360
0
 71
     2
 91
        5
 14
-0.4999999999999996
 24
0.5
 14
0.5
 24
0.5
 14
0.5
 24
0.3054526455780371
 14
-0.4999999999999996
 24
0.3054526455780371
 14
-0.4999999999999996
 24
0.5
  0
MTEXT
  5
4F0
330
1F
100
AcDbEntity
  8
None
 62
     1
100
AcDbMText
 10
-503.1627344769341
 20
667.5204455958842
 30
0.0
 40
16.58823170359519
 41
0.0
 71
     1
 72
     1
  1
12' Loading
  7
Helvetica
 73
     1
 44
0.8397955333929318
  0
VIEWPORT
  5
4F1
330
1B
100
AcDbEntity
 67
     1
  8
0
100
AcDbViewport
 10
5.25
 20
4.0
 30
0.0
 40
11.638
 41
8.993
 68
     1
 69
     1
 12
5.25
 22
4.0
 13
0.0
 23
0.0
 14
0.5
 24
0.5
 15
0.5
 25
0.5
 16
0.0
 26
0.0
 36
1.0
 17
0.0
 27
0.0
 37
0.0
 42
50.0
 43
0.0
 44
0.0
 45
8.993
 50
0.0
 51
0.0
 72
   100
 90
   557152
  1

281
     0
 71
     1
 74
     0
110
0.0
120
0.0
130
0.0
111
1.0
121
0.0
131
0.0
112
0.0
122
1.0
132
0.0
 79
     0
146
0.0
  0
ENDSEC
  0
SECTION
  2
OBJECTS
  0
DICTIONARY
  5
C
330
0
100
AcDbDictionary
281
     1
  3
ACAD_GROUP
350
D
  3
ACAD_LAYOUT
350
1A
  3
ACAD_MATERIAL
350
3B
  3
ACAD_MLEADERSTYLE
350
4F4
  3
ACAD_MLINESTYLE
350
17
  3
ACAD_PLOTSETTINGS
350
19
  3
ACAD_PLOTSTYLENAME
350
E
  3
ACAD_SCALELIST
350
1C6
  3
ACAD_VISUALSTYLE
350
2A
  3
ACAD_WIPEOUT_VARS
350
7B
  3
AcDbVariableDictionary
350
4F2
  0
DICTIONARY
  5
D
102
{ACAD_REACTORS
330
C
102
}
330
C
100
AcDbDictionary
281
     1
  0
DICTIONARY
  5
1A
102
{ACAD_REACTORS
330
C
102
}
330
C
100
AcDbDictionary
281
     1
  3
Layout1
350
1E
  3
Model
350
22
  0
DICTIONARY
  5
3B
102
{ACAD_REACTORS
330
C
102
}
330
C
100
AcDbDictionary
281
     1
  3
ByBlock
350
3D
  3
ByLayer
350
3C
  3
Global
350
3E
  0
DICTIONARY
  5
4F4
102
{ACAD_REACTORS
330
C
102
}
330
C
100
AcDbDictionary
281
     1
  0
DICTIONARY
  5
17
102
{ACAD_REACTORS
330
C
102
}
330
C
100
AcDbDictionary
281
     1
  3
Standard
350
18
  0
DICTIONARY
  5
19
102
{ACAD_REACTORS
330
C
102
}
330
C
100
AcDbDictionary
281
     1
  0
ACDBDICTIONARYWDFLT
  5
E
102
{ACAD_REACTORS
330
C
102
}
330
C
100
AcDbDictionary
281
     1
  3
Normal
350
F
100
AcDbDictionaryWithDefault
340
F
  0
DICTIONARY
  5
1C6
102
{ACAD_REACTORS
330
C
102
}
330
C
100
AcDbDictionary
281
     1
  3
A0
350
1C7
  3
A1
350
1C8
  3
A2
350
1C9
  3
A3
350
1CA
  3
A4
350
1CB
  3
A5
350
1CC
  3
A6
350
1CD
  3
A7
350
1CE
  3
A8
350
1CF
  3
A9
350
1D0
  3
B0
350
1D1
  3
B1
350
1D2
  3
B2
350
1D3
  3
B3
350
1D4
  3
B4
350
1D5
  3
B5
350
1D6
  3
B6
350
1D7
  3
B7
350
1D8
  3
B8
350
1D9
  3
B9
350
1DA
  3
C0
350
1DB
  3
C1
350
1DC
  3
C2
350
1DD
  3
C3
350
1DE
  3
C4
350
1DF
  3
C5
350
1E0
  3
C6
350
1E1
  3
C7
350
1E2
  3
C8
350
1E3
  3
C9
350
1E4
  3
D0
350
1E5
  3
D1
350
1E6
  3
D2
350
1E7
  0
DICTIONARY
  5
2A
102
{ACAD_REACTORS
330
C
102
}
330
C
100
AcDbDictionary
281
     1
  3
2dWireframe
350
2F
  3
3D Hidden
350
31
  3
3dWireframe
350
30
  3
Basic
350
32
  3
Brighten
350
36
  3
ColorChange
350
3A
  3
Conceptual
350
34
  3
Dim
350
35
  3
Facepattern
350
39
  3
Flat
350
2B
  3
FlatWithEdges
350
2C
  3
Gouraud
350
2D
  3
GouraudWithEdges
350
2E
  3
Linepattern
350
38
  3
Realistic
350
33
  3
Thicken
350
37
  0
WIPEOUTVARIABLES
  5
7B
102
{ACAD_REACTORS
330
C
102
}
330
C
100
AcDbWipeoutVariables
 70
     0
  0
DICTIONARY
  5
4F2
102
{ACAD_REACTORS
330
C
102
}
330
C
100
AcDbDictionary
281
     1
  3
CANNOSCALE
350
4F5
  3
DIMASSOC
350
4F6
  3
HIDETEXT
350
4F7
  0
LAYOUT
  5
1E
102
{ACAD_REACTORS
330
1A
102
}
330
1A
100
AcDbPlotSettings
  1

  2
none_device
  4
Letter_(8.50_x_11.00_Inches)
  6

 40
6.35
 41
6.35
 42
6.35001
 43
6.35001
 44
215.9
 45
279.4
 46
0.0
 47
0.0
 48
0.0
 49
0.0
140
0.0
141
0.0
142
1.0
143
1.0
 70
   688
 72
     0
 73
     1
 74
     5
  7

 75
    16
147
1.0
148
0.0
149
0.0
100
AcDbLayout
  1
Layout1
 70
     1
 71
     1
 10
-0.25
 20
-0.25
 11
10.75
 21
8.25
 12
0.0
 22
0.0
 32
0.0
 14
1.000000000000000E+20
 24
1.000000000000000E+20
 34
1.000000000000000E+20
 15
-1.000000000000000E+20
 25
-1.000000000000000E+20
 35
-1.000000000000000E+20
146
0.0
 13
0.0
 23
0.0
 33
0.0
 16
1.0
 26
0.0
 36
0.0
 17
0.0
 27
1.0
 37
0.0
 76
     0
330
1B
331
4F1
  0
LAYOUT
  5
22
102
{ACAD_REACTORS
330
1A
102
}
330
1A
100
AcDbPlotSettings
  1

  2
none_device
  4

  6

 40
0.0
 41
0.0
 42
0.0
 43
0.0
 44
0.0
 45
0.0
 46
0.0
 47
0.0
 48
0.0
 49
0.0
140
0.0
141
0.0
142
1.0
143
1.0
 70
  1712
 72
     0
 73
     0
 74
     0
  7

 75
     0
147
1.0
148
0.0
149
0.0
100
AcDbLayout
  1
Model
 70
     1
 71
     0
 10
0.0
 20
0.0
 11
12.0
 21
9.0
 12
0.0
 22
0.0
 32
0.0
 14
-1483.641732283465
 24
-923.1791338582677
 34
-15.2625
 15
1476.358267716535
 25
926.8208661417324
 35
15.2625
146
0.0
 13
0.0
 23
0.0
 33
0.0
 16
1.0
 26
0.0
 36
0.0
 17
0.0
 27
1.0
 37
0.0
 76
     0
330
1F
331
29
  0
MATERIAL
  5
3D
102
{ACAD_REACTORS
330
3B
102
}
102
{ACAD_XDICTIONARY
360
51A
102
}
330
3B
100
AcDbMaterial
  1
ByBlock
  0
MATERIAL
  5
3C
102
{ACAD_REACTORS
330
3B
102
}
102
{ACAD_XDICTIONARY
360
518
102
}
330
3B
100
AcDbMaterial
  1
ByLayer
  0
MATERIAL
  5
3E
102
{ACAD_REACTORS
330
3B
102
}
102
{ACAD_XDICTIONARY
360
51C
102
}
330
3B
100
AcDbMaterial
  1
Global
  0
MLINESTYLE
  5
18
102
{ACAD_REACTORS
330
17
102
}
330
17
100
AcDbMlineStyle
  2
Standard
 70
     0
  3

 62
   256
 51
90.0
 52
90.0
 71
     2
 49
0.5
 62
   256
  6
BYLAYER
 49
-0.5
 62
   256
  6
BYLAYER
  0
ACDBPLACEHOLDER
  5
F
102
{ACAD_REACTORS
330
E
102
}
330
E
  0
SCALE
  5
1C7
102
{ACAD_REACTORS
330
1C6
102
}
330
1C6
100
AcDbScale
 70
     0
300
1:1
140
1.0
141
1.0
290
     1
  0
SCALE
  5
1C8
102
{ACAD_REACTORS
330
1C6
102
}
330
1C6
100
AcDbScale
 70
     0
300
1:2
140
1.0
141
2.0
290
     0
  0
SCALE
  5
1C9
102
{ACAD_REACTORS
330
1C6
102
}
330
1C6
100
AcDbScale
 70
     0
300
1:4
140
1.0
141
4.0
290
     0
  0
SCALE
  5
1CA
102
{ACAD_REACTORS
330
1C6
102
}
330
1C6
100
AcDbScale
 70
     0
300
1:5
140
1.0
141
5.0
290
     0
  0
SCALE
  5
1CB
102
{ACAD_REACTORS
330
1C6
102
}
330
1C6
100
AcDbScale
 70
     0
300
1:8
140
1.0
141
8.0
290
     0
  0
SCALE
  5
1CC
102
{ACAD_REACTORS
330
1C6
102
}
330
1C6
100
AcDbScale
 70
     0
300
1:10
140
1.0
141
10.0
290
     0
  0
SCALE
  5
1CD
102
{ACAD_REACTORS
330
1C6
102
}
330
1C6
100
AcDbScale
 70
     0
300
1:16
140
1.0
141
16.0
290
     0
  0
SCALE
  5
1CE
102
{ACAD_REACTORS
330
1C6
102
}
330
1C6
100
AcDbScale
 70
     0
300
1:20
140
1.0
141
20.0
290
     0
  0
SCALE
  5
1CF
102
{ACAD_REACTORS
330
1C6
102
}
330
1C6
100
AcDbScale
 70
     0
300
1:30
140
1.0
141
30.0
290
     0
  0
SCALE
  5
1D0
102
{ACAD_REACTORS
330
1C6
102
}
330
1C6
100
AcDbScale
 70
     0
300
1:40
140
1.0
141
40.0
290
     0
  0
SCALE
  5
1D1
102
{ACAD_REACTORS
330
1C6
102
}
330
1C6
100
AcDbScale
 70
     0
300
1:50
140
1.0
141
50.0
290
     0
  0
SCALE
  5
1D2
102
{ACAD_REACTORS
330
1C6
102
}
330
1C6
100
AcDbScale
 70
     0
300
1:100
140
1.0
141
100.0
290
     0
  0
SCALE
  5
1D3
102
{ACAD_REACTORS
330
1C6
102
}
330
1C6
100
AcDbScale
 70
     0
300
2:1
140
2.0
141
1.0
290
     0
  0
SCALE
  5
1D4
102
{ACAD_REACTORS
330
1C6
102
}
330
1C6
100
AcDbScale
 70
     0
300
4:1
140
4.0
141
1.0
290
     0
  0
SCALE
  5
1D5
102
{ACAD_REACTORS
330
1C6
102
}
330
1C6
100
AcDbScale
 70
     0
300
8:1
140
8.0
141
1.0
290
     0
  0
SCALE
  5
1D6
102
{ACAD_REACTORS
330
1C6
102
}
330
1C6
100
AcDbScale
 70
     0
300
10:1
140
10.0
141
1.0
290
     0
  0
SCALE
  5
1D7
102
{ACAD_REACTORS
330
1C6
102
}
330
1C6
100
AcDbScale
 70
     0
300
100:1
140
100.0
141
1.0
290
     0
  0
SCALE
  5
1D8
102
{ACAD_REACTORS
330
1C6
102
}
330
1C6
100
AcDbScale
 70
     0
300
1/128" = 1'-0"
140
0.0078125
141
12.0
290
     0
  0
SCALE
  5
1D9
102
{ACAD_REACTORS
330
1C6
102
}
330
1C6
100
AcDbScale
 70
     0
300
1/64" = 1'-0"
140
0.015625
141
12.0
290
     0
  0
SCALE
  5
1DA
102
{ACAD_REACTORS
330
1C6
102
}
330
1C6
100
AcDbScale
 70
     0
300
1/32" = 1'-0"
140
0.03125
141
12.0
290
     0
  0
SCALE
  5
1DB
102
{ACAD_REACTORS
330
1C6
102
}
330
1C6
100
AcDbScale
 70
     0
300
1/16" = 1'-0"
140
0.0625
141
12.0
290
     0
  0
SCALE
  5
1DC
102
{ACAD_REACTORS
330
1C6
102
}
330
1C6
100
AcDbScale
 70
     0
300
3/32" = 1'-0"
140
0.09375
141
12.0
290
     0
  0
SCALE
  5
1DD
102
{ACAD_REACTORS
330
1C6
102
}
330
1C6
100
AcDbScale
 70
     0
300
1/8" = 1'-0"
140
0.125
141
12.0
290
     0
  0
SCALE
  5
1DE
102
{ACAD_REACTORS
330
1C6
102
}
330
1C6
100
AcDbScale
 70
     0
300
3/16" = 1'-0"
140
0.1875
141
12.0
290
     0
  0
SCALE
  5
1DF
102
{ACAD_REACTORS
330
1C6
102
}
330
1C6
100
AcDbScale
 70
     0
300
1/4" = 1'-0"
140
0.25
141
12.0
290
     0
  0
SCALE
  5
1E0
102
{ACAD_REACTORS
330
1C6
102
}
330
1C6
100
AcDbScale
 70
     0
300
3/8" = 1'-0"
140
0.375
141
12.0
290
     0
  0
SCALE
  5
1E1
102
{ACAD_REACTORS
330
1C6
102
}
330
1C6
100
AcDbScale
 70
     0
300
1/2" = 1'-0"
140
0.5
141
12.0
290
     0
  0
SCALE
  5
1E2
102
{ACAD_REACTORS
330
1C6
102
}
330
1C6
100
AcDbScale
 70
     0
300
3/4" = 1'-0"
140
0.75
141
12.0
290
     0
  0
SCALE
  5
1E3
102
{ACAD_REACTORS
330
1C6
102
}
330
1C6
100
AcDbScale
 70
     0
300
1" = 1'-0"
140
1.0
141
12.0
290
     0
  0
SCALE
  5
1E4
102
{ACAD_REACTORS
330
1C6
102
}
330
1C6
100
AcDbScale
 70
     0
300
1-1/2" = 1'-0"
140
1.5
141
12.0
290
     0
  0
SCALE
  5
1E5
102
{ACAD_REACTORS
330
1C6
102
}
330
1C6
100
AcDbScale
 70
     0
300
3" = 1'-0"
140
3.0
141
12.0
290
     0
  0
SCALE
  5
1E6
102
{ACAD_REACTORS
330
1C6
102
}
330
1C6
100
AcDbScale
 70
     0
300
6" = 1'-0"
140
6.0
141
12.0
290
     0
  0
SCALE
  5
1E7
102
{ACAD_REACTORS
330
1C6
102
}
330
1C6
100
AcDbScale
 70
     0
300
1'-0" = 1'-0"
140
12.0
141
12.0
290
     0
  0
VISUALSTYLE
  5
2F
102
{ACAD_REACTORS
330
2A
102
}
102
{ACAD_XDICTIONARY
360
500
102
}
330
2A
100
AcDbVisualStyle
  2
2dWireframe
 70
     4
 71
     0
 72
     2
 73
     0
 90
        0
 40
-0.6
 41
-30.0
 62
     5
 63
     7
 74
     1
 91
        4
 64
     7
 65
   257
 75
     1
175
     1
 42
1.0
 92
        0
 66
   257
 43
1.0
 76
     1
 77
     6
 78
     2
 67
     7
 79
     5
170
     0
171
     0
290
     0
174
     0
 93
        1
 44
0.0
173
     0
291
     0
 45
0.0
1001
ACAD
1000
AcDbSavedByObjectVersion
1070
     0
  0
VISUALSTYLE
  5
31
102
{ACAD_REACTORS
330
2A
102
}
102
{ACAD_XDICTIONARY
360
504
102
}
330
2A
100
AcDbVisualStyle
  2
3D Hidden
 70
     6
 71
     1
 72
     2
 73
     2
 90
        0
 40
-0.6
 41
-30.0
 62
     5
 63
     7
 74
     2
 91
        2
 64
     7
 65
   257
 75
     2
175
     1
 42
40.0
 92
        0
 66
   257
 43
1.0
 76
     1
 77
     6
 78
     2
 67
     7
 79
     3
170
     0
171
     0
290
     0
174
     0
 93
        1
 44
0.0
173
     0
291
     0
 45
0.0
1001
ACAD
1000
AcDbSavedByObjectVersion
1070
     0
  0
VISUALSTYLE
  5
30
102
{ACAD_REACTORS
330
2A
102
}
102
{ACAD_XDICTIONARY
360
502
102
}
330
2A
100
AcDbVisualStyle
  2
3dWireframe
 70
     5
 71
     0
 72
     2
 73
     0
 90
        0
 40
-0.6
 41
-30.0
 62
     5
 63
     7
 74
     1
 91
        4
 64
     7
 65
   257
 75
     1
175
     1
 42
1.0
 92
        0
 66
   257
 43
1.0
 76
     1
 77
     6
 78
     2
 67
     7
 79
     5
170
     0
171
     0
290
     0
174
     0
 93
        1
 44
0.0
173
     0
291
     0
 45
0.0
1001
ACAD
1000
AcDbSavedByObjectVersion
1070
     0
  0
VISUALSTYLE
  5
32
102
{ACAD_REACTORS
330
2A
102
}
102
{ACAD_XDICTIONARY
360
506
102
}
330
2A
100
AcDbVisualStyle
  2
Basic
 70
     7
 71
     1
 72
     0
 73
     1
 90
        0
 40
-0.6
 41
-30.0
 62
     5
 63
     7
 74
     0
 91
        4
 64
     7
 65
   257
 75
     1
175
     1
 42
1.0
 92
        8
 66
     7
 43
1.0
 76
     1
 77
     6
 78
     2
 67
     7
 79
     5
170
     0
171
     0
290
     0
174
     0
 93
        1
 44
0.0
173
     0
291
     1
 45
0.0
1001
ACAD
1000
AcDbSavedByObjectVersion
1070
     0
  0
VISUALSTYLE
  5
36
102
{ACAD_REACTORS
330
2A
102
}
102
{ACAD_XDICTIONARY
360
50E
102
}
330
2A
100
AcDbVisualStyle
  2
Brighten
 70
    12
 71
     2
 72
     2
 73
     0
 90
        0
 40
-0.6
 41
-30.0
 62
     5
 63
     7
 74
     1
 91
        4
 64
     7
 65
   257
 75
     1
175
     1
 42
1.0
 92
        8
 66
     7
 43
1.0
 76
     1
 77
     6
 78
     2
 67
     7
 79
     5
170
     0
171
     0
290
     0
174
     0
 93
        1
 44
50.0
173
     0
291
     1
 45
0.0
1001
ACAD
1000
AcDbSavedByObjectVersion
1070
     0
  0
VISUALSTYLE
  5
3A
102
{ACAD_REACTORS
330
2A
102
}
102
{ACAD_XDICTIONARY
360
516
102
}
330
2A
100
AcDbVisualStyle
  2
ColorChange
 70
    16
 71
     2
 72
     2
 73
     3
 90
        0
 40
-0.6
 41
-30.0
 62
     5
 63
     8
 74
     1
 91
        4
 64
     7
 65
   257
 75
     1
175
     1
 42
1.0
 92
        8
 66
     8
 43
1.0
 76
     1
 77
     6
 78
     2
 67
     7
 79
     5
170
     0
171
     0
290
     0
174
     0
 93
        1
 44
0.0
173
     0
291
     1
 45
0.0
1001
ACAD
1000
AcDbSavedByObjectVersion
1070
     0
  0
VISUALSTYLE
  5
34
102
{ACAD_REACTORS
330
2A
102
}
102
{ACAD_XDICTIONARY
360
50A
102
}
330
2A
100
AcDbVisualStyle
  2
Conceptual
 70
     9
 71
     3
 72
     2
 73
     0
 90
        0
 40
-0.6
 41
-30.0
 62
     5
 63
     7
 74
     2
 91
        2
 64
     7
 65
   257
 75
     1
175
     1
 42
40.0
 92
        8
 66
     7
 43
1.0
 76
     1
 77
     6
 78
     2
 67
     7
 79
     3
170
     0
171
     0
290
     0
174
     0
 93
        1
 44
0.0
173
     0
291
     0
 45
0.0
1001
ACAD
1000
AcDbSavedByObjectVersion
1070
     0
  0
VISUALSTYLE
  5
35
102
{ACAD_REACTORS
330
2A
102
}
102
{ACAD_XDICTIONARY
360
50C
102
}
330
2A
100
AcDbVisualStyle
  2
Dim
 70
    11
 71
     2
 72
     2
 73
     0
 90
        0
 40
-0.6
 41
-30.0
 62
     5
 63
     7
 74
     1
 91
        4
 64
     7
 65
   257
 75
     1
175
     1
 42
1.0
 92
        8
 66
     7
 43
1.0
 76
     1
 77
     6
 78
     2
 67
     7
 79
     5
170
     0
171
     0
290
     0
174
     0
 93
        1
 44
-50.0
173
     0
291
     1
 45
0.0
1001
ACAD
1000
AcDbSavedByObjectVersion
1070
     0
  0
VISUALSTYLE
  5
39
102
{ACAD_REACTORS
330
2A
102
}
102
{ACAD_XDICTIONARY
360
514
102
}
330
2A
100
AcDbVisualStyle
  2
Facepattern
 70
    15
 71
     2
 72
     2
 73
     0
 90
        0
 40
-0.6
 41
-30.0
 62
     5
 63
     7
 74
     1
 91
        4
 64
     7
 65
   257
 75
     1
175
     1
 42
1.0
 92
        8
 66
     7
 43
1.0
 76
     1
 77
     6
 78
     2
 67
     7
 79
     5
170
     0
171
     0
290
     0
174
     0
 93
        1
 44
0.0
173
     0
291
     1
 45
0.0
1001
ACAD
1000
AcDbSavedByObjectVersion
1070
     0
  0
VISUALSTYLE
  5
2B
102
{ACAD_REACTORS
330
2A
102
}
102
{ACAD_XDICTIONARY
360
4F8
102
}
330
2A
100
AcDbVisualStyle
  2
Flat
 70
     0
 71
     2
 72
     1
 73
     1
 90
        2
 40
-0.6
 41
30.0
 62
     5
 63
     7
 74
     0
 91
        4
 64
     7
 65
   257
 75
     1
175
     1
 42
1.0
 92
        8
 66
     7
 43
1.0
 76
     1
 77
     6
 78
     2
 67
     7
 79
     5
170
     0
171
     0
290
     0
174
     0
 93
       13
 44
0.0
173
     0
291
     1
 45
0.0
1001
ACAD
1000
AcDbSavedByObjectVersion
1070
     0
  0
VISUALSTYLE
  5
2C
102
{ACAD_REACTORS
330
2A
102
}
102
{ACAD_XDICTIONARY
360
4FA
102
}
330
2A
100
AcDbVisualStyle
  2
FlatWithEdges
 70
     1
 71
     2
 72
     1
 73
     1
 90
        2
 40
-0.6
 41
30.0
 62
     5
 63
     7
 74
     1
 91
        4
 64
     7
 65
   257
 75
     1
175
     1
 42
1.0
 92
        0
 66
   257
 43
1.0
 76
     1
 77
     6
 78
     2
 67
     7
 79
     5
170
     0
171
     0
290
     0
174
     0
 93
       13
 44
0.0
173
     0
291
     1
 45
0.0
1001
ACAD
1000
AcDbSavedByObjectVersion
1070
     0
  0
VISUALSTYLE
  5
2D
102
{ACAD_REACTORS
330
2A
102
}
102
{ACAD_XDICTIONARY
360
4FC
102
}
330
2A
100
AcDbVisualStyle
  2
Gouraud
 70
     2
 71
     2
 72
     2
 73
     1
 90
        2
 40
-0.6
 41
30.0
 62
     5
 63
     7
 74
     0
 91
        4
 64
     7
 65
   257
 75
     1
175
     1
 42
1.0
 92
        0
 66
     7
 43
1.0
 76
     1
 77
     6
 78
     2
 67
     7
 79
     5
170
     0
171
     0
290
     0
174
     0
 93
       13
 44
0.0
173
     0
291
     1
 45
0.0
1001
ACAD
1000
AcDbSavedByObjectVersion
1070
     0
  0
VISUALSTYLE
  5
2E
102
{ACAD_REACTORS
330
2A
102
}
102
{ACAD_XDICTIONARY
360
4FE
102
}
330
2A
100
AcDbVisualStyle
  2
GouraudWithEdges
 70
     3
 71
     2
 72
     2
 73
     1
 90
        2
 40
-0.6
 41
30.0
 62
     5
 63
     7
 74
     1
 91
        4
 64
     7
 65
   257
 75
     1
175
     1
 42
1.0
 92
        0
 66
   257
 43
1.0
 76
     1
 77
     6
 78
     2
 67
     7
 79
     5
170
     0
171
     0
290
     0
174
     0
 93
       13
 44
0.0
173
     0
291
     1
 45
0.0
1001
ACAD
1000
AcDbSavedByObjectVersion
1070
     0
  0
VISUALSTYLE
  5
38
102
{ACAD_REACTORS
330
2A
102
}
102
{ACAD_XDICTIONARY
360
512
102
}
330
2A
100
AcDbVisualStyle
  2
Linepattern
 70
    14
 71
     2
 72
     2
 73
     0
 90
        0
 40
-0.6
 41
-30.0
 62
     5
 63
     7
 74
     1
 91
        4
 64
     7
 65
   257
 75
     7
175
     7
 42
1.0
 92
        8
 66
     7
 43
1.0
 76
     1
 77
     6
 78
     2
 67
     7
 79
     5
170
     0
171
     0
290
     0
174
     0
 93
        1
 44
0.0
173
     0
291
     1
 45
0.0
1001
ACAD
1000
AcDbSavedByObjectVersion
1070
     0
  0
VISUALSTYLE
  5
33
102
{ACAD_REACTORS
330
2A
102
}
102
{ACAD_XDICTIONARY
360
508
102
}
330
2A
100
AcDbVisualStyle
  2
Realistic
 70
     8
 71
     2
 72
     2
 73
     0
 90
        0
 40
-0.6
 41
-30.0
 62
     5
 63
     7
 74
     1
 91
        0
 64
     7
 65
   257
 75
     1
175
     1
 42
1.0
 92
        8
 66
     8
 43
1.0
 76
     1
 77
     6
 78
     2
 67
     7
 79
     5
170
     0
171
     0
290
     0
174
     0
 93
       13
 44
0.0
173
     0
291
     0
 45
0.0
1001
ACAD
1000
AcDbSavedByObjectVersion
1070
     0
  0
VISUALSTYLE
  5
37
102
{ACAD_REACTORS
330
2A
102
}
102
{ACAD_XDICTIONARY
360
510
102
}
330
2A
100
AcDbVisualStyle
  2
Thicken
 70
    13
 71
     2
 72
     2
 73
     0
 90
        0
 40
-0.6
 41
-30.0
 62
     5
 63
     7
 74
     1
 91
        4
 64
     7
 65
   257
 75
     1
175
     1
 42
1.0
 92
       12
 66
     7
 43
1.0
 76
     1
 77
     6
 78
     2
 67
     7
 79
     5
170
     0
171
     0
290
     0
174
     0
 93
        1
 44
0.0
173
     0
291
     1
 45
0.0
1001
ACAD
1000
AcDbSavedByObjectVersion
1070
     0
  0
DICTIONARYVAR
  5
4F5
102
{ACAD_REACTORS
330
4F2
102
}
330
4F2
100
DictionaryVariables
280
     0
  1
1:1
  0
DICTIONARYVAR
  5
4F6
102
{ACAD_REACTORS
330
4F2
102
}
330
4F2
100
DictionaryVariables
280
     0
  1
2
  0
DICTIONARYVAR
  5
4F7
102
{ACAD_REACTORS
330
4F2
102
}
330
4F2
100
DictionaryVariables
280
     0
  1
1
  0
DICTIONARY
  5
51A
330
3D
100
AcDbDictionary
280
     1
281
     1
  3
ACAD_XREC_ROUNDTRIP
360
51B
  0
DICTIONARY
  5
518
330
3C
100
AcDbDictionary
280
     1
281
     1
  3
ACAD_XREC_ROUNDTRIP
360
519
  0
DICTIONARY
  5
51C
330
3E
100
AcDbDictionary
280
     1
281
     1
  3
ACAD_XREC_ROUNDTRIP
360
51D
  0
DICTIONARY
  5
500
330
2F
100
AcDbDictionary
280
     1
281
     1
  3
ACAD_XREC_ROUNDTRIP
360
501
  0
DICTIONARY
  5
504
330
31
100
AcDbDictionary
280
     1
281
     1
  3
ACAD_XREC_ROUNDTRIP
360
505
  0
DICTIONARY
  5
502
330
30
100
AcDbDictionary
280
     1
281
     1
  3
ACAD_XREC_ROUNDTRIP
360
503
  0
DICTIONARY
  5
506
330
32
100
AcDbDictionary
280
     1
281
     1
  3
ACAD_XREC_ROUNDTRIP
360
507
  0
DICTIONARY
  5
50E
330
36
100
AcDbDictionary
280
     1
281
     1
  3
ACAD_XREC_ROUNDTRIP
360
50F
  0
DICTIONARY
  5
516
330
3A
100
AcDbDictionary
280
     1
281
     1
  3
ACAD_XREC_ROUNDTRIP
360
517
  0
DICTIONARY
  5
50A
330
34
100
AcDbDictionary
280
     1
281
     1
  3
ACAD_XREC_ROUNDTRIP
360
50B
  0
DICTIONARY
  5
50C
330
35
100
AcDbDictionary
280
     1
281
     1
  3
ACAD_XREC_ROUNDTRIP
360
50D
  0
DICTIONARY
  5
514
330
39
100
AcDbDictionary
280
     1
281
     1
  3
ACAD_XREC_ROUNDTRIP
360
515
  0
DICTIONARY
  5
4F8
330
2B
100
AcDbDictionary
280
     1
281
     1
  3
ACAD_XREC_ROUNDTRIP
360
4F9
  0
DICTIONARY
  5
4FA
330
2C
100
AcDbDictionary
280
     1
281
     1
  3
ACAD_XREC_ROUNDTRIP
360
4FB
  0
DICTIONARY
  5
4FC
330
2D
100
AcDbDictionary
280
     1
281
     1
  3
ACAD_XREC_ROUNDTRIP
360
4FD
  0
DICTIONARY
  5
4FE
330
2E
100
AcDbDictionary
280
     1
281
     1
  3
ACAD_XREC_ROUNDTRIP
360
4FF
  0
DICTIONARY
  5
512
330
38
100
AcDbDictionary
280
     1
281
     1
  3
ACAD_XREC_ROUNDTRIP
360
513
  0
DICTIONARY
  5
508
330
33
100
AcDbDictionary
280
     1
281
     1
  3
ACAD_XREC_ROUNDTRIP
360
509
  0
DICTIONARY
  5
510
330
37
100
AcDbDictionary
280
     1
281
     1
  3
ACAD_XREC_ROUNDTRIP
360
511
  0
XRECORD
  5
51B
102
{ACAD_REACTORS
330
51A
102
}
330
51A
100
AcDbXrecord
280
     1
102
MATERIAL
148
0.0
149
0.0
149
0.0
 93
        0
 94
      127
282
     0
 72
     1
 77
     1
171
     1
175
     1
179
     1
273
     0
  0
XRECORD
  5
519
102
{ACAD_REACTORS
330
518
102
}
330
518
100
AcDbXrecord
280
     1
102
MATERIAL
148
0.0
149
0.0
149
0.0
 93
        0
 94
      127
282
     0
 72
     1
 77
     1
171
     1
175
     1
179
     1
273
     0
  0
XRECORD
  5
51D
102
{ACAD_REACTORS
330
51C
102
}
330
51C
100
AcDbXrecord
280
     1
102
MATERIAL
148
0.0
149
0.0
149
0.0
 93
        0
 94
      127
282
     0
 72
     1
 77
     1
171
     1
175
     1
179
     1
273
     0
  0
XRECORD
  5
501
102
{ACAD_REACTORS
330
500
102
}
330
500
100
AcDbXrecord
280
     1
102
RTVSPropertyOp0
 70
     1
102
RTVSPropertyOp1
 70
     1
102
RTVSPropertyOp2
 70
     1
102
RTVSPropertyOp3
 70
     1
102
RTVSPropertyOp4
 70
     1
102
RTVSPropertyOp5
 70
     1
102
RTVSPropertyOp6
 70
     1
102
RTVSPropertyOp7
 70
     1
102
RTVSPropertyOp8
 70
     1
102
RTVSPropertyOp9
 70
     1
102
RTVSPropertyOp10
 70
     1
102
RTVSPropertyOp11
 70
     1
102
RTVSPropertyOp12
 70
     1
102
RTVSPropertyOp13
 70
     1
102
RTVSPropertyOp14
 70
     1
102
RTVSPropertyOp15
 70
     1
102
RTVSPropertyOp16
 70
     1
102
RTVSPropertyOp17
 70
     1
102
RTVSPropertyOp18
 70
     1
102
RTVSPropertyOp19
 70
     1
102
RTVSPropertyOp20
 70
     1
102
RTVSPropertyOp21
 70
     1
102
RTVSPropertyOp22
 70
     1
102
RTVSPropertyOp23
 70
     1
102
RTVSPropertyOp24
 70
     1
102
RTVSPropertyOp25
 70
     1
102
RTVSPropertyOp26
 70
     1
102
RTVSPropertyOp27
 70
     1
  0
XRECORD
  5
505
102
{ACAD_REACTORS
330
504
102
}
330
504
100
AcDbXrecord
280
     1
102
RTVSPropertyOp0
 70
     1
102
RTVSPropertyOp1
 70
     1
102
RTVSPropertyOp2
 70
     1
102
RTVSPropertyOp3
 70
     1
102
RTVSPropertyOp4
 70
     1
102
RTVSPropertyOp5
 70
     1
102
RTVSPropertyOp6
 70
     1
102
RTVSPropertyOp7
 70
     1
102
RTVSPropertyOp8
 70
     1
102
RTVSPropertyOp9
 70
     1
102
RTVSPropertyOp10
 70
     1
102
RTVSPropertyOp11
 70
     1
102
RTVSPropertyOp12
 70
     1
102
RTVSPropertyOp13
 70
     1
102
RTVSPropertyOp14
 70
     1
102
RTVSPropertyOp15
 70
     1
102
RTVSPropertyOp16
 70
     1
102
RTVSPropertyOp17
 70
     1
102
RTVSPropertyOp18
 70
     1
102
RTVSPropertyOp19
 70
     1
102
RTVSPropertyOp20
 70
     1
102
RTVSPropertyOp21
 70
     1
102
RTVSPropertyOp22
 70
     1
102
RTVSPropertyOp23
 70
     1
102
RTVSPropertyOp24
 70
     1
102
RTVSPropertyOp25
 70
     1
102
RTVSPropertyOp26
 70
     1
102
RTVSPropertyOp27
 70
     1
  0
XRECORD
  5
503
102
{ACAD_REACTORS
330
502
102
}
330
502
100
AcDbXrecord
280
     1
102
RTVSPropertyOp0
 70
     1
102
RTVSPropertyOp1
 70
     1
102
RTVSPropertyOp2
 70
     1
102
RTVSPropertyOp3
 70
     1
102
RTVSPropertyOp4
 70
     1
102
RTVSPropertyOp5
 70
     1
102
RTVSPropertyOp6
 70
     1
102
RTVSPropertyOp7
 70
     1
102
RTVSPropertyOp8
 70
     1
102
RTVSPropertyOp9
 70
     1
102
RTVSPropertyOp10
 70
     1
102
RTVSPropertyOp11
 70
     1
102
RTVSPropertyOp12
 70
     1
102
RTVSPropertyOp13
 70
     1
102
RTVSPropertyOp14
 70
     1
102
RTVSPropertyOp15
 70
     1
102
RTVSPropertyOp16
 70
     1
102
RTVSPropertyOp17
 70
     1
102
RTVSPropertyOp18
 70
     1
102
RTVSPropertyOp19
 70
     1
102
RTVSPropertyOp20
 70
     1
102
RTVSPropertyOp21
 70
     1
102
RTVSPropertyOp22
 70
     1
102
RTVSPropertyOp23
 70
     1
102
RTVSPropertyOp24
 70
     1
102
RTVSPropertyOp25
 70
     1
102
RTVSPropertyOp26
 70
     1
102
RTVSPropertyOp27
 70
     1
  0
XRECORD
  5
507
102
{ACAD_REACTORS
330
506
102
}
330
506
100
AcDbXrecord
280
     1
102
RTVSPropertyOp0
 70
     1
102
RTVSPropertyOp1
 70
     1
102
RTVSPropertyOp2
 70
     1
102
RTVSPropertyOp3
 70
     1
102
RTVSPropertyOp4
 70
     1
102
RTVSPropertyOp5
 70
     1
102
RTVSPropertyOp6
 70
     1
102
RTVSPropertyOp7
 70
     1
102
RTVSPropertyOp8
 70
     1
102
RTVSPropertyOp9
 70
     1
102
RTVSPropertyOp10
 70
     1
102
RTVSPropertyOp11
 70
     1
102
RTVSPropertyOp12
 70
     1
102
RTVSPropertyOp13
 70
     1
102
RTVSPropertyOp14
 70
     1
102
RTVSPropertyOp15
 70
     1
102
RTVSPropertyOp16
 70
     1
102
RTVSPropertyOp17
 70
     1
102
RTVSPropertyOp18
 70
     1
102
RTVSPropertyOp19
 70
     1
102
RTVSPropertyOp20
 70
     1
102
RTVSPropertyOp21
 70
     1
102
RTVSPropertyOp22
 70
     1
102
RTVSPropertyOp23
 70
     1
102
RTVSPropertyOp24
 70
     1
102
RTVSPropertyOp25
 70
     1
102
RTVSPropertyOp26
 70
     1
102
RTVSPropertyOp27
 70
     1
  0
XRECORD
  5
50F
102
{ACAD_REACTORS
330
50E
102
}
330
50E
100
AcDbXrecord
280
     1
102
RTVSPropertyOp0
 70
     1
102
RTVSPropertyOp1
 70
     1
102
RTVSPropertyOp2
 70
     1
102
RTVSPropertyOp3
 70
     1
102
RTVSPropertyOp4
 70
     1
102
RTVSPropertyOp5
 70
     1
102
RTVSPropertyOp6
 70
     1
102
RTVSPropertyOp7
 70
     1
102
RTVSPropertyOp8
 70
     1
102
RTVSPropertyOp9
 70
     1
102
RTVSPropertyOp10
 70
     1
102
RTVSPropertyOp11
 70
     1
102
RTVSPropertyOp12
 70
     1
102
RTVSPropertyOp13
 70
     1
102
RTVSPropertyOp14
 70
     1
102
RTVSPropertyOp15
 70
     1
102
RTVSPropertyOp16
 70
     1
102
RTVSPropertyOp17
 70
     1
102
RTVSPropertyOp18
 70
     1
102
RTVSPropertyOp19
 70
     1
102
RTVSPropertyOp20
 70
     1
102
RTVSPropertyOp21
 70
     1
102
RTVSPropertyOp22
 70
     1
102
RTVSPropertyOp23
 70
     1
102
RTVSPropertyOp24
 70
     1
102
RTVSPropertyOp25
 70
     1
102
RTVSPropertyOp26
 70
     1
102
RTVSPropertyOp27
 70
     1
  0
XRECORD
  5
517
102
{ACAD_REACTORS
330
516
102
}
330
516
100
AcDbXrecord
280
     1
102
RTVSPropertyOp0
 70
     1
102
RTVSPropertyOp1
 70
     1
102
RTVSPropertyOp2
 70
     1
102
RTVSPropertyOp3
 70
     1
102
RTVSPropertyOp4
 70
     1
102
RTVSPropertyOp5
 70
     1
102
RTVSPropertyOp6
 70
     1
102
RTVSPropertyOp7
 70
     1
102
RTVSPropertyOp8
 70
     1
102
RTVSPropertyOp9
 70
     1
102
RTVSPropertyOp10
 70
     1
102
RTVSPropertyOp11
 70
     1
102
RTVSPropertyOp12
 70
     1
102
RTVSPropertyOp13
 70
     1
102
RTVSPropertyOp14
 70
     1
102
RTVSPropertyOp15
 70
     1
102
RTVSPropertyOp16
 70
     1
102
RTVSPropertyOp17
 70
     1
102
RTVSPropertyOp18
 70
     1
102
RTVSPropertyOp19
 70
     1
102
RTVSPropertyOp20
 70
     1
102
RTVSPropertyOp21
 70
     1
102
RTVSPropertyOp22
 70
     1
102
RTVSPropertyOp23
 70
     1
102
RTVSPropertyOp24
 70
     1
102
RTVSPropertyOp25
 70
     1
102
RTVSPropertyOp26
 70
     1
102
RTVSPropertyOp27
 70
     1
  0
XRECORD
  5
50B
102
{ACAD_REACTORS
330
50A
102
}
330
50A
100
AcDbXrecord
280
     1
102
RTVSPropertyOp0
 70
     1
102
RTVSPropertyOp1
 70
     1
102
RTVSPropertyOp2
 70
     1
102
RTVSPropertyOp3
 70
     1
102
RTVSPropertyOp4
 70
     1
102
RTVSPropertyOp5
 70
     1
102
RTVSPropertyOp6
 70
     1
102
RTVSPropertyOp7
 70
     1
102
RTVSPropertyOp8
 70
     1
102
RTVSPropertyOp9
 70
     1
102
RTVSPropertyOp10
 70
     1
102
RTVSPropertyOp11
 70
     1
102
RTVSPropertyOp12
 70
     1
102
RTVSPropertyOp13
 70
     1
102
RTVSPropertyOp14
 70
     1
102
RTVSPropertyOp15
 70
     1
102
RTVSPropertyOp16
 70
     1
102
RTVSPropertyOp17
 70
     1
102
RTVSPropertyOp18
 70
     1
102
RTVSPropertyOp19
 70
     1
102
RTVSPropertyOp20
 70
     1
102
RTVSPropertyOp21
 70
     1
102
RTVSPropertyOp22
 70
     1
102
RTVSPropertyOp23
 70
     1
102
RTVSPropertyOp24
 70
     1
102
RTVSPropertyOp25
 70
     1
102
RTVSPropertyOp26
 70
     1
102
RTVSPropertyOp27
 70
     1
  0
XRECORD
  5
50D
102
{ACAD_REACTORS
330
50C
102
}
330
50C
100
AcDbXrecord
280
     1
102
RTVSPropertyOp0
 70
     1
102
RTVSPropertyOp1
 70
     1
102
RTVSPropertyOp2
 70
     1
102
RTVSPropertyOp3
 70
     1
102
RTVSPropertyOp4
 70
     1
102
RTVSPropertyOp5
 70
     1
102
RTVSPropertyOp6
 70
     1
102
RTVSPropertyOp7
 70
     1
102
RTVSPropertyOp8
 70
     1
102
RTVSPropertyOp9
 70
     1
102
RTVSPropertyOp10
 70
     1
102
RTVSPropertyOp11
 70
     1
102
RTVSPropertyOp12
 70
     1
102
RTVSPropertyOp13
 70
     1
102
RTVSPropertyOp14
 70
     1
102
RTVSPropertyOp15
 70
     1
102
RTVSPropertyOp16
 70
     1
102
RTVSPropertyOp17
 70
     1
102
RTVSPropertyOp18
 70
     1
102
RTVSPropertyOp19
 70
     1
102
RTVSPropertyOp20
 70
     1
102
RTVSPropertyOp21
 70
     1
102
RTVSPropertyOp22
 70
     1
102
RTVSPropertyOp23
 70
     1
102
RTVSPropertyOp24
 70
     1
102
RTVSPropertyOp25
 70
     1
102
RTVSPropertyOp26
 70
     1
102
RTVSPropertyOp27
 70
     1
  0
XRECORD
  5
515
102
{ACAD_REACTORS
330
514
102
}
330
514
100
AcDbXrecord
280
     1
102
RTVSPropertyOp0
 70
     1
102
RTVSPropertyOp1
 70
     1
102
RTVSPropertyOp2
 70
     1
102
RTVSPropertyOp3
 70
     1
102
RTVSPropertyOp4
 70
     1
102
RTVSPropertyOp5
 70
     1
102
RTVSPropertyOp6
 70
     1
102
RTVSPropertyOp7
 70
     1
102
RTVSPropertyOp8
 70
     1
102
RTVSPropertyOp9
 70
     1
102
RTVSPropertyOp10
 70
     1
102
RTVSPropertyOp11
 70
     1
102
RTVSPropertyOp12
 70
     1
102
RTVSPropertyOp13
 70
     1
102
RTVSPropertyOp14
 70
     1
102
RTVSPropertyOp15
 70
     1
102
RTVSPropertyOp16
 70
     1
102
RTVSPropertyOp17
 70
     1
102
RTVSPropertyOp18
 70
     1
102
RTVSPropertyOp19
 70
     1
102
RTVSPropertyOp20
 70
     1
102
RTVSPropertyOp21
 70
     1
102
RTVSPropertyOp22
 70
     1
102
RTVSPropertyOp23
 70
     1
102
RTVSPropertyOp24
 70
     1
102
RTVSPropertyOp25
 70
     1
102
RTVSPropertyOp26
 70
     1
102
RTVSPropertyOp27
 70
     1
  0
XRECORD
  5
4F9
102
{ACAD_REACTORS
330
4F8
102
}
330
4F8
100
AcDbXrecord
280
     1
102
RTVSPropertyOp0
 70
     1
102
RTVSPropertyOp1
 70
     1
102
RTVSPropertyOp2
 70
     1
102
RTVSPropertyOp3
 70
     1
102
RTVSPropertyOp4
 70
     1
102
RTVSPropertyOp5
 70
     1
102
RTVSPropertyOp6
 70
     1
102
RTVSPropertyOp7
 70
     1
102
RTVSPropertyOp8
 70
     1
102
RTVSPropertyOp9
 70
     1
102
RTVSPropertyOp10
 70
     1
102
RTVSPropertyOp11
 70
     1
102
RTVSPropertyOp12
 70
     1
102
RTVSPropertyOp13
 70
     1
102
RTVSPropertyOp14
 70
     1
102
RTVSPropertyOp15
 70
     1
102
RTVSPropertyOp16
 70
     1
102
RTVSPropertyOp17
 70
     1
102
RTVSPropertyOp18
 70
     1
102
RTVSPropertyOp19
 70
     1
102
RTVSPropertyOp20
 70
     1
102
RTVSPropertyOp21
 70
     1
102
RTVSPropertyOp22
 70
     1
102
RTVSPropertyOp23
 70
     1
102
RTVSPropertyOp24
 70
     1
102
RTVSPropertyOp25
 70
     1
102
RTVSPropertyOp26
 70
     1
102
RTVSPropertyOp27
 70
     1
  0
XRECORD
  5
4FB
102
{ACAD_REACTORS
330
4FA
102
}
330
4FA
100
AcDbXrecord
280
     1
102
RTVSPropertyOp0
 70
     1
102
RTVSPropertyOp1
 70
     1
102
RTVSPropertyOp2
 70
     1
102
RTVSPropertyOp3
 70
     1
102
RTVSPropertyOp4
 70
     1
102
RTVSPropertyOp5
 70
     1
102
RTVSPropertyOp6
 70
     1
102
RTVSPropertyOp7
 70
     1
102
RTVSPropertyOp8
 70
     1
102
RTVSPropertyOp9
 70
     1
102
RTVSPropertyOp10
 70
     1
102
RTVSPropertyOp11
 70
     1
102
RTVSPropertyOp12
 70
     1
102
RTVSPropertyOp13
 70
     1
102
RTVSPropertyOp14
 70
     1
102
RTVSPropertyOp15
 70
     1
102
RTVSPropertyOp16
 70
     1
102
RTVSPropertyOp17
 70
     1
102
RTVSPropertyOp18
 70
     1
102
RTVSPropertyOp19
 70
     1
102
RTVSPropertyOp20
 70
     1
102
RTVSPropertyOp21
 70
     1
102
RTVSPropertyOp22
 70
     1
102
RTVSPropertyOp23
 70
     1
102
RTVSPropertyOp24
 70
     1
102
RTVSPropertyOp25
 70
     1
102
RTVSPropertyOp26
 70
     1
102
RTVSPropertyOp27
 70
     1
  0
XRECORD
  5
4FD
102
{ACAD_REACTORS
330
4FC
102
}
330
4FC
100
AcDbXrecord
280
     1
102
RTVSPropertyOp0
 70
     1
102
RTVSPropertyOp1
 70
     1
102
RTVSPropertyOp2
 70
     1
102
RTVSPropertyOp3
 70
     1
102
RTVSPropertyOp4
 70
     1
102
RTVSPropertyOp5
 70
     1
102
RTVSPropertyOp6
 70
     1
102
RTVSPropertyOp7
 70
     1
102
RTVSPropertyOp8
 70
     1
102
RTVSPropertyOp9
 70
     1
102
RTVSPropertyOp10
 70
     1
102
RTVSPropertyOp11
 70
     1
102
RTVSPropertyOp12
 70
     1
102
RTVSPropertyOp13
 70
     1
102
RTVSPropertyOp14
 70
     1
102
RTVSPropertyOp15
 70
     1
102
RTVSPropertyOp16
 70
     1
102
RTVSPropertyOp17
 70
     1
102
RTVSPropertyOp18
 70
     1
102
RTVSPropertyOp19
 70
     1
102
RTVSPropertyOp20
 70
     1
102
RTVSPropertyOp21
 70
     1
102
RTVSPropertyOp22
 70
     1
102
RTVSPropertyOp23
 70
     1
102
RTVSPropertyOp24
 70
     1
102
RTVSPropertyOp25
 70
     1
102
RTVSPropertyOp26
 70
     1
102
RTVSPropertyOp27
 70
     1
  0
XRECORD
  5
4FF
102
{ACAD_REACTORS
330
4FE
102
}
330
4FE
100
AcDbXrecord
280
     1
102
RTVSPropertyOp0
 70
     1
102
RTVSPropertyOp1
 70
     1
102
RTVSPropertyOp2
 70
     1
102
RTVSPropertyOp3
 70
     1
102
RTVSPropertyOp4
 70
     1
102
RTVSPropertyOp5
 70
     1
102
RTVSPropertyOp6
 70
     1
102
RTVSPropertyOp7
 70
     1
102
RTVSPropertyOp8
 70
     1
102
RTVSPropertyOp9
 70
     1
102
RTVSPropertyOp10
 70
     1
102
RTVSPropertyOp11
 70
     1
102
RTVSPropertyOp12
 70
     1
102
RTVSPropertyOp13
 70
     1
102
RTVSPropertyOp14
 70
     1
102
RTVSPropertyOp15
 70
     1
102
RTVSPropertyOp16
 70
     1
102
RTVSPropertyOp17
 70
     1
102
RTVSPropertyOp18
 70
     1
102
RTVSPropertyOp19
 70
     1
102
RTVSPropertyOp20
 70
     1
102
RTVSPropertyOp21
 70
     1
102
RTVSPropertyOp22
 70
     1
102
RTVSPropertyOp23
 70
     1
102
RTVSPropertyOp24
 70
     1
102
RTVSPropertyOp25
 70
     1
102
RTVSPropertyOp26
 70
     1
102
RTVSPropertyOp27
 70
     1
  0
XRECORD
  5
513
102
{ACAD_REACTORS
330
512
102
}
330
512
100
AcDbXrecord
280
     1
102
RTVSPropertyOp0
 70
     1
102
RTVSPropertyOp1
 70
     1
102
RTVSPropertyOp2
 70
     1
102
RTVSPropertyOp3
 70
     1
102
RTVSPropertyOp4
 70
     1
102
RTVSPropertyOp5
 70
     1
102
RTVSPropertyOp6
 70
     1
102
RTVSPropertyOp7
 70
     1
102
RTVSPropertyOp8
 70
     1
102
RTVSPropertyOp9
 70
     1
102
RTVSPropertyOp10
 70
     1
102
RTVSPropertyOp11
 70
     1
102
RTVSPropertyOp12
 70
     1
102
RTVSPropertyOp13
 70
     1
102
RTVSPropertyOp14
 70
     1
102
RTVSPropertyOp15
 70
     1
102
RTVSPropertyOp16
 70
     1
102
RTVSPropertyOp17
 70
     1
102
RTVSPropertyOp18
 70
     1
102
RTVSPropertyOp19
 70
     1
102
RTVSPropertyOp20
 70
     1
102
RTVSPropertyOp21
 70
     1
102
RTVSPropertyOp22
 70
     1
102
RTVSPropertyOp23
 70
     1
102
RTVSPropertyOp24
 70
     1
102
RTVSPropertyOp25
 70
     1
102
RTVSPropertyOp26
 70
     1
102
RTVSPropertyOp27
 70
     1
  0
XRECORD
  5
509
102
{ACAD_REACTORS
330
508
102
}
330
508
100
AcDbXrecord
280
     1
102
RTVSPropertyOp0
 70
     1
102
RTVSPropertyOp1
 70
     1
102
RTVSPropertyOp2
 70
     1
102
RTVSPropertyOp3
 70
     1
102
RTVSPropertyOp4
 70
     1
102
RTVSPropertyOp5
 70
     1
102
RTVSPropertyOp6
 70
     1
102
RTVSPropertyOp7
 70
     1
102
RTVSPropertyOp8
 70
     1
102
RTVSPropertyOp9
 70
     1
102
RTVSPropertyOp10
 70
     1
102
RTVSPropertyOp11
 70
     1
102
RTVSPropertyOp12
 70
     1
102
RTVSPropertyOp13
 70
     1
102
RTVSPropertyOp14
 70
     1
102
RTVSPropertyOp15
 70
     1
102
RTVSPropertyOp16
 70
     1
102
RTVSPropertyOp17
 70
     1
102
RTVSPropertyOp18
 70
     1
102
RTVSPropertyOp19
 70
     1
102
RTVSPropertyOp20
 70
     1
102
RTVSPropertyOp21
 70
     1
102
RTVSPropertyOp22
 70
     1
102
RTVSPropertyOp23
 70
     1
102
RTVSPropertyOp24
 70
     1
102
RTVSPropertyOp25
 70
     1
102
RTVSPropertyOp26
 70
     1
102
RTVSPropertyOp27
 70
     1
  0
XRECORD
  5
511
102
{ACAD_REACTORS
330
510
102
}
330
510
100
AcDbXrecord
280
     1
102
RTVSPropertyOp0
 70
     1
102
RTVSPropertyOp1
 70
     1
102
RTVSPropertyOp2
 70
     1
102
RTVSPropertyOp3
 70
     1
102
RTVSPropertyOp4
 70
     1
102
RTVSPropertyOp5
 70
     1
102
RTVSPropertyOp6
 70
     1
102
RTVSPropertyOp7
 70
     1
102
RTVSPropertyOp8
 70
     1
102
RTVSPropertyOp9
 70
     1
102
RTVSPropertyOp10
 70
     1
102
RTVSPropertyOp11
 70
     1
102
RTVSPropertyOp12
 70
     1
102
RTVSPropertyOp13
 70
     1
102
RTVSPropertyOp14
 70
     1
102
RTVSPropertyOp15
 70
     1
102
RTVSPropertyOp16
 70
     1
102
RTVSPropertyOp17
 70
     1
102
RTVSPropertyOp18
 70
     1
102
RTVSPropertyOp19
 70
     1
102
RTVSPropertyOp20
 70
     1
102
RTVSPropertyOp21
 70
     1
102
RTVSPropertyOp22
 70
     1
102
RTVSPropertyOp23
 70
     1
102
RTVSPropertyOp24
 70
     1
102
RTVSPropertyOp25
 70
     1
102
RTVSPropertyOp26
 70
     1
102
RTVSPropertyOp27
 70
     1
  0
ENDSEC
  0
EOF
