  0
SECTION
  2
HEADER
  9
$ACADVER
  1
AC1015
  9
$ACADMAINTVER
 70
     6
  9
$DWGCODEPAGE
  3
ANSI_1252
  9
$INSBASE
 10
0.0
 20
0.0
 30
0.0
  9
$EXTMIN
 10
-1844.527559055118
 20
-1147.736220472441
 30
-18.975
  9
$EXTMAX
 10
1835.472440944882
 20
1152.263779527559
 30
18.975
  9
$LIMMIN
 10
0.0
 20
0.0
  9
$LIMMAX
 10
12.0
 20
9.0
  9
$ORTHOMODE
 70
     0
  9
$REGENMODE
 70
     1
  9
$FILLMODE
 70
     1
  9
$QTEXTMODE
 70
     0
  9
$MIRRTEXT
 70
     1
  9
$LTSCALE
 40
46.0
  9
$ATTMODE
 70
     1
  9
$TEXTSIZE
 40
0.2
  9
$TRACEWID
 40
1.0
  9
$TEXTSTYLE
  7
STANDARD
  9
$CLAYER
  8
None
  9
$CELTYPE
  6
ByLayer
  9
$CECOLOR
 62
   256
  9
$CELTSCALE
 40
1.0
  9
$DISPSILH
 70
     0
  9
$DIMSCALE
 40
1.0
  9
$DIMASZ
 40
28.75
  9
$DIMEXO
 40
14.375
  9
$DIMDLI
 40
0.4
  9
$DIMRND
 40
0.0
  9
$DIMDLE
 40
14.375
  9
$DIMEXE
 40
28.75
  9
$DIMTP
 40
0.0
  9
$DIMTM
 40
0.0
  9
$DIMTXT
 40
27.4976093104641
  9
$DIMCEN
 40
0.0
  9
$DIMTSZ
 40
0.0
  9
$DIMTOL
 70
     0
  9
$DIMLIM
 70
     0
  9
$DIMTIH
 70
     0
  9
$DIMTOH
 70
     0
  9
$DIMSE1
 70
     0
  9
$DIMSE2
 70
     0
  9
$DIMTAD
 70
     1
  9
$DIMZIN
 70
     8
  9
$DIMBLK
  1
VW_SLASH
  9
$DIMASO
 70
     1
  9
$DIMSHO
 70
     1
  9
$DIMPOST
  1
<>
  9
$DIMAPOST
  1
[]
  9
$DIMALT
 70
     0
  9
$DIMALTD
 70
     3
  9
$DIMALTF
 40
1.0
  9
$DIMLFAC
 40
1.0
  9
$DIMTOFL
 70
     1
  9
$DIMTVP
 40
0.0
  9
$DIMTIX
 70
     1
  9
$DIMSOXD
 70
     0
  9
$DIMSAH
 70
     0
  9
$DIMBLK1
  1
VW_SLASH
  9
$DIMBLK2
  1
VW_SLASH
  9
$DIMSTYLE
  2
Arch
  9
$DIMCLRD
 70
     0
  9
$DIMCLRE
 70
     0
  9
$DIMCLRT
 70
     0
  9
$DIMTFAC
 40
1.0
  9
$DIMGAP
 40
0.0625
  9
$DIMJUST
 70
     0
  9
$DIMSD1
 70
     0
  9
$DIMSD2
 70
     0
  9
$DIMTOLJ
 70
     1
  9
$DIMTZIN
 70
     8
  9
$DIMALTZ
 70
     8
  9
$DIMALTTZ
 70
     8
  9
$DIMUPT
 70
     0
  9
$DIMDEC
 70
     3
  9
$DIMTDEC
 70
     3
  9
$DIMALTU
 70
     4
  9
$DIMALTTD
 70
     2
  9
$DIMTXSTY
  7
Helvetica
  9
$DIMAUNIT
 70
     0
  9
$DIMADEC
 70
     2
  9
$DIMALTRND
 40
0.0
  9
$DIMAZIN
 70
     0
  9
$DIMDSEP
 70
    46
  9
$DIMATFIT
 70
     0
  9
$DIMFRAC
 70
     2
  9
$DIMLDRBLK
  1
VW_FILLEDARROW
  9
$DIMLUNIT
 70
     4
  9
$DIMLWD
 70
    -2
  9
$DIMLWE
 70
    -2
  9
$DIMTMOVE
 70
     0
  9
$LUNITS
 70
     4
  9
$LUPREC
 70
     4
  9
$SKETCHINC
 40
0.1
  9
$FILLETRAD
 40
0.5
  9
$AUNITS
 70
     0
  9
$AUPREC
 70
     0
  9
$MENU
  1
.
  9
$ELEVATION
 40
0.0
  9
$PELEVATION
 40
0.0
  9
$THICKNESS
 40
0.0
  9
$LIMCHECK
 70
     0
  9
$CHAMFERA
 40
0.5
  9
$CHAMFERB
 40
0.5
  9
$CHAMFERC
 40
1.0
  9
$CHAMFERD
 40
0.0
  9
$SKPOLY
 70
     0
  9
$TDCREATE
 40
2455711.787916644
  9
$TDUCREATE
 40
2455712.121249988
  9
$TDUPDATE
 40
2455711.787916655
  9
$TDUUPDATE
 40
2455712.12125
  9
$TDINDWG
 40
0.0000000116
  9
$TDUSRTIMER
 40
0.0000000116
  9
$USRTIMER
 70
     1
  9
$ANGBASE
 50
0.0
  9
$ANGDIR
 70
     0
  9
$PDMODE
 70
     1
  9
$PDSIZE
 40
-2.0
  9
$PLINEWID
 40
0.0
  9
$SPLFRAME
 70
     0
  9
$SPLINETYPE
 70
     6
  9
$SPLINESEGS
 70
     8
  9
$HANDSEED
  5
496
  9
$SURFTAB1
 70
     6
  9
$SURFTAB2
 70
     6
  9
$SURFTYPE
 70
     6
  9
$SURFU
 70
     6
  9
$SURFV
 70
     6
  9
$UCSBASE
  2

  9
$UCSNAME
  2

  9
$UCSORG
 10
0.0
 20
0.0
 30
0.0
  9
$UCSXDIR
 10
1.0
 20
0.0
 30
0.0
  9
$UCSYDIR
 10
0.0
 20
1.0
 30
0.0
  9
$UCSORTHOREF
  2

  9
$UCSORTHOVIEW
 70
     0
  9
$UCSORGTOP
 10
0.0
 20
0.0
 30
0.0
  9
$UCSORGBOTTOM
 10
0.0
 20
0.0
 30
0.0
  9
$UCSORGLEFT
 10
0.0
 20
0.0
 30
0.0
  9
$UCSORGRIGHT
 10
0.0
 20
0.0
 30
0.0
  9
$UCSORGFRONT
 10
0.0
 20
0.0
 30
0.0
  9
$UCSORGBACK
 10
0.0
 20
0.0
 30
0.0
  9
$PUCSBASE
  2

  9
$PUCSNAME
  2

  9
$PUCSORG
 10
0.0
 20
0.0
 30
0.0
  9
$PUCSXDIR
 10
1.0
 20
0.0
 30
0.0
  9
$PUCSYDIR
 10
0.0
 20
1.0
 30
0.0
  9
$PUCSORTHOREF
  2

  9
$PUCSORTHOVIEW
 70
     0
  9
$PUCSORGTOP
 10
0.0
 20
0.0
 30
0.0
  9
$PUCSORGBOTTOM
 10
0.0
 20
0.0
 30
0.0
  9
$PUCSORGLEFT
 10
0.0
 20
0.0
 30
0.0
  9
$PUCSORGRIGHT
 10
0.0
 20
0.0
 30
0.0
  9
$PUCSORGFRONT
 10
0.0
 20
0.0
 30
0.0
  9
$PUCSORGBACK
 10
0.0
 20
0.0
 30
0.0
  9
$USERI1
 70
     0
  9
$USERI2
 70
     0
  9
$USERI3
 70
     0
  9
$USERI4
 70
     0
  9
$USERI5
 70
     0
  9
$USERR1
 40
0.0
  9
$USERR2
 40
0.0
  9
$USERR3
 40
0.0
  9
$USERR4
 40
0.0
  9
$USERR5
 40
0.0
  9
$WORLDVIEW
 70
     1
  9
$SHADEDGE
 70
     3
  9
$SHADEDIF
 70
    70
  9
$TILEMODE
 70
     1
  9
$MAXACTVP
 70
    64
  9
$PINSBASE
 10
0.0
 20
0.0
 30
0.0
  9
$PLIMCHECK
 70
     0
  9
$PEXTMIN
 10
1.000000000000000E+20
 20
1.000000000000000E+20
 30
1.000000000000000E+20
  9
$PEXTMAX
 10
-1.000000000000000E+20
 20
-1.000000000000000E+20
 30
-1.000000000000000E+20
  9
$PLIMMIN
 10
-0.25
 20
-0.25
  9
$PLIMMAX
 10
10.75
 20
8.25
  9
$UNITMODE
 70
     0
  9
$VISRETAIN
 70
     1
  9
$PLINEGEN
 70
     0
  9
$PSLTSCALE
 70
     1
  9
$TREEDEPTH
 70
  3020
  9
$CMLSTYLE
  2
Standard
  9
$CMLJUST
 70
     0
  9
$CMLSCALE
 40
1.0
  9
$PROXYGRAPHICS
 70
     1
  9
$MEASUREMENT
 70
     0
  9
$CELWEIGHT
370
    -1
  9
$ENDCAPS
280
     0
  9
$JOINSTYLE
280
     0
  9
$LWDISPLAY
290
     1
  9
$INSUNITS
 70
     1
  9
$HYPERLINKBASE
  1

  9
$STYLESHEET
  1

  9
$XEDIT
290
     1
  9
$CEPSNTYPE
380
     0
  9
$PSTYLEMODE
290
     1
  9
$FINGERPRINTGUID
  2
{44D8B41D-9A5A-1E0B-D1A5-692B00E7CC93}
  9
$VERSIONGUID
  2
{FAEB1C32-E019-11D5-929B-00C0DF256EC4}
  9
$EXTNAMES
290
     1
  9
$PSVPSCALE
 40
0.0
  9
$OLESTARTUP
290
     0
  0
ENDSEC
  0
SECTION
  2
CLASSES
  0
CLASS
  1
ACDBDICTIONARYWDFLT
  2
AcDbDictionaryWithDefault
  3
ObjectDBX Classes
 90
        0
280
     0
281
     0
  0
CLASS
  1
VISUALSTYLE
  2
AcDbVisualStyle
  3
ObjectDBX Classes
 90
     4095
280
     0
281
     0
  0
CLASS
  1
MATERIAL
  2
AcDbMaterial
  3
ObjectDBX Classes
 90
     1153
280
     0
281
     0
  0
CLASS
  1
WIPEOUTVARIABLES
  2
AcDbWipeoutVariables
  3
WipeOut|AutoCAD Express Tool|expresstools@autodesk.com
 90
        0
280
     0
281
     0
  0
CLASS
  1
WIPEOUT
  2
AcDbWipeout
  3
WipeOut|AutoCAD Express Tool|expresstools@autodesk.com
 90
      127
280
     0
281
     1
  0
CLASS
  1
SCALE
  2
AcDbScale
  3
ObjectDBX Classes
 90
     1153
280
     0
281
     0
  0
CLASS
  1
DICTIONARYVAR
  2
AcDbDictionaryVar
  3
ObjectDBX Classes
 90
        0
280
     0
281
     0
  0
CLASS
  1
ACDBPLACEHOLDER
  2
AcDbPlaceHolder
  3
ObjectDBX Classes
 90
        0
280
     0
281
     0
  0
CLASS
  1
LAYOUT
  2
AcDbLayout
  3
ObjectDBX Classes
 90
        0
280
     0
281
     0
  0
ENDSEC
  0
SECTION
  2
TABLES
  0
TABLE
  2
VPORT
  5
8
330
0
100
AcDbSymbolTable
 70
     1
  0
VPORT
  5
29
330
8
100
AcDbSymbolTableRecord
100
AcDbViewportTableRecord
  2
*Active
 70
     0
 10
0.0
 20
0.0
 11
1.0
 21
1.0
 12
-4.527559055118445
 22
2.263779527558881
 13
0.0
 23
0.0
 14
0.5
 24
0.5
 15
0.5
 25
0.5
 16
0.0
 26
0.0
 36
1.0
 17
0.0
 27
0.0
 37
0.0
 40
2300.0
 41
0.0077203290241969
 42
2000.0
 43
0.0
 44
0.0
 50
0.0
 51
0.0
 71
     0
 72
   100
 73
     1
 74
     3
 75
     0
 76
     0
 77
     0
 78
     0
281
     0
 65
     1
110
0.0
120
0.0
130
0.0
111
1.0
121
0.0
131
0.0
112
0.0
122
1.0
132
0.0
 79
     0
146
0.0
  0
ENDTAB
  0
TABLE
  2
LTYPE
  5
5
330
0
100
AcDbSymbolTable
 70
    11
  0
LTYPE
  5
14
330
5
100
AcDbSymbolTableRecord
100
AcDbLinetypeTableRecord
  2
ByBlock
 70
     0
  3

 72
    65
 73
     0
 40
0.0
  0
LTYPE
  5
15
330
5
100
AcDbSymbolTableRecord
100
AcDbLinetypeTableRecord
  2
ByLayer
 70
     0
  3

 72
    65
 73
     0
 40
0.0
  0
LTYPE
  5
16
330
5
100
AcDbSymbolTableRecord
100
AcDbLinetypeTableRecord
  2
Continuous
 70
     0
  3
Solid line
 72
    65
 73
     0
 40
0.0
  0
LTYPE
  5
8E
330
5
100
AcDbSymbolTableRecord
100
AcDbLinetypeTableRecord
  2
Dash Style-1
 70
     0
  3

 72
    65
 73
     2
 40
0.20828
 49
0.20828
 74
     0
 49
-0.20836
 74
     0
  0
LTYPE
  5
8F
330
5
100
AcDbSymbolTableRecord
100
AcDbLinetypeTableRecord
  2
Dash Style-2
 70
     0
  3

 72
    65
 73
     2
 40
0.48607
 49
0.48607
 74
     0
 49
-0.2083550000000001
 74
     0
  0
LTYPE
  5
90
330
5
100
AcDbSymbolTableRecord
100
AcDbLinetypeTableRecord
  2
Dash Style-3
 70
     0
  3

 72
    65
 73
     2
 40
1.04164
 49
1.04164
 74
     0
 49
-0.2083599999999999
 74
     0
  0
LTYPE
  5
91
330
5
100
AcDbSymbolTableRecord
100
AcDbLinetypeTableRecord
  2
Dash Style-4
 70
     0
  3

 72
    65
 73
     2
 40
1.319425
 49
1.319425
 74
     0
 49
-0.208285
 74
     0
  0
LTYPE
  5
92
330
5
100
AcDbSymbolTableRecord
100
AcDbLinetypeTableRecord
  2
Dash Style-5
 70
     0
  3

 72
    65
 73
     2
 40
0.069425
 49
0.069425
 74
     0
 49
-0.138855
 74
     0
  0
LTYPE
  5
93
330
5
100
AcDbSymbolTableRecord
100
AcDbLinetypeTableRecord
  2
Dash Style-6
 70
     0
  3

 72
    65
 73
     4
 40
0.625
 49
0.625
 74
     0
 49
-0.20828
 74
     0
 49
0.06943
 74
     0
 49
-0.13893
 74
     0
  0
LTYPE
  5
94
330
5
100
AcDbSymbolTableRecord
100
AcDbLinetypeTableRecord
  2
Dash Style-7
 70
     0
  3

 72
    65
 73
     6
 40
0.625
 49
0.625
 74
     0
 49
-0.20828
 74
     0
 49
0.6250000000000001
 74
     0
 49
-0.2083599999999999
 74
     0
 49
0.06943
 74
     0
 49
-0.1389299999999999
 74
     0
  0
LTYPE
  5
95
330
5
100
AcDbSymbolTableRecord
100
AcDbLinetypeTableRecord
  2
Dash Style-8
 70
     0
  3

 72
    65
 73
     6
 40
0.625
 49
0.625
 74
     0
 49
-0.20828
 74
     0
 49
0.06943
 74
     0
 49
-0.13893
 74
     0
 49
0.0694299999999999
 74
     0
 49
-0.13893
 74
     0
  0
LTYPE
  5
96
330
5
100
AcDbSymbolTableRecord
100
AcDbLinetypeTableRecord
  2
Dash Style-9
 70
     0
  3

 72
    65
 73
     4
 40
3.75
 49
3.75
 74
     0
 49
-0.2777849999999998
 74
     0
 49
0.6944300000000003
 74
     0
 49
-0.2777849999999998
 74
     0
  0
LTYPE
  5
97
330
5
100
AcDbSymbolTableRecord
100
AcDbLinetypeTableRecord
  2
Dash Style-10
 70
     0
  3

 72
    65
 73
     6
 40
3.75
 49
3.75
 74
     0
 49
-0.2777849999999998
 74
     0
 49
0.6944300000000003
 74
     0
 49
-0.2777849999999998
 74
     0
 49
0.625
 74
     0
 49
-0.3125
 74
     0
  0
ENDTAB
  0
TABLE
  2
LAYER
  5
2
330
0
100
AcDbSymbolTable
 70
     9
  0
LAYER
  5
10
330
2
100
AcDbSymbolTableRecord
100
AcDbLayerTableRecord
  2
0
 70
     0
 62
   251
  6
Continuous
370
    15
390
F
  0
LAYER
  5
98
330
2
100
AcDbSymbolTableRecord
100
AcDbLayerTableRecord
  2
None
 70
     0
 62
     7
  6
Continuous
370
     5
390
F
  0
LAYER
  5
99
330
2
100
AcDbSymbolTableRecord
100
AcDbLayerTableRecord
  2
Dimension
 70
     0
 62
     7
  6
Continuous
370
     5
390
F
  0
LAYER
  5
9A
330
2
100
AcDbSymbolTableRecord
100
AcDbLayerTableRecord
  2
A-ARCH
 70
     0
 62
   251
  6
Continuous
370
    15
390
F
  0
LAYER
  5
9B
330
2
100
AcDbSymbolTableRecord
100
AcDbLayerTableRecord
  2
elements-ojects
 70
     0
 62
     7
  6
Continuous
370
    15
390
F
  0
LAYER
  5
9C
330
2
100
AcDbSymbolTableRecord
100
AcDbLayerTableRecord
  2
Layer0
 70
     0
 62
     1
  6
Continuous
370
    15
390
F
  0
LAYER
  5
9D
330
2
100
AcDbSymbolTableRecord
100
AcDbLayerTableRecord
  2
WINDOW
 70
     0
 62
     2
  6
Continuous
370
    15
390
F
  0
LAYER
  5
9E
330
2
100
AcDbSymbolTableRecord
100
AcDbLayerTableRecord
  2
FIXT
 70
     0
 62
     7
  6
Continuous
370
    15
390
F
  0
LAYER
  5
9F
330
2
100
AcDbSymbolTableRecord
100
AcDbLayerTableRecord
  2
Defpoints
 70
     0
 62
     7
  6
Continuous
290
     0
370
    -3
390
F
  0
ENDTAB
  0
TABLE
  2
STYLE
  5
3
330
0
100
AcDbSymbolTable
 70
     4
  0
STYLE
  5
11
330
3
100
AcDbSymbolTableRecord
100
AcDbTextStyleTableRecord
  2
STANDARD
 70
     0
 40
0.0
 41
1.0
 50
0.0
 71
     0
 42
0.2
  3
txt
  4

  0
STYLE
  5
8B
330
3
100
AcDbSymbolTableRecord
100
AcDbTextStyleTableRecord
  2
Arial Narrow
 70
     0
 40
0.0
 41
1.0
 50
0.0
 71
     0
 42
0.0
  3
Arial Narrow
  4

1001
ACAD
1000
Arial Narrow
1071
        0
  0
STYLE
  5
8C
330
3
100
AcDbSymbolTableRecord
100
AcDbTextStyleTableRecord
  2
Arial Narrow (bold)
 70
     0
 40
0.0
 41
1.0
 50
0.0
 71
     0
 42
0.0
  3
Arial Narrow
  4

1001
ACAD
1000
Arial Narrow
1071
 33554432
  0
STYLE
  5
8D
330
3
100
AcDbSymbolTableRecord
100
AcDbTextStyleTableRecord
  2
Helvetica
 70
     0
 40
0.0
 41
1.0
 50
0.0
 71
     0
 42
0.0
  3
Helvetica
  4

1001
ACAD
1000
Helvetica
1071
        0
  0
ENDTAB
  0
TABLE
  2
VIEW
  5
6
330
0
100
AcDbSymbolTable
 70
     0
  0
ENDTAB
  0
TABLE
  2
UCS
  5
7
330
0
100
AcDbSymbolTable
 70
     0
  0
ENDTAB
  0
TABLE
  2
APPID
  5
9
330
0
100
AcDbSymbolTable
 70
     1
  0
APPID
  5
12
330
9
100
AcDbSymbolTableRecord
100
AcDbRegAppTableRecord
  2
ACAD
 70
     0
  0
ENDTAB
  0
TABLE
  2
DIMSTYLE
  5
A
330
0
100
AcDbSymbolTable
 70
     3
100
AcDbDimStyleTable
  0
DIMSTYLE
105
27
330
A
100
AcDbSymbolTableRecord
100
AcDbDimStyleTableRecord
  2
Standard
 70
     0
340
11
  0
DIMSTYLE
105
A0
330
A
100
AcDbSymbolTableRecord
100
AcDbDimStyleTableRecord
  2
Arch
 70
     0
  3
<>
  4
[]
 41
28.75
 42
14.375
 43
0.4
 44
28.75
 46
14.375
 73
     0
 74
     0
 77
     1
 78
     8
140
27.4976093104641
141
0.0
143
1.0
147
0.0625
171
     3
172
     1
174
     1
179
     2
271
     3
272
     3
273
     4
276
     2
277
     4
284
     8
285
     8
286
     8
289
     0
340
8D
341
AA
342
A1
343
A1
344
A1
  0
DIMSTYLE
105
B4
102
{ACAD_REACTORS
330
450
330
451
102
}
330
A
100
AcDbSymbolTableRecord
100
AcDbDimStyleTableRecord
  2
ASME
 70
     0
  3
<>
  4
[]
 41
28.75
 42
14.375
 43
0.4
 44
28.75
 78
     8
140
27.4976093104641
141
0.0
143
1.0
147
0.0
171
     3
174
     1
179
     2
271
     3
272
     3
273
     4
276
     2
277
     4
284
     8
285
     8
286
     8
289
     0
340
8D
341
AA
342
AA
343
AA
344
AA
  0
ENDTAB
  0
TABLE
  2
BLOCK_RECORD
  5
1
330
0
100
AcDbSymbolTable
 70
    28
  0
BLOCK_RECORD
  5
1F
330
1
100
AcDbSymbolTableRecord
100
AcDbBlockTableRecord
  2
*Model_Space
340
22
  0
BLOCK_RECORD
  5
1B
330
1
100
AcDbSymbolTableRecord
100
AcDbBlockTableRecord
  2
*Paper_Space
340
1E
  0
BLOCK_RECORD
  5
3F
330
1
100
AcDbSymbolTableRecord
100
AcDbBlockTableRecord
  2
Group-1
340
0
102
{BLKREFS
331
449
102
}
  0
BLOCK_RECORD
  5
42
330
1
100
AcDbSymbolTableRecord
100
AcDbBlockTableRecord
  2
Group-2-1
340
0
102
{BLKREFS
331
1D4
102
}
  0
BLOCK_RECORD
  5
45
330
1
100
AcDbSymbolTableRecord
100
AcDbBlockTableRecord
  2
Group-3-1
340
0
102
{BLKREFS
331
258
102
}
  0
BLOCK_RECORD
  5
48
330
1
100
AcDbSymbolTableRecord
100
AcDbBlockTableRecord
  2
Group-4-1
340
0
102
{BLKREFS
331
44E
102
}
  0
BLOCK_RECORD
  5
4B
330
1
100
AcDbSymbolTableRecord
100
AcDbBlockTableRecord
  2
Group-5-1
340
0
102
{BLKREFS
331
2B6
102
}
  0
BLOCK_RECORD
  5
4E
330
1
100
AcDbSymbolTableRecord
100
AcDbBlockTableRecord
  2
Group-6-1
340
0
102
{BLKREFS
331
2C5
102
}
  0
BLOCK_RECORD
  5
51
330
1
100
AcDbSymbolTableRecord
100
AcDbBlockTableRecord
  2
Group-7-1
340
0
102
{BLKREFS
331
44F
102
}
  0
BLOCK_RECORD
  5
54
330
1
100
AcDbSymbolTableRecord
100
AcDbBlockTableRecord
  2
*D8
340
0
  0
BLOCK_RECORD
  5
57
330
1
100
AcDbSymbolTableRecord
100
AcDbBlockTableRecord
  2
*D9
340
0
  0
BLOCK_RECORD
  5
5A
330
1
100
AcDbSymbolTableRecord
100
AcDbBlockTableRecord
  2
Group-8-1
340
0
102
{BLKREFS
331
3CC
102
}
  0
BLOCK_RECORD
  5
5D
330
1
100
AcDbSymbolTableRecord
100
AcDbBlockTableRecord
  2
Group-9-1
340
0
102
{BLKREFS
331
3CD
102
}
  0
BLOCK_RECORD
  5
60
330
1
100
AcDbSymbolTableRecord
100
AcDbBlockTableRecord
  2
Group-10-1
340
0
102
{BLKREFS
331
3CE
102
}
  0
BLOCK_RECORD
  5
63
330
1
100
AcDbSymbolTableRecord
100
AcDbBlockTableRecord
  2
Group-11-1
340
0
102
{BLKREFS
331
3CF
102
}
  0
BLOCK_RECORD
  5
66
330
1
100
AcDbSymbolTableRecord
100
AcDbBlockTableRecord
  2
Group-12-1
340
0
102
{BLKREFS
331
3D0
102
}
  0
BLOCK_RECORD
  5
69
330
1
100
AcDbSymbolTableRecord
100
AcDbBlockTableRecord
  2
Group-13-1
340
0
102
{BLKREFS
331
3D1
102
}
  0
BLOCK_RECORD
  5
6C
330
1
100
AcDbSymbolTableRecord
100
AcDbBlockTableRecord
  2
Group-14-1
340
0
102
{BLKREFS
331
3D2
102
}
  0
BLOCK_RECORD
  5
6F
330
1
100
AcDbSymbolTableRecord
100
AcDbBlockTableRecord
  2
Group-15-1
340
0
102
{BLKREFS
331
3D3
102
}
  0
BLOCK_RECORD
  5
72
330
1
100
AcDbSymbolTableRecord
100
AcDbBlockTableRecord
  2
Group-16-1
340
0
102
{BLKREFS
331
3D5
102
}
  0
BLOCK_RECORD
  5
75
330
1
100
AcDbSymbolTableRecord
100
AcDbBlockTableRecord
  2
Group-17-1
340
0
102
{BLKREFS
331
3D6
102
}
  0
BLOCK_RECORD
  5
78
330
1
100
AcDbSymbolTableRecord
100
AcDbBlockTableRecord
  2
Group-18-1
340
0
102
{BLKREFS
331
3D7
102
}
  0
BLOCK_RECORD
  5
7B
330
1
100
AcDbSymbolTableRecord
100
AcDbBlockTableRecord
  2
Group-19-1
340
0
102
{BLKREFS
331
42B
102
}
  0
BLOCK_RECORD
  5
7E
330
1
100
AcDbSymbolTableRecord
100
AcDbBlockTableRecord
  2
Group-20-1
340
0
102
{BLKREFS
331
42C
102
}
  0
BLOCK_RECORD
  5
81
330
1
100
AcDbSymbolTableRecord
100
AcDbBlockTableRecord
  2
Group-21-1
340
0
102
{BLKREFS
331
430
102
}
  0
BLOCK_RECORD
  5
84
330
1
100
AcDbSymbolTableRecord
100
AcDbBlockTableRecord
  2
Group-22-1
340
0
102
{BLKREFS
331
431
102
}
  0
BLOCK_RECORD
  5
87
330
1
100
AcDbSymbolTableRecord
100
AcDbBlockTableRecord
  2
Group-23-1
340
0
102
{BLKREFS
331
462
102
}
  0
BLOCK_RECORD
  5
A1
330
1
100
AcDbSymbolTableRecord
100
AcDbBlockTableRecord
  2
VW_SLASH
340
0
  0
BLOCK_RECORD
  5
AA
330
1
100
AcDbSymbolTableRecord
100
AcDbBlockTableRecord
  2
VW_FILLEDARROW
340
0
102
{BLKREFS
331
2CF
331
2CE
331
2E3
331
2E2
102
}
  0
ENDTAB
  0
ENDSEC
  0
SECTION
  2
BLOCKS
  0
BLOCK
  5
20
330
1F
100
AcDbEntity
  8
0
100
AcDbBlockBegin
  2
*Model_Space
 70
     0
 10
0.0
 20
0.0
 30
0.0
  3
*Model_Space
  1

  0
ENDBLK
  5
21
330
1F
100
AcDbEntity
  8
0
100
AcDbBlockEnd
  0
BLOCK
  5
1C
330
1B
100
AcDbEntity
 67
     1
  8
0
100
AcDbBlockBegin
  2
*Paper_Space
 70
     0
 10
0.0
 20
0.0
 30
0.0
  3
*Paper_Space
  1

  0
ENDBLK
  5
1D
330
1B
100
AcDbEntity
 67
     1
  8
0
100
AcDbBlockEnd
  0
BLOCK
  5
40
330
3F
100
AcDbEntity
  8
0
100
AcDbBlockBegin
  2
Group-1
 70
     0
 10
0.0
 20
0.0
 30
0.0
  3
Group-1
  1

  0
ELLIPSE
  5
B5
330
3F
100
AcDbEntity
  8
None
  6
Continuous
 62
     7
370
    20
100
AcDbEllipse
 10
-7.452929080540777
 20
4.461161964625585
 30
0.0
 11
0.3453220542379974
 21
0.0
 31
0.0
210
0.0
220
0.0
230
1.0
 40
1.0
 41
0.0
 42
6.283185307179586
  0
POLYLINE
  5
B6
102
{ACAD_REACTORS
330
C1
102
}
330
3F
100
AcDbEntity
  8
None
  6
Continuous
 62
     7
370
    20
100
AcDb2dPolyline
 66
     1
 10
0.0
 20
0.0
 30
0.0
 70
     1
  0
VERTEX
  5
B7
330
B6
100
AcDbEntity
  8
None
  6
Continuous
 62
     7
370
    20
100
AcDbVertex
100
AcDb2dVertex
 10
-7.483269766870236
 20
4.180979528895537
 30
0.0
  0
VERTEX
  5
B8
330
B6
100
AcDbEntity
  8
None
  6
Continuous
 62
     7
370
    20
100
AcDbVertex
100
AcDb2dVertex
 10
-7.413147841763736
 20
4.180979528895537
 30
0.0
  0
VERTEX
  5
B9
330
B6
100
AcDbEntity
  8
None
  6
Continuous
 62
     7
370
    20
100
AcDbVertex
100
AcDb2dVertex
 10
-7.413147841763736
 20
4.617134820022656
 30
0.0
  0
VERTEX
  5
BA
330
B6
100
AcDbEntity
  8
None
  6
Continuous
 62
     7
370
    20
100
AcDbVertex
100
AcDb2dVertex
 10
-7.170642528469851
 20
4.374629368599948
 30
0.0
  0
VERTEX
  5
BB
330
B6
100
AcDbEntity
  8
None
  6
Continuous
 62
     7
370
    20
100
AcDbVertex
100
AcDb2dVertex
 10
-7.170642528469851
 20
4.464115158833429
 30
0.0
  0
VERTEX
  5
BC
330
B6
100
AcDbEntity
  8
None
  6
Continuous
 62
     7
370
    20
100
AcDbVertex
100
AcDb2dVertex
 10
-7.448208804316989
 20
4.74168143468057
 30
0.0
  0
VERTEX
  5
BD
330
B6
100
AcDbEntity
  8
None
  6
Continuous
 62
     7
370
    20
100
AcDbVertex
100
AcDb2dVertex
 10
-7.73161820557948
 20
4.458272033418078
 30
0.0
  0
VERTEX
  5
BE
330
B6
100
AcDbEntity
  8
None
  6
Continuous
 62
     7
370
    20
100
AcDbVertex
100
AcDb2dVertex
 10
-7.73161820557948
 20
4.368785276282842
 30
0.0
  0
VERTEX
  5
BF
330
B6
100
AcDbEntity
  8
None
  6
Continuous
 62
     7
370
    20
100
AcDbVertex
100
AcDb2dVertex
 10
-7.483269766870236
 20
4.617134820022656
 30
0.0
  0
SEQEND
  5
C0
330
B6
100
AcDbEntity
  8
None
  6
Continuous
 62
     7
370
    20
  0
HATCH
  5
C1
330
3F
100
AcDbEntity
  8
None
  6
Continuous
 62
     7
370
     0
100
AcDbHatch
 10
0.0
 20
0.0
 30
0.0
210
0.0
220
0.0
230
1.0
  2
SOLID
 70
     1
 71
     1
 91
        1
 92
        1
 93
        9
 72
     1
 10
-7.483269766870236
 20
4.180979528895537
 11
-7.413147841763736
 21
4.180979528895537
 72
     1
 10
-7.413147841763736
 20
4.180979528895537
 11
-7.413147841763736
 21
4.617134820022656
 72
     1
 10
-7.413147841763736
 20
4.617134820022656
 11
-7.170642528469851
 21
4.374629368599948
 72
     1
 10
-7.170642528469851
 20
4.374629368599948
 11
-7.170642528469851
 21
4.464115158833429
 72
     1
 10
-7.170642528469851
 20
4.464115158833429
 11
-7.448208804316989
 21
4.74168143468057
 72
     1
 10
-7.448208804316989
 20
4.74168143468057
 11
-7.73161820557948
 21
4.458272033418078
 72
     1
 10
-7.73161820557948
 20
4.458272033418078
 11
-7.73161820557948
 21
4.368785276282842
 72
     1
 10
-7.73161820557948
 20
4.368785276282842
 11
-7.483269766870236
 21
4.617134820022656
 72
     1
 10
-7.483269766870236
 20
4.617134820022656
 11
-7.483269766870236
 21
4.180979528895537
 97
        1
330
B6
 75
     0
 76
     1
 98
        1
 10
0.0
 20
0.0
  0
ENDBLK
  5
41
330
3F
100
AcDbEntity
  8
0
100
AcDbBlockEnd
  0
BLOCK
  5
43
330
42
100
AcDbEntity
  8
0
100
AcDbBlockBegin
  2
Group-2-1
 70
     0
 10
0.0
 20
0.0
 30
0.0
  3
Group-2-1
  1

  0
LINE
  5
C2
330
42
100
AcDbEntity
  8
A-ARCH
  6
Continuous
 62
   250
370
     9
100
AcDbLine
 10
7.863555103975447
 20
-3.424102189536526
 30
0.0
 11
7.863555103975447
 21
-4.701284458089557
 31
0.0
  0
POLYLINE
  5
C3
330
42
100
AcDbEntity
  8
WINDOW
  6
Continuous
 62
   250
370
     9
100
AcDb2dPolyline
 66
     1
 10
0.0
 20
0.0
 30
0.0
 70
     1
  0
VERTEX
  5
C4
330
C3
100
AcDbEntity
  8
WINDOW
  6
Continuous
 62
   250
370
     9
100
AcDbVertex
100
AcDb2dVertex
 10
5.440053378592385
 20
-3.678295151429747
 30
0.0
  0
VERTEX
  5
C5
330
C3
100
AcDbEntity
  8
WINDOW
  6
Continuous
 62
   250
370
     9
100
AcDbVertex
100
AcDb2dVertex
 10
5.547409834694519
 20
-3.661923859915148
 30
0.0
  0
VERTEX
  5
C6
330
C3
100
AcDbEntity
  8
WINDOW
  6
Continuous
 62
   250
370
     9
100
AcDbVertex
100
AcDb2dVertex
 10
5.649637126465617
 20
-3.625881138295007
 30
0.0
  0
VERTEX
  5
C7
330
C3
100
AcDbEntity
  8
WINDOW
  6
Continuous
 62
   250
370
     9
100
AcDbVertex
100
AcDb2dVertex
 10
5.754114163761181
 20
-3.573900338677198
 30
0.0
  0
VERTEX
  5
C8
330
C3
100
AcDbEntity
  8
WINDOW
  6
Continuous
 62
   250
370
     9
100
AcDbVertex
100
AcDb2dVertex
 10
5.923262810258285
 20
-3.643564729196933
 30
0.0
  0
VERTEX
  5
C9
330
C3
100
AcDbEntity
  8
WINDOW
  6
Continuous
 62
   250
370
     9
100
AcDbVertex
100
AcDb2dVertex
 10
5.923262810258285
 20
-3.726262697998546
 30
0.0
  0
VERTEX
  5
CA
330
C3
100
AcDbEntity
  8
WINDOW
  6
Continuous
 62
   250
370
     9
100
AcDbVertex
100
AcDb2dVertex
 10
5.3514519375272
 20
-3.726262697998546
 30
0.0
  0
VERTEX
  5
CB
330
C3
100
AcDbEntity
  8
WINDOW
  6
Continuous
 62
   250
370
     9
100
AcDbVertex
100
AcDb2dVertex
 10
5.3514519375272
 20
-3.702450924143875
 30
0.0
  0
VERTEX
  5
CC
330
C3
100
AcDbEntity
  8
WINDOW
  6
Continuous
 62
   250
370
     9
100
AcDbVertex
100
AcDb2dVertex
 10
5.351204396922495
 20
-3.678893934491183
 30
0.0
  0
SEQEND
  5
CD
330
C3
100
AcDbEntity
  8
WINDOW
  6
Continuous
 62
   250
370
     9
  0
POLYLINE
  5
CE
330
42
100
AcDbEntity
  8
None
  6
Continuous
 62
   250
370
     9
100
AcDb2dPolyline
 66
     1
 10
0.0
 20
0.0
 30
0.0
 70
     1
  0
VERTEX
  5
CF
330
CE
100
AcDbEntity
  8
None
  6
Continuous
 62
   250
370
     9
100
AcDbVertex
100
AcDb2dVertex
 10
6.008229334465643
 20
-3.844487077747153
 30
0.0
  0
VERTEX
  5
D0
330
CE
100
AcDbEntity
  8
None
  6
Continuous
 62
   250
370
     9
100
AcDbVertex
100
AcDb2dVertex
 10
6.008229334465643
 20
-3.927601057945823
 30
0.0
  0
VERTEX
  5
D1
330
CE
100
AcDbEntity
  8
None
  6
Continuous
 62
   250
370
     9
100
AcDbVertex
100
AcDb2dVertex
 10
5.955510926651987
 20
-3.927601057945823
 30
0.0
  0
VERTEX
  5
D2
330
CE
100
AcDbEntity
  8
None
  6
Continuous
 62
   250
370
     9
100
AcDbVertex
100
AcDb2dVertex
 10
5.955510926651987
 20
-3.844487077747153
 30
0.0
  0
SEQEND
  5
D3
330
CE
100
AcDbEntity
  8
None
  6
Continuous
 62
   250
370
     9
  0
POLYLINE
  5
D4
330
42
100
AcDbEntity
  8
WINDOW
  6
Continuous
 62
   250
370
     9
100
AcDb2dPolyline
 66
     1
 10
0.0
 20
0.0
 30
0.0
 70
     1
  0
VERTEX
  5
D5
330
D4
100
AcDbEntity
  8
WINDOW
  6
Continuous
 62
   250
370
     9
100
AcDbVertex
100
AcDb2dVertex
 10
5.979663384592793
 20
-3.44825464747733
 30
0.0
  0
VERTEX
  5
D6
330
D4
100
AcDbEntity
  8
WINDOW
  6
Continuous
 62
   250
370
     9
100
AcDbVertex
100
AcDb2dVertex
 10
5.979203884080467
 20
-3.440725319984767
 30
0.0
  0
VERTEX
  5
D7
330
D4
100
AcDbEntity
  8
WINDOW
  6
Continuous
 62
   250
370
     9
100
AcDbVertex
100
AcDb2dVertex
 10
6.07684401944534
 20
-3.387585484564378
 30
0.0
  0
VERTEX
  5
D8
330
D4
100
AcDbEntity
  8
WINDOW
  6
Continuous
 62
   250
370
     9
100
AcDbVertex
100
AcDb2dVertex
 10
6.102405773306988
 20
-3.376074221839308
 30
0.0
  0
VERTEX
  5
D9
330
D4
100
AcDbEntity
  8
WINDOW
  6
Continuous
 62
   250
370
     9
100
AcDbVertex
100
AcDb2dVertex
 10
6.118434552019402
 20
-3.370905998380941
 30
0.0
  0
VERTEX
  5
DA
330
D4
100
AcDbEntity
  8
WINDOW
  6
Continuous
 62
   250
370
     9
100
AcDbVertex
100
AcDb2dVertex
 10
6.14548953159324
 20
-3.36580117512467
 30
0.0
  0
VERTEX
  5
DB
330
D4
100
AcDbEntity
  8
WINDOW
  6
Continuous
 62
   250
370
     9
100
AcDbVertex
100
AcDb2dVertex
 10
6.18845816316331
 20
-3.36383597013022
 30
0.0
  0
VERTEX
  5
DC
330
D4
100
AcDbEntity
  8
WINDOW
  6
Continuous
 62
   250
370
     9
100
AcDbVertex
100
AcDb2dVertex
 10
7.51063797965105
 20
-3.36383597013022
 30
0.0
  0
VERTEX
  5
DD
330
D4
100
AcDbEntity
  8
WINDOW
  6
Continuous
 62
   250
370
     9
100
AcDbVertex
100
AcDb2dVertex
 10
7.510944313325931
 20
-3.382110726160646
 30
0.0
  0
VERTEX
  5
DE
330
D4
100
AcDbEntity
  8
WINDOW
  6
Continuous
 62
   250
370
     9
100
AcDbVertex
100
AcDb2dVertex
 10
6.119098140801325
 20
-3.382263691727604
 30
0.0
  0
SEQEND
  5
DF
330
D4
100
AcDbEntity
  8
WINDOW
  6
Continuous
 62
   250
370
     9
  0
POLYLINE
  5
E0
330
42
100
AcDbEntity
  8
WINDOW
  6
Continuous
 62
   250
370
     9
100
AcDb2dPolyline
 66
     1
 10
0.0
 20
0.0
 30
0.0
 70
     1
  0
VERTEX
  5
E1
330
E0
100
AcDbEntity
  8
WINDOW
  6
Continuous
 62
   250
370
     9
100
AcDbVertex
100
AcDb2dVertex
 10
7.509771912763388
 20
-3.419652099160933
 30
0.0
  0
VERTEX
  5
E2
330
E0
100
AcDbEntity
  8
WINDOW
  6
Continuous
 62
   250
370
     9
100
AcDbVertex
100
AcDb2dVertex
 10
6.552029137955878
 20
-3.419652099160934
 30
0.0
  0
VERTEX
  5
E3
330
E0
100
AcDbEntity
  8
WINDOW
  6
Continuous
 62
   250
370
     9
100
AcDbVertex
100
AcDb2dVertex
 10
6.552029137955878
 20
-3.404886695269306
 30
0.0
  0
VERTEX
  5
E4
330
E0
100
AcDbEntity
  8
WINDOW
  6
Continuous
 62
   250
370
     9
100
AcDbVertex
100
AcDb2dVertex
 10
7.509771912763388
 20
-3.404874015228887
 30
0.0
  0
SEQEND
  5
E5
330
E0
100
AcDbEntity
  8
WINDOW
  6
Continuous
 62
   250
370
     9
  0
POLYLINE
  5
E6
330
42
100
AcDbEntity
  8
WINDOW
  6
Continuous
 62
   250
370
     9
100
AcDb2dPolyline
 66
     1
 10
0.0
 20
0.0
 30
0.0
 70
     1
  0
VERTEX
  5
E7
330
E6
100
AcDbEntity
  8
WINDOW
  6
Continuous
 62
   250
370
     9
100
AcDbVertex
100
AcDb2dVertex
 10
6.027968300474397
 20
-3.436178418506927
 30
0.0
  0
VERTEX
  5
E8
330
E6
100
AcDbEntity
  8
WINDOW
  6
Continuous
 62
   250
370
     9
100
AcDbVertex
100
AcDb2dVertex
 10
6.030443927413329
 20
-3.441372404587098
 30
0.0
  0
VERTEX
  5
E9
330
E6
100
AcDbEntity
  8
WINDOW
  6
Continuous
 62
   250
370
     9
100
AcDbVertex
100
AcDb2dVertex
 10
6.287529331661174
 20
-3.420047595659713
 30
0.0
  0
VERTEX
  5
EA
330
E6
100
AcDbEntity
  8
WINDOW
  6
Continuous
 62
   250
370
     9
100
AcDbVertex
100
AcDb2dVertex
 10
6.552029137955878
 20
-3.419652099160933
 30
0.0
  0
VERTEX
  5
EB
330
E6
100
AcDbEntity
  8
WINDOW
  6
Continuous
 62
   250
370
     9
100
AcDbVertex
100
AcDb2dVertex
 10
6.552029137955878
 20
-3.404886695269306
 30
0.0
  0
VERTEX
  5
EC
330
E6
100
AcDbEntity
  8
WINDOW
  6
Continuous
 62
   250
370
     9
100
AcDbVertex
100
AcDb2dVertex
 10
7.509771912763388
 20
-3.404874015228887
 30
0.0
  0
VERTEX
  5
ED
330
E6
100
AcDbEntity
  8
WINDOW
  6
Continuous
 62
   250
370
     9
100
AcDbVertex
100
AcDb2dVertex
 10
7.509771912763388
 20
-3.39359260339522
 30
0.0
  0
VERTEX
  5
EE
330
E6
100
AcDbEntity
  8
WINDOW
  6
Continuous
 62
   250
370
     9
100
AcDbVertex
100
AcDb2dVertex
 10
6.119750659706694
 20
-3.39359260339522
 30
0.0
  0
SEQEND
  5
EF
330
E6
100
AcDbEntity
  8
WINDOW
  6
Continuous
 62
   250
370
     9
  0
POLYLINE
  5
F0
330
42
100
AcDbEntity
  8
WINDOW
  6
Continuous
 62
   250
370
     9
100
AcDb2dPolyline
 66
     1
 10
0.0
 20
0.0
 30
0.0
 70
     1
  0
VERTEX
  5
F1
330
F0
100
AcDbEntity
  8
WINDOW
  6
Continuous
 62
   250
370
     9
100
AcDbVertex
100
AcDb2dVertex
 10
6.668008435905684
 20
-3.44825464747733
 30
0.0
  0
VERTEX
  5
F2
330
F0
100
AcDbEntity
  8
WINDOW
  6
Continuous
 62
   250
370
     9
100
AcDbVertex
100
AcDb2dVertex
 10
6.668008435905684
 20
-3.625030311285242
 30
0.0
  0
VERTEX
  5
F3
330
F0
100
AcDbEntity
  8
WINDOW
  6
Continuous
 62
   250
370
     9
100
AcDbVertex
100
AcDb2dVertex
 10
6.619703520024079
 20
-3.590644373461467
 30
0.0
  0
VERTEX
  5
F4
330
F0
100
AcDbEntity
  8
WINDOW
  6
Continuous
 62
   250
370
     9
100
AcDbVertex
100
AcDb2dVertex
 10
6.619703520024079
 20
-3.44825464747733
 30
0.0
  0
SEQEND
  5
F5
330
F0
100
AcDbEntity
  8
WINDOW
  6
Continuous
 62
   250
370
     9
  0
POLYLINE
  5
F6
330
42
100
AcDbEntity
  8
None
  6
Continuous
 62
   250
370
     9
100
AcDb2dPolyline
 66
     1
 10
0.0
 20
0.0
 30
0.0
 70
     1
  0
VERTEX
  5
F7
330
F6
100
AcDbEntity
  8
None
  6
Continuous
 62
   250
370
     9
100
AcDbVertex
100
AcDb2dVertex
 10
6.827772526859668
 20
-3.629398082033353
 30
0.0
  0
VERTEX
  5
F8
330
F6
100
AcDbEntity
  8
None
  6
Continuous
 62
   250
370
     9
100
AcDbVertex
100
AcDb2dVertex
 10
6.827772526859668
 20
-3.581142645201538
 30
0.0
  0
VERTEX
  5
F9
330
F6
100
AcDbEntity
  8
None
  6
Continuous
 62
   250
370
     9
100
AcDbVertex
100
AcDb2dVertex
 10
6.8008469545801
 20
-3.581142645201538
 30
0.0
  0
VERTEX
  5
FA
330
F6
100
AcDbEntity
  8
None
  6
Continuous
 62
   250
370
     9
100
AcDbVertex
100
AcDb2dVertex
 10
6.8008469545801
 20
-3.629398082033353
 30
0.0
  0
VERTEX
  5
FB
330
F6
100
AcDbEntity
  8
None
  6
Continuous
 62
   250
370
     9
100
AcDbVertex
100
AcDb2dVertex
 10
6.668008435905684
 20
-3.629398082033353
 30
0.0
  0
VERTEX
  5
FC
330
F6
100
AcDbEntity
  8
None
  6
Continuous
 62
   250
370
     9
100
AcDbVertex
100
AcDb2dVertex
 10
6.668008435905684
 20
-3.44825464747733
 30
0.0
  0
VERTEX
  5
FD
330
F6
100
AcDbEntity
  8
None
  6
Continuous
 62
   250
370
     9
100
AcDbVertex
100
AcDb2dVertex
 10
6.994066618106531
 20
-3.44825464747733
 30
0.0
  0
VERTEX
  5
FE
330
F6
100
AcDbEntity
  8
None
  6
Continuous
 62
   250
370
     9
100
AcDbVertex
100
AcDb2dVertex
 10
6.994066618106531
 20
-3.608520093577875
 30
0.0
  0
VERTEX
  5
FF
330
F6
100
AcDbEntity
  8
None
  6
Continuous
 62
   250
370
     9
100
AcDbVertex
100
AcDb2dVertex
 10
6.961932577898221
 20
-3.608520093577875
 30
0.0
  0
VERTEX
  5
100
330
F6
100
AcDbEntity
  8
None
  6
Continuous
 62
   250
370
     9
100
AcDbVertex
100
AcDb2dVertex
 10
6.961932577898221
 20
-3.629398082033353
 30
0.0
  0
SEQEND
  5
101
330
F6
100
AcDbEntity
  8
None
  6
Continuous
 62
   250
370
     9
  0
POLYLINE
  5
102
330
42
100
AcDbEntity
  8
FIXT
  6
Continuous
 62
   250
370
     9
100
AcDb2dPolyline
 66
     1
 10
0.0
 20
0.0
 30
0.0
 70
     1
  0
VERTEX
  5
103
330
102
100
AcDbEntity
  8
FIXT
  6
Continuous
 62
   250
370
     9
100
AcDbVertex
100
AcDb2dVertex
 10
6.994066618106531
 20
-3.629398082033353
 30
0.0
  0
VERTEX
  5
104
330
102
100
AcDbEntity
  8
FIXT
  6
Continuous
 62
   250
370
     9
100
AcDbVertex
100
AcDb2dVertex
 10
6.994066618106531
 20
-3.608520093577875
 30
0.0
  0
VERTEX
  5
105
330
102
100
AcDbEntity
  8
FIXT
  6
Continuous
 62
   250
370
     9
100
AcDbVertex
100
AcDb2dVertex
 10
6.961932577898221
 20
-3.608520093577875
 30
0.0
  0
VERTEX
  5
106
330
102
100
AcDbEntity
  8
FIXT
  6
Continuous
 62
   250
370
     9
100
AcDbVertex
100
AcDb2dVertex
 10
6.961932577898221
 20
-3.629398082033353
 30
0.0
  0
SEQEND
  5
107
330
102
100
AcDbEntity
  8
FIXT
  6
Continuous
 62
   250
370
     9
  0
POLYLINE
  5
108
330
42
100
AcDbEntity
  8
None
  6
Continuous
 62
   250
370
     9
100
AcDb2dPolyline
 66
     1
 10
0.0
 20
0.0
 30
0.0
 70
     1
  0
VERTEX
  5
109
330
108
100
AcDbEntity
  8
None
  6
Continuous
 62
   250
370
     9
100
AcDbVertex
100
AcDb2dVertex
 10
7.138981365751348
 20
-3.460330876447733
 30
0.0
  0
VERTEX
  5
10A
330
108
100
AcDbEntity
  8
None
  6
Continuous
 62
   250
370
     9
100
AcDbVertex
100
AcDb2dVertex
 10
7.288809727895122
 20
-3.460330876447733
 30
0.0
  0
VERTEX
  5
10B
330
108
100
AcDbEntity
  8
None
  6
Continuous
 62
   250
370
     9
100
AcDbVertex
100
AcDb2dVertex
 10
7.288809727895122
 20
-3.543644377573567
 30
0.0
  0
VERTEX
  5
10C
330
108
100
AcDbEntity
  8
None
  6
Continuous
 62
   250
370
     9
100
AcDbVertex
100
AcDb2dVertex
 10
7.138981365751348
 20
-3.543644377573567
 30
0.0
  0
SEQEND
  5
10D
330
108
100
AcDbEntity
  8
None
  6
Continuous
 62
   250
370
     9
  0
POLYLINE
  5
10E
330
42
100
AcDbEntity
  8
None
  6
Continuous
 62
   250
370
     9
100
AcDb2dPolyline
 66
     1
 10
0.0
 20
0.0
 30
0.0
 70
     1
  0
VERTEX
  5
10F
330
10E
100
AcDbEntity
  8
None
  6
Continuous
 62
   250
370
     9
100
AcDbVertex
100
AcDb2dVertex
 10
7.492533297178625
 20
-3.641474311003756
 30
0.0
  0
VERTEX
  5
110
330
10E
100
AcDbEntity
  8
None
  6
Continuous
 62
   250
370
     9
100
AcDbVertex
100
AcDb2dVertex
 10
7.389572219566197
 20
-3.641474311003756
 30
0.0
  0
VERTEX
  5
111
330
10E
100
AcDbEntity
  8
None
  6
Continuous
 62
   250
370
     9
100
AcDbVertex
100
AcDb2dVertex
 10
7.389572219566197
 20
-3.626485857158475
 30
0.0
  0
VERTEX
  5
112
330
10E
100
AcDbEntity
  8
None
  6
Continuous
 62
   250
370
     9
100
AcDbVertex
100
AcDb2dVertex
 10
7.360209024587863
 20
-3.626485857158475
 30
0.0
  0
VERTEX
  5
113
330
10E
100
AcDbEntity
  8
None
  6
Continuous
 62
   250
370
     9
100
AcDbVertex
100
AcDb2dVertex
 10
7.360209024587863
 20
-3.641474311003756
 30
0.0
  0
VERTEX
  5
114
330
10E
100
AcDbEntity
  8
None
  6
Continuous
 62
   250
370
     9
100
AcDbVertex
100
AcDb2dVertex
 10
7.307073617118094
 20
-3.641474311003756
 30
0.0
  0
VERTEX
  5
115
330
10E
100
AcDbEntity
  8
None
  6
Continuous
 62
   250
370
     9
100
AcDbVertex
100
AcDb2dVertex
 10
7.307073617118094
 20
-3.569016937181346
 30
0.0
  0
VERTEX
  5
116
330
10E
100
AcDbEntity
  8
None
  6
Continuous
 62
   250
370
     9
100
AcDbVertex
100
AcDb2dVertex
 10
7.492533297178625
 20
-3.569016937181346
 30
0.0
  0
SEQEND
  5
117
330
10E
100
AcDbEntity
  8
None
  6
Continuous
 62
   250
370
     9
  0
POLYLINE
  5
118
330
42
100
AcDbEntity
  8
None
  6
Continuous
 62
   250
370
     9
100
AcDb2dPolyline
 66
     1
 10
0.0
 20
0.0
 30
0.0
 70
     1
  0
VERTEX
  5
119
330
118
100
AcDbEntity
  8
None
  6
Continuous
 62
   250
370
     9
100
AcDbVertex
100
AcDb2dVertex
 10
7.320124800307372
 20
-3.460330876447731
 30
0.0
  0
VERTEX
  5
11A
330
118
100
AcDbEntity
  8
None
  6
Continuous
 62
   250
370
     9
100
AcDbVertex
100
AcDb2dVertex
 10
7.320124800307372
 20
-3.551009426093465
 30
0.0
  0
VERTEX
  5
11B
330
118
100
AcDbEntity
  8
None
  6
Continuous
 62
   250
370
     9
100
AcDbVertex
100
AcDb2dVertex
 10
7.490632297468201
 20
-3.551009426093465
 30
0.0
  0
VERTEX
  5
11C
330
118
100
AcDbEntity
  8
None
  6
Continuous
 62
   250
370
     9
100
AcDbVertex
100
AcDb2dVertex
 10
7.490632297468201
 20
-3.460330876447731
 30
0.0
  0
SEQEND
  5
11D
330
118
100
AcDbEntity
  8
None
  6
Continuous
 62
   250
370
     9
  0
POLYLINE
  5
11E
330
42
100
AcDbEntity
  8
WINDOW
  6
Continuous
 62
   250
370
     9
100
AcDb2dPolyline
 66
     1
 10
0.0
 20
0.0
 30
0.0
 70
     1
  0
VERTEX
  5
11F
330
11E
100
AcDbEntity
  8
WINDOW
  6
Continuous
 62
   250
370
     9
100
AcDbVertex
100
AcDb2dVertex
 10
6.803675880372306
 20
-4.093014175400041
 30
0.0
  0
VERTEX
  5
120
330
11E
100
AcDbEntity
  8
WINDOW
  6
Continuous
 62
   250
370
     9
100
AcDbVertex
100
AcDb2dVertex
 10
6.803675880372306
 20
-4.146231398931253
 30
0.0
  0
VERTEX
  5
121
330
11E
100
AcDbEntity
  8
WINDOW
  6
Continuous
 62
   250
370
     9
100
AcDbVertex
100
AcDb2dVertex
 10
6.701452064131368
 20
-4.146231398931253
 30
0.0
  0
VERTEX
  5
122
330
11E
100
AcDbEntity
  8
WINDOW
  6
Continuous
 62
   250
370
     9
100
AcDbVertex
100
AcDb2dVertex
 10
6.701452064131368
 20
-4.093014175400041
 30
0.0
  0
SEQEND
  5
123
330
11E
100
AcDbEntity
  8
WINDOW
  6
Continuous
 62
   250
370
     9
  0
POLYLINE
  5
124
330
42
100
AcDbEntity
  8
WINDOW
  6
Continuous
 62
   250
370
     9
100
AcDb2dPolyline
 66
     1
 10
0.0
 20
0.0
 30
0.0
 70
     1
  0
VERTEX
  5
125
330
124
100
AcDbEntity
  8
WINDOW
  6
Continuous
 62
   250
370
     9
100
AcDbVertex
100
AcDb2dVertex
 10
4.818743894202274
 20
-3.726020593836988
 30
0.0
  0
VERTEX
  5
126
330
124
100
AcDbEntity
  8
WINDOW
  6
Continuous
 62
   250
370
     9
100
AcDbVertex
100
AcDb2dVertex
 10
5.267165875339094
 20
-3.726007913796568
 30
0.0
  0
VERTEX
  5
127
330
124
100
AcDbEntity
  8
WINDOW
  6
Continuous
 62
   250
370
     9
100
AcDbVertex
100
AcDb2dVertex
 10
5.267165875339094
 20
-3.678827697373072
 30
0.0
  0
VERTEX
  5
128
330
124
100
AcDbEntity
  8
WINDOW
  6
Continuous
 62
   250
370
     9
100
AcDbVertex
100
AcDb2dVertex
 10
4.82341457702706
 20
-3.678827697373072
 30
0.0
  0
VERTEX
  5
129
330
124
100
AcDbEntity
  8
WINDOW
  6
Continuous
 62
   250
370
     9
100
AcDbVertex
100
AcDb2dVertex
 10
4.795057981240693
 20
-3.684621469492104
 30
0.0
  0
VERTEX
  5
12A
330
124
100
AcDbEntity
  8
WINDOW
  6
Continuous
 62
   250
370
     9
100
AcDbVertex
100
AcDb2dVertex
 10
4.775277319457658
 20
-3.697115334714399
 30
0.0
  0
VERTEX
  5
12B
330
124
100
AcDbEntity
  8
WINDOW
  6
Continuous
 62
   250
370
     9
100
AcDbVertex
100
AcDb2dVertex
 10
4.761265069712818
 20
-3.713782140857414
 30
0.0
  0
VERTEX
  5
12C
330
124
100
AcDbEntity
  8
WINDOW
  6
Continuous
 62
   250
370
     9
100
AcDbVertex
100
AcDb2dVertex
 10
4.752676254398586
 20
-3.733779772220953
 30
0.0
  0
VERTEX
  5
12D
330
124
100
AcDbEntity
  8
WINDOW
  6
Continuous
 62
   250
370
     9
100
AcDbVertex
100
AcDb2dVertex
 10
4.755011797081461
 20
-4.388750353339796
 30
0.0
  0
VERTEX
  5
12E
330
124
100
AcDbEntity
  8
WINDOW
  6
Continuous
 62
   250
370
     9
100
AcDbVertex
100
AcDb2dVertex
 10
4.752050907008402
 20
-4.472416279081084
 30
0.0
  0
VERTEX
  5
12F
330
124
100
AcDbEntity
  8
WINDOW
  6
Continuous
 62
   250
370
     9
100
AcDbVertex
100
AcDb2dVertex
 10
4.725927608499632
 20
-4.625276380306496
 30
0.0
  0
VERTEX
  5
130
330
124
100
AcDbEntity
  8
WINDOW
  6
Continuous
 62
   250
370
     9
100
AcDbVertex
100
AcDb2dVertex
 10
4.700519021475422
 20
-4.69956249773599
 30
0.0
  0
VERTEX
  5
131
330
124
100
AcDbEntity
  8
WINDOW
  6
Continuous
 62
   250
370
     9
100
AcDbVertex
100
AcDb2dVertex
 10
4.766990586519199
 20
-4.701092176891843
 30
0.0
  0
VERTEX
  5
132
330
124
100
AcDbEntity
  8
WINDOW
  6
Continuous
 62
   250
370
     9
100
AcDbVertex
100
AcDb2dVertex
 10
4.76985399670947
 20
-4.701092176891843
 30
0.0
  0
VERTEX
  5
133
330
124
100
AcDbEntity
  8
WINDOW
  6
Continuous
 62
   250
370
     9
100
AcDbVertex
100
AcDb2dVertex
 10
4.794190304189169
 20
-4.580112692850575
 30
0.0
  0
VERTEX
  5
134
330
124
100
AcDbEntity
  8
WINDOW
  6
Continuous
 62
   250
370
     9
100
AcDbVertex
100
AcDb2dVertex
 10
4.804144337188506
 20
-4.314477117221203
 30
0.0
  0
VERTEX
  5
135
330
124
100
AcDbEntity
  8
WINDOW
  6
Continuous
 62
   250
370
     9
100
AcDbVertex
100
AcDb2dVertex
 10
4.804067854405027
 20
-3.740913603214735
 30
0.0
  0
SEQEND
  5
136
330
124
100
AcDbEntity
  8
WINDOW
  6
Continuous
 62
   250
370
     9
  0
POLYLINE
  5
137
330
42
100
AcDbEntity
  8
WINDOW
  6
Continuous
 62
   250
370
     9
100
AcDb2dPolyline
 66
     1
 10
0.0
 20
0.0
 30
0.0
 70
     1
  0
VERTEX
  5
138
330
137
100
AcDbEntity
  8
WINDOW
  6
Continuous
 62
   250
370
     9
100
AcDbVertex
100
AcDb2dVertex
 10
5.267165875339094
 20
-3.726007913796568
 30
0.0
  0
VERTEX
  5
139
330
137
100
AcDbEntity
  8
WINDOW
  6
Continuous
 62
   250
370
     9
100
AcDbVertex
100
AcDb2dVertex
 10
4.818041862758128
 20
-3.726020593836988
 30
0.0
  0
VERTEX
  5
13A
330
137
100
AcDbEntity
  8
WINDOW
  6
Continuous
 62
   250
370
     9
100
AcDbVertex
100
AcDb2dVertex
 10
4.804284823985529
 20
-3.740913603214735
 30
0.0
  0
VERTEX
  5
13B
330
137
100
AcDbEntity
  8
WINDOW
  6
Continuous
 62
   250
370
     9
100
AcDbVertex
100
AcDb2dVertex
 10
4.803940248918907
 20
-4.325413953988248
 30
0.0
  0
VERTEX
  5
13C
330
137
100
AcDbEntity
  8
WINDOW
  6
Continuous
 62
   250
370
     9
100
AcDbVertex
100
AcDb2dVertex
 10
4.794407273769672
 20
-4.580112692850575
 30
0.0
  0
VERTEX
  5
13D
330
137
100
AcDbEntity
  8
WINDOW
  6
Continuous
 62
   250
370
     9
100
AcDbVertex
100
AcDb2dVertex
 10
4.770070966289972
 20
-4.701092176891843
 30
0.0
  0
VERTEX
  5
13E
330
137
100
AcDbEntity
  8
WINDOW
  6
Continuous
 62
   250
370
     9
100
AcDbVertex
100
AcDb2dVertex
 10
4.831007908533164
 20
-4.701092176891843
 30
0.0
  0
VERTEX
  5
13F
330
137
100
AcDbEntity
  8
WINDOW
  6
Continuous
 62
   250
370
     9
100
AcDbVertex
100
AcDb2dVertex
 10
4.831007908533164
 20
-3.79715441296424
 30
0.0
  0
VERTEX
  5
140
330
137
100
AcDbEntity
  8
WINDOW
  6
Continuous
 62
   250
370
     9
100
AcDbVertex
100
AcDb2dVertex
 10
4.869012404914465
 20
-3.79715441296424
 30
0.0
  0
VERTEX
  5
141
330
137
100
AcDbEntity
  8
WINDOW
  6
Continuous
 62
   250
370
     9
100
AcDbVertex
100
AcDb2dVertex
 10
4.869012404914465
 20
-3.750854956173652
 30
0.0
  0
VERTEX
  5
142
330
137
100
AcDbEntity
  8
WINDOW
  6
Continuous
 62
   250
370
     9
100
AcDbVertex
100
AcDb2dVertex
 10
5.267165875339094
 20
-3.750854956173652
 30
0.0
  0
SEQEND
  5
143
330
137
100
AcDbEntity
  8
WINDOW
  6
Continuous
 62
   250
370
     9
  0
POLYLINE
  5
144
330
42
100
AcDbEntity
  8
WINDOW
  6
Continuous
 62
   250
370
     9
100
AcDb2dPolyline
 66
     1
 10
0.0
 20
0.0
 30
0.0
 70
     1
  0
VERTEX
  5
145
330
144
100
AcDbEntity
  8
WINDOW
  6
Continuous
 62
   250
370
     9
100
AcDbVertex
100
AcDb2dVertex
 10
5.883053552829576
 20
-3.508635792329338
 30
0.0
  0
VERTEX
  5
146
330
144
100
AcDbEntity
  8
WINDOW
  6
Continuous
 62
   250
370
     9
100
AcDbVertex
100
AcDb2dVertex
 10
5.85474787847537
 20
-3.529437298001337
 30
0.0
  0
VERTEX
  5
147
330
144
100
AcDbEntity
  8
WINDOW
  6
Continuous
 62
   250
370
     9
100
AcDbVertex
100
AcDb2dVertex
 10
5.850830148526891
 20
-3.51776038966889
 30
0.0
  0
VERTEX
  5
148
330
144
100
AcDbEntity
  8
WINDOW
  6
Continuous
 62
   250
370
     9
100
AcDbVertex
100
AcDb2dVertex
 10
5.869130465908635
 20
-3.504169197774152
 30
0.0
  0
SEQEND
  5
149
330
144
100
AcDbEntity
  8
WINDOW
  6
Continuous
 62
   250
370
     9
  0
POLYLINE
  5
14A
330
42
100
AcDbEntity
  8
WINDOW
  6
Continuous
 62
   250
370
     9
100
AcDb2dPolyline
 66
     1
 10
0.0
 20
0.0
 30
0.0
 70
     1
  0
VERTEX
  5
14B
330
14A
100
AcDbEntity
  8
WINDOW
  6
Continuous
 62
   250
370
     9
100
AcDbVertex
100
AcDb2dVertex
 10
5.895129781799979
 20
-3.520712021299739
 30
0.0
  0
VERTEX
  5
14C
330
14A
100
AcDbEntity
  8
WINDOW
  6
Continuous
 62
   250
370
     9
100
AcDbVertex
100
AcDb2dVertex
 10
5.868713030927226
 20
-3.540122546664831
 30
0.0
  0
VERTEX
  5
14D
330
14A
100
AcDbEntity
  8
WINDOW
  6
Continuous
 62
   250
370
     9
100
AcDbVertex
100
AcDb2dVertex
 10
5.897656531441553
 20
-3.561013617701695
 30
0.0
  0
VERTEX
  5
14E
330
14A
100
AcDbEntity
  8
WINDOW
  6
Continuous
 62
   250
370
     9
100
AcDbVertex
100
AcDb2dVertex
 10
5.992565627624766
 20
-3.603318861760322
 30
0.0
  0
VERTEX
  5
14F
330
14A
100
AcDbEntity
  8
WINDOW
  6
Continuous
 62
   250
370
     9
100
AcDbVertex
100
AcDb2dVertex
 10
6.070718553570584
 20
-3.62145333226421
 30
0.0
  0
VERTEX
  5
150
330
14A
100
AcDbEntity
  8
WINDOW
  6
Continuous
 62
   250
370
     9
100
AcDbVertex
100
AcDb2dVertex
 10
6.070718553570584
 20
-3.600855713591327
 30
0.0
  0
VERTEX
  5
151
330
14A
100
AcDbEntity
  8
WINDOW
  6
Continuous
 62
   250
370
     9
100
AcDbVertex
100
AcDb2dVertex
 10
6.04602447676046
 20
-3.600855713591327
 30
0.0
  0
VERTEX
  5
152
330
14A
100
AcDbEntity
  8
WINDOW
  6
Continuous
 62
   250
370
     9
100
AcDbVertex
100
AcDb2dVertex
 10
6.04602447676046
 20
-3.574298677192034
 30
0.0
  0
VERTEX
  5
153
330
14A
100
AcDbEntity
  8
WINDOW
  6
Continuous
 62
   250
370
     9
100
AcDbVertex
100
AcDb2dVertex
 10
6.068421453549931
 20
-3.574298677192034
 30
0.0
  0
VERTEX
  5
154
330
14A
100
AcDbEntity
  8
WINDOW
  6
Continuous
 62
   250
370
     9
100
AcDbVertex
100
AcDb2dVertex
 10
6.068421453549931
 20
-3.561013617701695
 30
0.0
  0
VERTEX
  5
155
330
14A
100
AcDbEntity
  8
WINDOW
  6
Continuous
 62
   250
370
     9
100
AcDbVertex
100
AcDb2dVertex
 10
6.037218893136209
 20
-3.561013617701695
 30
0.0
  0
VERTEX
  5
156
330
14A
100
AcDbEntity
  8
WINDOW
  6
Continuous
 62
   250
370
     9
100
AcDbVertex
100
AcDb2dVertex
 10
5.947899682072909
 20
-3.536842844146954
 30
0.0
  0
SEQEND
  5
157
330
14A
100
AcDbEntity
  8
WINDOW
  6
Continuous
 62
   250
370
     9
  0
LINE
  5
158
330
42
100
AcDbEntity
  8
A-ARCH
  6
Continuous
 62
   250
370
     9
100
AcDbLine
 10
6.668008435905684
 20
-3.44825464747733
 30
0.0
 11
6.668008435905684
 21
-3.627901635993438
 31
0.0
  0
LINE
  5
159
330
42
100
AcDbEntity
  8
A-ARCH
  6
Continuous
 62
   250
370
     9
100
AcDbLine
 10
6.668008435905684
 20
-3.44825464747733
 30
0.0
 11
6.668008435905684
 21
-3.624328481111579
 31
0.0
  0
LINE
  5
15A
330
42
100
AcDbEntity
  8
A-ARCH
  6
Continuous
 62
   250
370
     9
100
AcDbLine
 10
6.994066618106531
 20
-3.44825464747733
 30
0.0
 11
6.994066618106531
 21
-3.624328481111579
 31
0.0
  0
POLYLINE
  5
15B
330
42
100
AcDbEntity
  8
FIXT
  6
Continuous
 62
   250
370
     9
100
AcDb2dPolyline
 66
     1
 10
0.0
 20
0.0
 30
0.0
 70
     1
  0
VERTEX
  5
15C
330
15B
100
AcDbEntity
  8
FIXT
  6
Continuous
 62
   250
370
     9
100
AcDbVertex
100
AcDb2dVertex
 10
7.271819884425766
 20
-3.550680926464334
 30
0.0
  0
VERTEX
  5
15D
330
15B
100
AcDbEntity
  8
FIXT
  6
Continuous
 62
   250
370
     9
100
AcDbVertex
100
AcDb2dVertex
 10
7.271819884425766
 20
-3.617935055764363
 30
0.0
  0
VERTEX
  5
15E
330
15B
100
AcDbEntity
  8
FIXT
  6
Continuous
 62
   250
370
     9
100
AcDbVertex
100
AcDb2dVertex
 10
7.144131072325293
 20
-3.617935055764363
 30
0.0
  0
VERTEX
  5
15F
330
15B
100
AcDbEntity
  8
FIXT
  6
Continuous
 62
   250
370
     9
100
AcDbVertex
100
AcDb2dVertex
 10
7.144131072325293
 20
-3.550680926464334
 30
0.0
  0
SEQEND
  5
160
330
15B
100
AcDbEntity
  8
FIXT
  6
Continuous
 62
   250
370
     9
  0
POLYLINE
  5
161
330
42
100
AcDbEntity
  8
FIXT
  6
Continuous
 62
   250
370
     9
100
AcDb2dPolyline
 66
     1
 10
0.0
 20
0.0
 30
0.0
 70
     1
  0
VERTEX
  5
162
330
161
100
AcDbEntity
  8
FIXT
  6
Continuous
 62
   250
370
     9
100
AcDbVertex
100
AcDb2dVertex
 10
6.762033149587301
 20
-3.795596501159699
 30
0.0
  0
VERTEX
  5
163
330
161
100
AcDbEntity
  8
FIXT
  6
Continuous
 62
   250
370
     9
100
AcDbVertex
100
AcDb2dVertex
 10
6.762033149587301
 20
-3.756060805834031
 30
0.0
  0
VERTEX
  5
164
330
161
100
AcDbEntity
  8
FIXT
  6
Continuous
 62
   250
370
     9
100
AcDbVertex
100
AcDb2dVertex
 10
6.588537993379198
 20
-3.756060805834031
 30
0.0
  0
VERTEX
  5
165
330
161
100
AcDbEntity
  8
FIXT
  6
Continuous
 62
   250
370
     9
100
AcDbVertex
100
AcDb2dVertex
 10
6.588537993379198
 20
-3.795596501159699
 30
0.0
  0
SEQEND
  5
166
330
161
100
AcDbEntity
  8
FIXT
  6
Continuous
 62
   250
370
     9
  0
POLYLINE
  5
167
330
42
100
AcDbEntity
  8
WINDOW
  6
Continuous
 62
   250
370
     9
100
AcDb2dPolyline
 66
     1
 10
0.0
 20
0.0
 30
0.0
 70
     1
  0
VERTEX
  5
168
330
167
100
AcDbEntity
  8
WINDOW
  6
Continuous
 62
   250
370
     9
100
AcDbVertex
100
AcDb2dVertex
 10
7.551058526908366
 20
-3.375797273654919
 30
0.0
  0
VERTEX
  5
169
330
167
100
AcDbEntity
  8
WINDOW
  6
Continuous
 62
   250
370
     9
100
AcDbVertex
100
AcDb2dVertex
 10
7.551058526908366
 20
-3.358007378217656
 30
0.0
  0
VERTEX
  5
16A
330
167
100
AcDbEntity
  8
WINDOW
  6
Continuous
 62
   250
370
     9
100
AcDbVertex
100
AcDb2dVertex
 10
7.860760262050732
 20
-3.358007378217656
 30
0.0
  0
VERTEX
  5
16B
330
167
100
AcDbEntity
  8
WINDOW
  6
Continuous
 62
   250
370
     9
100
AcDbVertex
100
AcDb2dVertex
 10
7.860760262050732
 20
-3.375797273654919
 30
0.0
  0
SEQEND
  5
16C
330
167
100
AcDbEntity
  8
WINDOW
  6
Continuous
 62
   250
370
     9
  0
POLYLINE
  5
16D
330
42
100
AcDbEntity
  8
WINDOW
  6
Continuous
 62
   250
370
     9
100
AcDb2dPolyline
 66
     1
 10
0.0
 20
0.0
 30
0.0
 70
     1
  0
VERTEX
  5
16E
330
16D
100
AcDbEntity
  8
WINDOW
  6
Continuous
 62
   250
370
     9
100
AcDbVertex
100
AcDb2dVertex
 10
7.551058526908366
 20
-3.399949731595723
 30
0.0
  0
VERTEX
  5
16F
330
16D
100
AcDbEntity
  8
WINDOW
  6
Continuous
 62
   250
370
     9
100
AcDbVertex
100
AcDb2dVertex
 10
7.551058526908366
 20
-3.410350585066964
 30
0.0
  0
VERTEX
  5
170
330
16D
100
AcDbEntity
  8
WINDOW
  6
Continuous
 62
   250
370
     9
100
AcDbVertex
100
AcDb2dVertex
 10
7.55384048752218
 20
-3.41280085192506
 30
0.0
  0
VERTEX
  5
171
330
16D
100
AcDbEntity
  8
WINDOW
  6
Continuous
 62
   250
370
     9
100
AcDbVertex
100
AcDb2dVertex
 10
7.847692373411375
 20
-3.41280085192506
 30
0.0
  0
VERTEX
  5
172
330
16D
100
AcDbEntity
  8
WINDOW
  6
Continuous
 62
   250
370
     9
100
AcDbVertex
100
AcDb2dVertex
 10
7.847692373411375
 20
-3.438694500812911
 30
0.0
  0
VERTEX
  5
173
330
16D
100
AcDbEntity
  8
WINDOW
  6
Continuous
 62
   250
370
     9
100
AcDbVertex
100
AcDb2dVertex
 10
7.863555103975447
 20
-3.438694500812911
 30
0.0
  0
VERTEX
  5
174
330
16D
100
AcDbEntity
  8
WINDOW
  6
Continuous
 62
   250
370
     9
100
AcDbVertex
100
AcDb2dVertex
 10
7.863963481785129
 20
-3.399949731595723
 30
0.0
  0
SEQEND
  5
175
330
16D
100
AcDbEntity
  8
WINDOW
  6
Continuous
 62
   250
370
     9
  0
POLYLINE
  5
176
330
42
100
AcDbEntity
  8
WINDOW
  6
Continuous
 62
   250
370
     9
100
AcDb2dPolyline
 66
     1
 10
0.0
 20
0.0
 30
0.0
 70
     1
  0
VERTEX
  5
177
330
176
100
AcDbEntity
  8
WINDOW
  6
Continuous
 62
   250
370
     9
100
AcDbVertex
100
AcDb2dVertex
 10
6.038677500325349
 20
-3.745247359251245
 30
0.0
  0
VERTEX
  5
178
330
176
100
AcDbEntity
  8
WINDOW
  6
Continuous
 62
   250
370
     9
100
AcDbVertex
100
AcDb2dVertex
 10
5.991739613563194
 20
-3.745247359251245
 30
0.0
  0
VERTEX
  5
179
330
176
100
AcDbEntity
  8
WINDOW
  6
Continuous
 62
   250
370
     9
100
AcDbVertex
100
AcDb2dVertex
 10
5.991739613563194
 20
-3.66562676894456
 30
0.0
  0
VERTEX
  5
17A
330
176
100
AcDbEntity
  8
WINDOW
  6
Continuous
 62
   250
370
     9
100
AcDbVertex
100
AcDb2dVertex
 10
6.026030468265614
 20
-3.67426650569095
 30
0.0
  0
VERTEX
  5
17B
330
176
100
AcDbEntity
  8
WINDOW
  6
Continuous
 62
   250
370
     9
100
AcDbVertex
100
AcDb2dVertex
 10
6.038677500325349
 20
-3.676014942375382
 30
0.0
  0
SEQEND
  5
17C
330
176
100
AcDbEntity
  8
WINDOW
  6
Continuous
 62
   250
370
     9
  0
LWPOLYLINE
  5
17D
330
42
100
AcDbEntity
  8
None
  6
Continuous
 62
   250
370
     9
100
AcDbPolyline
 90
       14
 70
     1
 43
0.0
 10
6.139069607002093
 20
-3.763420876228813
 10
6.139069607002093
 20
-3.821110833454767
 10
6.116196024429602
 20
-3.821110833454767
 10
6.116196024429602
 20
-4.042290202190558
 10
6.116196024429602
 20
-4.043579140972522
 10
6.116196024429602
 20
-4.047946248225492
 10
6.097387738118661
 20
-4.047946248225492
 10
6.097387738118661
 20
-4.043509685230926
 10
6.097387738118661
 20
-4.042290202190558
 10
6.097387738118661
 20
-3.790925739984124
 42
-0.4142135623730993
 10
6.136031670823947
 20
-3.752281807278839
 10
6.155715907171128
 20
-3.752281807278839
 10
6.160806819148817
 20
-3.752281807278839
 10
6.160806819148817
 20
-3.763420876228813
  0
LWPOLYLINE
  5
17E
330
42
100
AcDbEntity
  8
None
  6
Continuous
 62
   250
370
     9
100
AcDbPolyline
 90
        6
 70
     1
 43
0.0
 10
6.092903526704943
 20
-3.618683399716347
 10
6.137673917902284
 20
-3.618471997158657
 10
6.169348903978042
 20
-3.586797011082899
 10
6.139813671123285
 20
-3.557160775669037
 10
6.090827602180387
 20
-3.557160775669037
 10
6.061005855510403
 20
-3.587078475029144
  0
LINE
  5
17F
330
42
100
AcDbEntity
  8
None
  6
Continuous
 62
   250
370
     9
100
AcDbLine
 10
4.766235041745587
 20
-4.70107478989199
 30
0.0
 11
7.863555103975447
 21
-4.701284458089557
 31
0.0
  0
LINE
  5
180
330
42
100
AcDbEntity
  8
None
  6
Continuous
 62
   250
370
     9
100
AcDbLine
 10
6.25853229319841
 20
-4.078056354717027
 30
0.0
 11
6.25853229319841
 21
-4.25736198849424
 31
0.0
  0
LINE
  5
181
330
42
100
AcDbEntity
  8
None
  6
Continuous
 62
   250
370
     9
100
AcDbLine
 10
6.300007900326771
 20
-4.078056354717027
 30
0.0
 11
6.300007900326771
 21
-4.25736198849424
 31
0.0
  0
LINE
  5
182
330
42
100
AcDbEntity
  8
None
  6
Continuous
 62
   250
370
     9
100
AcDbLine
 10
6.519446587363924
 20
-4.078056354717027
 30
0.0
 11
6.519446587363924
 21
-4.25736198849424
 31
0.0
  0
LINE
  5
183
330
42
100
AcDbEntity
  8
None
  6
Continuous
 62
   250
370
     9
100
AcDbLine
 10
6.557910382987067
 20
-4.078056354717027
 30
0.0
 11
6.557910382987067
 21
-4.257612449911134
 31
0.0
  0
LINE
  5
184
330
42
100
AcDbEntity
  8
None
  6
Continuous
 62
   250
370
     9
100
AcDbLine
 10
6.852674707722858
 20
-4.078056354717027
 30
0.0
 11
6.852674707722858
 21
-4.25736198849424
 31
0.0
  0
LINE
  5
185
330
42
100
AcDbEntity
  8
None
  6
Continuous
 62
   250
370
     9
100
AcDbLine
 10
6.813701583743939
 20
-4.078056354717027
 30
0.0
 11
6.813701583743939
 21
-4.25736198849424
 31
0.0
  0
POLYLINE
  5
186
330
42
100
AcDbEntity
  8
WINDOW
  6
Continuous
 62
   250
370
     9
100
AcDb2dPolyline
 66
     1
 10
0.0
 20
0.0
 30
0.0
 70
     1
  0
VERTEX
  5
187
330
186
100
AcDbEntity
  8
WINDOW
  6
Continuous
 62
   250
370
     9
100
AcDbVertex
100
AcDb2dVertex
 10
6.655932206935282
 20
-3.641474311003756
 30
0.0
  0
VERTEX
  5
188
330
186
100
AcDbEntity
  8
WINDOW
  6
Continuous
 62
   250
370
     9
100
AcDbVertex
100
AcDb2dVertex
 10
6.655932206935282
 20
-3.661357016921591
 30
0.0
  0
VERTEX
  5
189
330
186
100
AcDbEntity
  8
WINDOW
  6
Continuous
 62
   250
370
     9
100
AcDbVertex
100
AcDb2dVertex
 10
6.602902050693778
 20
-3.661357016921591
 30
0.0
  0
VERTEX
  5
18A
330
186
100
AcDbEntity
  8
WINDOW
  6
Continuous
 62
   250
370
     9
100
AcDbVertex
100
AcDb2dVertex
 10
6.602902050693778
 20
-3.616537703261808
 30
0.0
  0
VERTEX
  5
18B
330
186
100
AcDbEntity
  8
WINDOW
  6
Continuous
 62
   250
370
     9
100
AcDbVertex
100
AcDb2dVertex
 10
6.343586180189367
 20
-3.616588825964449
 30
0.0
  0
VERTEX
  5
18C
330
186
100
AcDbEntity
  8
WINDOW
  6
Continuous
 62
   250
370
     9
100
AcDbVertex
100
AcDb2dVertex
 10
6.343586180189367
 20
-3.605243812658204
 30
0.0
  0
VERTEX
  5
18D
330
186
100
AcDbEntity
  8
WINDOW
  6
Continuous
 62
   250
370
     9
100
AcDbVertex
100
AcDb2dVertex
 10
6.606800037321012
 20
-3.605243812658204
 30
0.0
  0
SEQEND
  5
18E
330
186
100
AcDbEntity
  8
WINDOW
  6
Continuous
 62
   250
370
     9
  0
POLYLINE
  5
18F
330
42
100
AcDbEntity
  8
WINDOW
  6
Continuous
 62
   250
370
     9
100
AcDb2dPolyline
 66
     1
 10
0.0
 20
0.0
 30
0.0
 70
     1
  0
VERTEX
  5
190
330
18F
100
AcDbEntity
  8
WINDOW
  6
Continuous
 62
   250
370
     9
100
AcDbVertex
100
AcDb2dVertex
 10
6.302143178879223
 20
-3.433203238229586
 30
0.0
  0
VERTEX
  5
191
330
18F
100
AcDbEntity
  8
WINDOW
  6
Continuous
 62
   250
370
     9
100
AcDbVertex
100
AcDb2dVertex
 10
6.564077994140612
 20
-3.433203238229586
 30
0.0
  0
VERTEX
  5
192
330
18F
100
AcDbEntity
  8
WINDOW
  6
Continuous
 62
   250
370
     9
100
AcDbVertex
100
AcDb2dVertex
 10
6.564077994140612
 20
-3.461751242245134
 30
0.0
  0
VERTEX
  5
193
330
18F
100
AcDbEntity
  8
WINDOW
  6
Continuous
 62
   250
370
     9
100
AcDbVertex
100
AcDb2dVertex
 10
6.247050818504801
 20
-3.461751242245134
 30
0.0
  0
VERTEX
  5
194
330
18F
100
AcDbEntity
  8
WINDOW
  6
Continuous
 62
   250
370
     9
100
AcDbVertex
100
AcDb2dVertex
 10
6.219842873364002
 20
-3.461751242245134
 30
0.0
  0
VERTEX
  5
195
330
18F
100
AcDbEntity
  8
WINDOW
  6
Continuous
 62
   250
370
     9
100
AcDbVertex
100
AcDb2dVertex
 10
6.218273164868336
 20
-3.465247914343513
 30
0.0
  0
VERTEX
  5
196
330
18F
100
AcDbEntity
  8
WINDOW
  6
Continuous
 62
   250
370
     9
100
AcDbVertex
100
AcDb2dVertex
 10
6.21773718157253
 20
-3.497228787714378
 30
0.0
  0
VERTEX
  5
197
330
18F
100
AcDbEntity
  8
WINDOW
  6
Continuous
 62
   250
370
     9
100
AcDbVertex
100
AcDb2dVertex
 10
6.029054758540767
 20
-3.497228787714378
 30
0.0
  0
VERTEX
  5
198
330
18F
100
AcDbEntity
  8
WINDOW
  6
Continuous
 62
   250
370
     9
100
AcDbVertex
100
AcDb2dVertex
 10
6.001144983226308
 20
-3.48514350157225
 30
0.0
  0
VERTEX
  5
199
330
18F
100
AcDbEntity
  8
WINDOW
  6
Continuous
 62
   250
370
     9
100
AcDbVertex
100
AcDb2dVertex
 10
5.991739613563194
 20
-3.472407105418132
 30
0.0
  0
VERTEX
  5
19A
330
18F
100
AcDbEntity
  8
WINDOW
  6
Continuous
 62
   250
370
     9
100
AcDbVertex
100
AcDb2dVertex
 10
6.0377456179898
 20
-3.449729557575581
 30
0.0
  0
VERTEX
  5
19B
330
18F
100
AcDbEntity
  8
WINDOW
  6
Continuous
 62
   250
370
     9
100
AcDbVertex
100
AcDb2dVertex
 10
6.040221244928733
 20
-3.454923543655751
 30
0.0
  0
SEQEND
  5
19C
330
18F
100
AcDbEntity
  8
WINDOW
  6
Continuous
 62
   250
370
     9
  0
POLYLINE
  5
19D
330
42
100
AcDbEntity
  8
None
  6
Continuous
 62
   250
370
     9
100
AcDb2dPolyline
 66
     1
 10
0.0
 20
0.0
 30
0.0
 70
     1
  0
VERTEX
  5
19E
330
19D
100
AcDbEntity
  8
None
  6
Continuous
 62
   250
370
     9
100
AcDbVertex
100
AcDb2dVertex
 10
5.3514519375272
 20
-3.726262697998548
 30
0.0
  0
VERTEX
  5
19F
330
19D
100
AcDbEntity
  8
None
  6
Continuous
 62
   250
370
     9
100
AcDbVertex
100
AcDb2dVertex
 10
5.923262810258285
 20
-3.726262697998548
 30
0.0
  0
VERTEX
  5
1A0
330
19D
100
AcDbEntity
  8
None
  6
Continuous
 62
   250
370
     9
100
AcDbVertex
100
AcDb2dVertex
 10
5.923262810258285
 20
-3.748904355672249
 30
0.0
  0
VERTEX
  5
1A1
330
19D
100
AcDbEntity
  8
None
  6
Continuous
 62
   250
370
     9
100
AcDbVertex
100
AcDb2dVertex
 10
5.3514519375272
 20
-3.748904355672249
 30
0.0
  0
SEQEND
  5
1A2
330
19D
100
AcDbEntity
  8
None
  6
Continuous
 62
   250
370
     9
  0
POLYLINE
  5
1A3
330
42
100
AcDbEntity
  8
None
  6
Continuous
 62
   250
370
     9
100
AcDb2dPolyline
 66
     1
 10
0.0
 20
0.0
 30
0.0
 70
     1
  0
VERTEX
  5
1A4
330
1A3
100
AcDbEntity
  8
None
  6
Continuous
 62
   250
370
     9
100
AcDbVertex
100
AcDb2dVertex
 10
6.025083370850496
 20
-3.520930522171249
 30
0.0
  0
VERTEX
  5
1A5
330
1A3
100
AcDbEntity
  8
None
  6
Continuous
 62
   250
370
     9
100
AcDbVertex
100
AcDb2dVertex
 10
6.020889335510005
 20
-3.534068167791864
 30
0.0
  0
VERTEX
  5
1A6
330
1A3
100
AcDbEntity
  8
None
  6
Continuous
 62
   250
370
     9
100
AcDbVertex
100
AcDb2dVertex
 10
5.954380004555643
 20
-3.512835863880631
 30
0.0
  0
VERTEX
  5
1A7
330
1A3
100
AcDbEntity
  8
None
  6
Continuous
 62
   250
370
     9
100
AcDbVertex
100
AcDb2dVertex
 10
5.948679998458031
 20
-3.530690901825297
 30
0.0
  0
VERTEX
  5
1A8
330
1A3
100
AcDbEntity
  8
None
  6
Continuous
 62
   250
370
     9
100
AcDbVertex
100
AcDb2dVertex
 10
5.931843936687232
 20
-3.498403224806904
 30
0.0
  0
VERTEX
  5
1A9
330
1A3
100
AcDbEntity
  8
None
  6
Continuous
 62
   250
370
     9
100
AcDbVertex
100
AcDb2dVertex
 10
5.964274045993741
 20
-3.481843180315349
 30
0.0
  0
VERTEX
  5
1AA
330
1A3
100
AcDbEntity
  8
None
  6
Continuous
 62
   250
370
     9
100
AcDbVertex
100
AcDb2dVertex
 10
5.958574039896131
 20
-3.499698218260016
 30
0.0
  0
SEQEND
  5
1AB
330
1A3
100
AcDbEntity
  8
None
  6
Continuous
 62
   250
370
     9
  0
POLYLINE
  5
1AC
330
42
100
AcDbEntity
  8
None
  6
Continuous
 62
   250
370
     9
100
AcDb2dPolyline
 66
     1
 10
0.0
 20
0.0
 30
0.0
 70
     1
  0
VERTEX
  5
1AD
330
1AC
100
AcDbEntity
  8
None
  6
Continuous
 62
   250
370
     9
100
AcDbVertex
100
AcDb2dVertex
 10
5.839349281195388
 20
-3.580734961900518
 30
0.0
  0
VERTEX
  5
1AE
330
1AC
100
AcDbEntity
  8
None
  6
Continuous
 62
   250
370
     9
100
AcDbVertex
100
AcDb2dVertex
 10
5.844737649231908
 20
-3.568040350650338
 30
0.0
  0
VERTEX
  5
1AF
330
1AC
100
AcDbEntity
  8
None
  6
Continuous
 62
   250
370
     9
100
AcDbVertex
100
AcDb2dVertex
 10
5.909004118685939
 20
-3.595318963835213
 30
0.0
  0
VERTEX
  5
1B0
330
1AC
100
AcDbEntity
  8
None
  6
Continuous
 62
   250
370
     9
100
AcDbVertex
100
AcDb2dVertex
 10
5.916327311785385
 20
-3.578066042565281
 30
0.0
  0
VERTEX
  5
1B1
330
1AC
100
AcDbEntity
  8
None
  6
Continuous
 62
   250
370
     9
100
AcDbVertex
100
AcDb2dVertex
 10
5.930112330761764
 20
-3.611769459528774
 30
0.0
  0
VERTEX
  5
1B2
330
1AC
100
AcDbEntity
  8
None
  6
Continuous
 62
   250
370
     9
100
AcDbVertex
100
AcDb2dVertex
 10
5.896292557549975
 20
-3.625266496355324
 30
0.0
  0
VERTEX
  5
1B3
330
1AC
100
AcDbEntity
  8
None
  6
Continuous
 62
   250
370
     9
100
AcDbVertex
100
AcDb2dVertex
 10
5.903615750649421
 20
-3.608013575085391
 30
0.0
  0
SEQEND
  5
1B4
330
1AC
100
AcDbEntity
  8
None
  6
Continuous
 62
   250
370
     9
  0
ENDBLK
  5
44
330
42
100
AcDbEntity
  8
0
100
AcDbBlockEnd
  0
BLOCK
  5
46
330
45
100
AcDbEntity
  8
0
100
AcDbBlockBegin
  2
Group-3-1
 70
     0
 10
0.0
 20
0.0
 30
0.0
  3
Group-3-1
  1

  0
ELLIPSE
  5
1B5
330
45
100
AcDbEntity
  8
None
  6
Continuous
 62
     7
370
    18
100
AcDbEllipse
 10
4.754836483954028
 20
-3.385863501171561
 30
0.0
 11
0.1226330754869231
 21
0.0
 31
0.0
210
0.0
220
0.0
230
1.0
 40
1.0
 41
0.0
 42
6.283185307179586
  0
POLYLINE
  5
1B6
102
{ACAD_REACTORS
330
1C1
102
}
330
45
100
AcDbEntity
  8
None
  6
Continuous
 62
     7
370
    18
100
AcDb2dPolyline
 66
     1
 10
0.0
 20
0.0
 30
0.0
 70
     1
  0
VERTEX
  5
1B7
330
1B6
100
AcDbEntity
  8
None
  6
Continuous
 62
     7
370
    18
100
AcDbVertex
100
AcDb2dVertex
 10
4.744061696675595
 20
-3.485363760043854
 30
0.0
  0
VERTEX
  5
1B8
330
1B6
100
AcDbEntity
  8
None
  6
Continuous
 62
     7
370
    18
100
AcDbVertex
100
AcDb2dVertex
 10
4.768963863303352
 20
-3.485363760043854
 30
0.0
  0
VERTEX
  5
1B9
330
1B6
100
AcDbEntity
  8
None
  6
Continuous
 62
     7
370
    18
100
AcDbVertex
100
AcDb2dVertex
 10
4.768963863303352
 20
-3.330473378487309
 30
0.0
  0
VERTEX
  5
1BA
330
1B6
100
AcDbEntity
  8
None
  6
Continuous
 62
     7
370
    18
100
AcDbVertex
100
AcDb2dVertex
 10
4.855083970681878
 20
-3.416593534919065
 30
0.0
  0
VERTEX
  5
1BB
330
1B6
100
AcDbEntity
  8
None
  6
Continuous
 62
     7
370
    18
100
AcDbVertex
100
AcDb2dVertex
 10
4.855083970681878
 20
-3.384814743109997
 30
0.0
  0
VERTEX
  5
1BC
330
1B6
100
AcDbEntity
  8
None
  6
Continuous
 62
     7
370
    18
100
AcDbVertex
100
AcDb2dVertex
 10
4.756512779989474
 20
-3.286243552417593
 30
0.0
  0
VERTEX
  5
1BD
330
1B6
100
AcDbEntity
  8
None
  6
Continuous
 62
     7
370
    18
100
AcDbVertex
100
AcDb2dVertex
 10
4.655866539553369
 20
-3.386889792853697
 30
0.0
  0
VERTEX
  5
1BE
330
1B6
100
AcDbEntity
  8
None
  6
Continuous
 62
     7
370
    18
100
AcDbVertex
100
AcDb2dVertex
 10
4.655866539553369
 20
-3.418668928035377
 30
0.0
  0
VERTEX
  5
1BF
330
1B6
100
AcDbEntity
  8
None
  6
Continuous
 62
     7
370
    18
100
AcDbVertex
100
AcDb2dVertex
 10
4.744061696675595
 20
-3.330473378487309
 30
0.0
  0
SEQEND
  5
1C0
330
1B6
100
AcDbEntity
  8
None
  6
Continuous
 62
     7
370
    18
  0
HATCH
  5
1C1
330
45
100
AcDbEntity
  8
None
  6
Continuous
 62
     7
370
     0
100
AcDbHatch
 10
0.0
 20
0.0
 30
0.0
210
0.0
220
0.0
230
1.0
  2
SOLID
 70
     1
 71
     1
 91
        1
 92
        1
 93
        9
 72
     1
 10
4.744061696675595
 20
-3.485363760043854
 11
4.768963863303352
 21
-3.485363760043854
 72
     1
 10
4.768963863303352
 20
-3.485363760043854
 11
4.768963863303352
 21
-3.330473378487309
 72
     1
 10
4.768963863303352
 20
-3.330473378487309
 11
4.855083970681878
 21
-3.416593534919065
 72
     1
 10
4.855083970681878
 20
-3.416593534919065
 11
4.855083970681878
 21
-3.384814743109997
 72
     1
 10
4.855083970681878
 20
-3.384814743109997
 11
4.756512779989474
 21
-3.286243552417593
 72
     1
 10
4.756512779989474
 20
-3.286243552417593
 11
4.655866539553369
 21
-3.386889792853697
 72
     1
 10
4.655866539553369
 20
-3.386889792853697
 11
4.655866539553369
 21
-3.418668928035377
 72
     1
 10
4.655866539553369
 20
-3.418668928035377
 11
4.744061696675595
 21
-3.330473378487309
 72
     1
 10
4.744061696675595
 20
-3.330473378487309
 11
4.744061696675595
 21
-3.485363760043854
 97
        1
330
1B6
 75
     0
 76
     1
 98
        1
 10
0.0
 20
0.0
  0
ENDBLK
  5
47
330
45
100
AcDbEntity
  8
0
100
AcDbBlockEnd
  0
BLOCK
  5
49
330
48
100
AcDbEntity
  8
0
100
AcDbBlockBegin
  2
Group-4-1
 70
     0
 10
0.0
 20
0.0
 30
0.0
  3
Group-4-1
  1

  0
WIPEOUT
  5
1C2
330
48
100
AcDbEntity
  8
None
  6
Continuous
 62
     7
370
    18
 92
      200
310
C8000000040000000C0000000E000000B20000000C00000016000000000000C20C00000014000000010000009C000000070000000600000093B4E651EEA21C4074E966CC42EE0DC0000000000000000093B4E651EEA21C40CEEE6F77FC540EC00000000000000000F782F8F75B3F1C40CEEE6F77FC540EC000000000000000
310
00F782F8F75B3F1C409DD84630965510C00000000000000000C39F3CE0215D1D409DD84630965510C00000000000000000C39F3CE0215D1D4074E966CC42EE0DC00000000000000000
100
AcDbWipeout
 90
        0
 10
7.061874270003266
 20
-4.083580736469369
 30
0.0
 11
0.3422423910460308
 21
0.0
 31
0.0
 12
0.0
 22
0.3422423910460308
 32
0.0
 13
1.0
 23
1.0
340
0
 70
     4
280
     1
281
    50
282
    50
283
     0
360
0
 71
     2
 91
        7
 14
-0.2158798094191923
 24
-0.5
 14
-0.2158798094191923
 24
-0.35344065311258
 14
-0.5000000000000036
 24
-0.35344065311258
 14
-0.5000000000000036
 24
0.5
 14
0.315431624476517
 24
0.5
 14
0.315431624476517
 24
-0.5
 14
-0.2158798094191923
 24
-0.5
  0
POLYLINE
  5
1C3
330
48
100
AcDbEntity
  8
None
  6
Continuous
 62
     7
370
    18
100
AcDb2dPolyline
 66
     1
 10
0.0
 20
0.0
 30
0.0
 70
     1
  0
VERTEX
  5
1C4
330
1C3
100
AcDbEntity
  8
None
  6
Continuous
 62
     7
370
    18
100
AcDbVertex
100
AcDb2dVertex
 10
7.159112243372096
 20
-3.741338345423339
 30
0.0
  0
VERTEX
  5
1C5
330
1C3
100
AcDbEntity
  8
None
  6
Continuous
 62
     7
370
    18
100
AcDbVertex
100
AcDb2dVertex
 10
7.159112243372096
 20
-3.791497166732234
 30
0.0
  0
VERTEX
  5
1C6
330
1C3
100
AcDbEntity
  8
None
  6
Continuous
 62
     7
370
    18
100
AcDbVertex
100
AcDb2dVertex
 10
7.061874270003266
 20
-3.791497166732234
 30
0.0
  0
VERTEX
  5
1C7
330
1C3
100
AcDbEntity
  8
None
  6
Continuous
 62
     7
370
    18
100
AcDbVertex
100
AcDb2dVertex
 10
7.061874270003266
 20
-4.083580736469369
 30
0.0
  0
VERTEX
  5
1C8
330
1C3
100
AcDbEntity
  8
None
  6
Continuous
 62
     7
370
    18
100
AcDbVertex
100
AcDb2dVertex
 10
7.340949538898658
 20
-4.083580736469369
 30
0.0
  0
VERTEX
  5
1C9
330
1C3
100
AcDbEntity
  8
None
  6
Continuous
 62
     7
370
    18
100
AcDbVertex
100
AcDb2dVertex
 10
7.340949538898658
 20
-3.741338345423339
 30
0.0
  0
SEQEND
  5
1CA
330
1C3
100
AcDbEntity
  8
None
  6
Continuous
 62
     7
370
    18
  0
POLYLINE
  5
1CB
102
{ACAD_REACTORS
330
1D3
102
}
330
48
100
AcDbEntity
  8
None
  6
Continuous
 62
     7
370
    18
100
AcDb2dPolyline
 66
     1
 10
0.0
 20
0.0
 30
0.0
 70
     1
  0
VERTEX
  5
1CC
330
1CB
100
AcDbEntity
  8
None
  6
Continuous
 62
     7
370
    18
100
AcDbVertex
100
AcDb2dVertex
 10
7.46508833721991
 20
-3.747935930361022
 30
0.0
  0
VERTEX
  5
1CD
330
1CB
100
AcDbEntity
  8
None
  6
Continuous
 62
     7
370
    18
100
AcDbVertex
100
AcDb2dVertex
 10
7.465039547952192
 20
-4.120718835466265
 30
0.0
  0
VERTEX
  5
1CE
330
1CB
100
AcDbEntity
  8
None
  6
Continuous
 62
     7
370
    18
100
AcDbVertex
100
AcDb2dVertex
 10
7.716418575534943
 20
-4.120718835466265
 30
0.0
  0
VERTEX
  5
1CF
330
1CB
100
AcDbEntity
  8
None
  6
Continuous
 62
     7
370
    18
100
AcDbVertex
100
AcDb2dVertex
 10
7.716418575534943
 20
-3.747935930361022
 30
0.0
  0
VERTEX
  5
1D0
330
1CB
100
AcDbEntity
  8
None
  6
Continuous
 62
     7
370
    18
100
AcDbVertex
100
AcDb2dVertex
 10
7.68753138534696
 20
-3.747935930361022
 30
0.0
  0
VERTEX
  5
1D1
330
1CB
100
AcDbEntity
  8
None
  6
Continuous
 62
     7
370
    18
100
AcDbVertex
100
AcDb2dVertex
 10
7.626169345072269
 20
-3.747935930361022
 30
0.0
  0
SEQEND
  5
1D2
330
1CB
100
AcDbEntity
  8
None
  6
Continuous
 62
     7
370
    18
  0
HATCH
  5
1D3
330
48
100
AcDbEntity
  8
None
  6
Continuous
 62
   161
370
     0
100
AcDbHatch
 10
0.0
 20
0.0
 30
0.0
210
0.0
220
0.0
230
1.0
  2
SOLID
 70
     1
 71
     1
 91
        1
 92
        1
 93
        6
 72
     1
 10
7.46508833721991
 20
-3.747935930361022
 11
7.465039547952192
 21
-4.120718835466265
 72
     1
 10
7.465039547952192
 20
-4.120718835466265
 11
7.716418575534943
 21
-4.120718835466265
 72
     1
 10
7.716418575534943
 20
-4.120718835466265
 11
7.716418575534943
 21
-3.747935930361022
 72
     1
 10
7.716418575534943
 20
-3.747935930361022
 11
7.68753138534696
 21
-3.747935930361022
 72
     1
 10
7.68753138534696
 20
-3.747935930361022
 11
7.626169345072269
 21
-3.747935930361022
 72
     1
 10
7.626169345072269
 20
-3.747935930361022
 11
7.46508833721991
 21
-3.747935930361022
 97
        1
330
1CB
 75
     0
 76
     1
 98
        1
 10
0.0
 20
0.0
  0
INSERT
  5
1D4
330
48
100
AcDbEntity
  8
None
 62
   250
100
AcDbBlockReference
  2
Group-2-1
 10
0.0
 20
0.0
 30
0.0
  0
WIPEOUT
  5
1F7
330
48
100
AcDbEntity
  8
None
  6
Continuous
 62
     7
370
    18
 92
      200
310
C8000000040000000C0000000E000000B20000000C00000016000000000000C20C00000014000000010000009C0000000700000006000000BA4146CBA50617407697565FC3EE10C00000000000000000B8CC18F597061740B85D296A3AB80FC000000000000000005C53FEEC24291640B85D296A3AB80FC000000000000000
310
00F1ACDDC12729164074FE83B2A4A40FC000000000000000005FCF87BA2AF0154074FE83B2A4A40FC000000000000000005FCF87BA2AF015407697565FC3EE10C00000000000000000
100
AcDbWipeout
 90
        0
 10
5.484537996806323
 20
-4.233167161617407
 30
0.0
 11
0.2777749013967505
 21
0.0
 31
0.0
 12
0.0
 22
0.2777749013967505
 32
0.0
 13
1.0
 23
1.0
340
0
 70
     4
280
     1
281
    50
282
    50
283
     0
360
0
 71
     2
 91
        7
 14
0.47904393413598
 24
0.5
 14
0.4788539149563036
 24
-0.4655731784354327
 14
-0.2996869911817335
 24
-0.4655731784354327
 14
-0.2996481055901015
 24
-0.5
 14
-0.5
 24
-0.5
 14
-0.5
 24
0.5
 14
0.47904393413598
 24
0.5
  0
POLYLINE
  5
1F8
330
48
100
AcDbEntity
  8
None
  6
Continuous
 62
     7
370
    18
100
AcDb2dPolyline
 66
     1
 10
0.0
 20
0.0
 30
0.0
 70
     1
  0
VERTEX
  5
1F9
330
1F8
100
AcDbEntity
  8
None
  6
Continuous
 62
     7
370
    18
100
AcDbVertex
100
AcDb2dVertex
 10
5.756491829074031
 20
-4.233167161617407
 30
0.0
  0
VERTEX
  5
1FA
330
1F8
100
AcDbEntity
  8
None
  6
Continuous
 62
     7
370
    18
100
AcDbVertex
100
AcDb2dVertex
 10
5.756439046515133
 20
-3.964955167186158
 30
0.0
  0
VERTEX
  5
1FB
330
1F8
100
AcDbEntity
  8
None
  6
Continuous
 62
     7
370
    18
100
AcDbVertex
100
AcDb2dVertex
 10
5.540179923079304
 20
-3.964955167186158
 30
0.0
  0
VERTEX
  5
1FC
330
1F8
100
AcDbEntity
  8
None
  6
Continuous
 62
     7
370
    18
100
AcDbVertex
100
AcDb2dVertex
 10
5.540190724520685
 20
-3.955392260220657
 30
0.0
  0
VERTEX
  5
1FD
330
1F8
100
AcDbEntity
  8
None
  6
Continuous
 62
     7
370
    18
100
AcDbVertex
100
AcDb2dVertex
 10
5.484537996806323
 20
-3.955392260220657
 30
0.0
  0
VERTEX
  5
1FE
330
1F8
100
AcDbEntity
  8
None
  6
Continuous
 62
     7
370
    18
100
AcDbVertex
100
AcDb2dVertex
 10
5.484537996806323
 20
-4.233167161617407
 30
0.0
  0
SEQEND
  5
1FF
330
1F8
100
AcDbEntity
  8
None
  6
Continuous
 62
     7
370
    18
  0
WIPEOUT
  5
200
330
48
100
AcDbEntity
  8
None
  6
Continuous
 62
     7
370
    18
 92
      248
310
F8000000040000000C0000000E000000B20000000C00000016000000000000C20C0000001400000001000000CC000000070000000800000060CF87BA2AF01540AC1A91D8493112C000000000000000006F911D4D23521640AC1A91D8493112C00000000000000000D43FB4982052164095413810A04A12C000000000000000
310
00634E894D9088164095413810A04A12C00000000000000000634E894D90881640AC1A91D8493112C00000000000000000B9CC18F597061740AC1A91D8493112C00000000000000000BB4146CBA50617407697565FC3EE10C0000000000000000060CF87BA2AF015407697565FC3EE10C00000000000000000
100
AcDbWipeout
 90
        0
 10
5.484537996806323
 20
-4.57287621825562
 30
0.0
 11
0.3397090566382124
 21
0.0
 31
0.0
 12
0.0
 22
0.3397090566382124
 32
0.0
 13
1.0
 23
1.0
340
0
 70
     4
280
     1
281
    50
282
    50
283
     0
360
0
 71
     2
 91
        9
 14
-0.4999999999999964
 24
0.4271642740317425
 14
-0.2183625521930992
 24
0.4271642740317425
 14
-0.2183929244593195
 24
0.4999999999999982
 14
-0.0619046002058496
 24
0.4999999999999982
 14
-0.0619046002058496
 24
0.4271642740317425
 14
0.3003938793965801
 24
0.4271642740317425
 14
0.3005492551743707
 24
-0.5000000000000018
 14
-0.4999999999999964
 24
-0.5000000000000018
 14
-0.4999999999999964
 24
0.4271642740317425
  0
POLYLINE
  5
201
330
48
100
AcDbEntity
  8
None
  6
Continuous
 62
     7
370
    18
100
AcDb2dPolyline
 66
     1
 10
0.0
 20
0.0
 30
0.0
 70
     1
  0
VERTEX
  5
202
330
201
100
AcDbEntity
  8
None
  6
Continuous
 62
     7
370
    18
100
AcDbVertex
100
AcDb2dVertex
 10
5.484537996806323
 20
-4.548133262497385
 30
0.0
  0
VERTEX
  5
203
330
201
100
AcDbEntity
  8
None
  6
Continuous
 62
     7
370
    18
100
AcDbVertex
100
AcDb2dVertex
 10
5.580212788514799
 20
-4.548133262497385
 30
0.0
  0
VERTEX
  5
204
330
201
100
AcDbEntity
  8
None
  6
Continuous
 62
     7
370
    18
100
AcDbVertex
100
AcDb2dVertex
 10
5.580202470780893
 20
-4.57287621825562
 30
0.0
  0
VERTEX
  5
205
330
201
100
AcDbEntity
  8
None
  6
Continuous
 62
     7
370
    18
100
AcDbVertex
100
AcDb2dVertex
 10
5.633362971787934
 20
-4.57287621825562
 30
0.0
  0
VERTEX
  5
206
330
201
100
AcDbEntity
  8
None
  6
Continuous
 62
     7
370
    18
100
AcDbVertex
100
AcDb2dVertex
 10
5.633362971787934
 20
-4.548133262497385
 30
0.0
  0
VERTEX
  5
207
330
201
100
AcDbEntity
  8
None
  6
Continuous
 62
     7
370
    18
100
AcDbVertex
100
AcDb2dVertex
 10
5.756439046515133
 20
-4.548133262497385
 30
0.0
  0
VERTEX
  5
208
330
201
100
AcDbEntity
  8
None
  6
Continuous
 62
     7
370
    18
100
AcDbVertex
100
AcDb2dVertex
 10
5.756491829074031
 20
-4.233167161617407
 30
0.0
  0
VERTEX
  5
209
330
201
100
AcDbEntity
  8
None
  6
Continuous
 62
     7
370
    18
100
AcDbVertex
100
AcDb2dVertex
 10
5.484537996806323
 20
-4.233167161617407
 30
0.0
  0
SEQEND
  5
20A
330
201
100
AcDbEntity
  8
None
  6
Continuous
 62
     7
370
    18
  0
WIPEOUT
  5
20B
330
48
100
AcDbEntity
  8
None
  6
Continuous
 62
     7
370
    18
 92
      248
310
F8000000040000000C0000000E000000B20000000C00000016000000000000C20C0000001400000001000000CC0000000700000008000000F69EC037E8881640B75D296A3AB80FC00000000000000000B94146CBA5061740B75D296A3AB80FC00000000000000000B94146CBA50617404963EBE50D0112C000000000000000
310
0037E3C57C055D17404963EBE50D0112C0000000000000000037E3C57C055D1740D8725A80F7BB0FC000000000000000007B4F7B3579371740D8725A80F7BB0FC000000000000000007B4F7B35793717401131B792CE3E0FC00000000000000000F69EC037E88816401131B792CE3E0FC00000000000000000
100
AcDbWipeout
 90
        0
 10
5.633698340541506
 20
-4.501029579631743
 30
0.0
 11
0.5953621351970364
 21
0.0
 31
0.0
 12
0.0
 22
0.5953621351970364
 32
0.0
 13
1.0
 23
1.0
340
0
 70
     4
280
     1
281
    50
282
    50
283
     0
360
0
 71
     2
 91
        9
 14
-0.5000000000000018
 24
-0.4004173775145619
 14
-0.2937499191279862
 24
-0.4004173775145619
 14
-0.2937499191279862
 24
0.4999999999999982
 14
-0.1520724237210231
 24
0.4999999999999982
 14
-0.1520724237210231
 24
-0.3973511798594815
 14
-0.2136617158053351
 24
-0.3973511798594815
 14
-0.2136617158053351
 24
-0.5000000000000018
 14
-0.5000000000000018
 24
-0.5000000000000018
 14
-0.5000000000000018
 24
-0.4004173775145619
  0
POLYLINE
  5
20C
330
48
100
AcDbEntity
  8
None
  6
Continuous
 62
     7
370
    18
100
AcDb2dPolyline
 66
     1
 10
0.0
 20
0.0
 30
0.0
 70
     1
  0
VERTEX
  5
20D
330
20C
100
AcDbEntity
  8
None
  6
Continuous
 62
     7
370
    18
100
AcDbVertex
100
AcDb2dVertex
 10
5.633698340541506
 20
-3.964955167186158
 30
0.0
  0
VERTEX
  5
20E
330
20C
100
AcDbEntity
  8
None
  6
Continuous
 62
     7
370
    18
100
AcDbVertex
100
AcDb2dVertex
 10
5.756491829074031
 20
-3.964955167186158
 30
0.0
  0
VERTEX
  5
20F
330
20C
100
AcDbEntity
  8
None
  6
Continuous
 62
     7
370
    18
100
AcDbVertex
100
AcDb2dVertex
 10
5.756491829074031
 20
-4.501029579631743
 30
0.0
  0
VERTEX
  5
210
330
20C
100
AcDbEntity
  8
None
  6
Continuous
 62
     7
370
    18
100
AcDbVertex
100
AcDb2dVertex
 10
5.840841245248889
 20
-4.501029579631743
 30
0.0
  0
VERTEX
  5
211
330
20C
100
AcDbEntity
  8
None
  6
Continuous
 62
     7
370
    18
100
AcDbVertex
100
AcDb2dVertex
 10
5.840841245248889
 20
-3.966780665169023
 30
0.0
  0
VERTEX
  5
212
330
20C
100
AcDbEntity
  8
None
  6
Continuous
 62
     7
370
    18
100
AcDbVertex
100
AcDb2dVertex
 10
5.804173312808299
 20
-3.966780665169023
 30
0.0
  0
VERTEX
  5
213
330
20C
100
AcDbEntity
  8
None
  6
Continuous
 62
     7
370
    18
100
AcDbVertex
100
AcDb2dVertex
 10
5.804173312808299
 20
-3.905667444434706
 30
0.0
  0
VERTEX
  5
214
330
20C
100
AcDbEntity
  8
None
  6
Continuous
 62
     7
370
    18
100
AcDbVertex
100
AcDb2dVertex
 10
5.633698340541506
 20
-3.905667444434706
 30
0.0
  0
SEQEND
  5
215
330
20C
100
AcDbEntity
  8
None
  6
Continuous
 62
     7
370
    18
  0
WIPEOUT
  5
216
330
48
100
AcDbEntity
  8
None
  6
Continuous
 62
     7
370
    18
 92
      200
310
C8000000040000000C0000000E000000B20000000C00000016000000000000C20C00000014000000010000009C00000007000000060000001794B4D1B5FC1A40F75120DD9C5510C000000000000000000A2476C6A7FC1A40A28F2CD48D9D0EC00000000000000000EE6D20DF4E171C40A28F2CD48D9D0EC000000000000000
310
00EE6D20DF4E171C40F75120DD9C5510C00000000000000000459C21BCD3F61B40F75120DD9C5510C00000000000000000F79538C2D4B11B40F75120DD9C5510C00000000000000000
100
AcDbWipeout
 90
        0
 10
6.746733761749973
 20
-4.083606200311343
 30
0.0
 11
0.2760280469833321
 21
0.0
 31
0.0
 12
0.0
 22
0.2760280469833321
 32
0.0
 13
1.0
 23
1.0
340
0
 70
     4
280
     1
281
    50
282
    50
283
     0
360
0
 71
     2
 91
        7
 14
-0.4998059135315032
 24
0.5
 14
-0.5
 24
-0.4298892988929914
 14
0.5
 24
-0.4298892988929914
 14
0.5
 24
0.5
 14
0.3850851223916187
 24
0.5
 14
0.140983453033023
 24
0.5
 14
-0.4998059135315032
 24
0.5
  0
POLYLINE
  5
217
330
48
100
AcDbEntity
  8
None
  6
Continuous
 62
     7
370
    18
100
AcDb2dPolyline
 66
     1
 10
0.0
 20
0.0
 30
0.0
 70
     1
  0
VERTEX
  5
218
330
217
100
AcDbEntity
  8
None
  6
Continuous
 62
     7
370
    18
100
AcDbVertex
100
AcDb2dVertex
 10
6.746787335058818
 20
-4.083606200311343
 30
0.0
  0
VERTEX
  5
219
330
217
100
AcDbEntity
  8
None
  6
Continuous
 62
     7
370
    18
100
AcDbVertex
100
AcDb2dVertex
 10
6.746733761749973
 20
-3.826930673227211
 30
0.0
  0
VERTEX
  5
21A
330
217
100
AcDbEntity
  8
None
  6
Continuous
 62
     7
370
    18
100
AcDbVertex
100
AcDb2dVertex
 10
7.022761808733305
 20
-3.826930673227211
 30
0.0
  0
VERTEX
  5
21B
330
217
100
AcDbEntity
  8
None
  6
Continuous
 62
     7
370
    18
100
AcDbVertex
100
AcDb2dVertex
 10
7.022761808733305
 20
-4.083606200311343
 30
0.0
  0
VERTEX
  5
21C
330
217
100
AcDbEntity
  8
None
  6
Continuous
 62
     7
370
    18
100
AcDbVertex
100
AcDb2dVertex
 10
6.991042079497736
 20
-4.083606200311343
 30
0.0
  0
VERTEX
  5
21D
330
217
100
AcDbEntity
  8
None
  6
Continuous
 62
     7
370
    18
100
AcDbVertex
100
AcDb2dVertex
 10
6.923663172439311
 20
-4.083606200311343
 30
0.0
  0
SEQEND
  5
21E
330
217
100
AcDbEntity
  8
None
  6
Continuous
 62
     7
370
    18
  0
WIPEOUT
  5
21F
330
48
100
AcDbEntity
  8
None
  6
Continuous
 62
     7
370
    18
 92
      200
310
C8000000040000000C0000000E000000B20000000C00000016000000000000C20C00000014000000010000009C000000070000000600000051C070DD93FC1A409ED84630965510C000000000000000000A2476C6A7FC1A40F29C797A809D0EC00000000000000000C2863967EF6B1940F29C797A809D0EC000000000000000
310
00C2863967EF6B19409ED84630965510C000000000000000008DD2AFDFFB9919409ED84630965510C000000000000000002089E6E3CCFB19409ED84630965510C00000000000000000
100
AcDbWipeout
 90
        0
 10
6.355405438314564
 20
-4.083580736469369
 30
0.0
 11
0.3913283234354088
 21
0.0
 31
0.0
 12
0.0
 22
0.3913283234354088
 32
0.0
 13
1.0
 23
1.0
340
0
 70
     4
280
     1
281
    50
282
    50
283
     0
360
0
 71
     2
 91
        7
 14
0.4998059135315067
 24
0.5000000000000018
 14
0.5
 24
-0.1559083810515354
 14
-0.5
 24
-0.1559083810515354
 14
-0.5
 24
0.5000000000000018
 14
-0.385085122391633
 24
0.5000000000000018
 14
-0.1409834530330301
 24
0.5000000000000018
 14
0.4998059135315067
 24
0.5000000000000018
  0
POLYLINE
  5
220
330
48
100
AcDbEntity
  8
None
  6
Continuous
 62
     7
370
    18
100
AcDb2dPolyline
 66
     1
 10
0.0
 20
0.0
 30
0.0
 70
     1
  0
VERTEX
  5
221
330
220
100
AcDbEntity
  8
None
  6
Continuous
 62
     7
370
    18
100
AcDbVertex
100
AcDb2dVertex
 10
6.746657810217656
 20
-4.083580736469369
 30
0.0
  0
VERTEX
  5
222
330
220
100
AcDbEntity
  8
None
  6
Continuous
 62
     7
370
    18
100
AcDbVertex
100
AcDb2dVertex
 10
6.746733761749973
 20
-3.826905209385238
 30
0.0
  0
VERTEX
  5
223
330
220
100
AcDbEntity
  8
None
  6
Continuous
 62
     7
370
    18
100
AcDbVertex
100
AcDb2dVertex
 10
6.355405438314564
 20
-3.826905209385238
 30
0.0
  0
VERTEX
  5
224
330
220
100
AcDbEntity
  8
None
  6
Continuous
 62
     7
370
    18
100
AcDbVertex
100
AcDb2dVertex
 10
6.355405438314564
 20
-4.083580736469369
 30
0.0
  0
VERTEX
  5
225
330
220
100
AcDbEntity
  8
None
  6
Continuous
 62
     7
370
    18
100
AcDbVertex
100
AcDb2dVertex
 10
6.400374884706832
 20
-4.083580736469369
 30
0.0
  0
VERTEX
  5
226
330
220
100
AcDbEntity
  8
None
  6
Continuous
 62
     7
370
    18
100
AcDbVertex
100
AcDb2dVertex
 10
6.495898781724719
 20
-4.083580736469369
 30
0.0
  0
SEQEND
  5
227
330
220
100
AcDbEntity
  8
None
  6
Continuous
 62
     7
370
    18
  0
WIPEOUT
  5
228
330
48
100
AcDbEntity
  8
None
  6
Continuous
 62
     7
370
    18
 92
      200
310
C8000000040000000C0000000E000000B20000000C00000016000000000000C20C00000014000000010000009C0000000700000006000000D15FA35E777B18409DD84630965510C00000000000000000AE3D5D6B6B7B1840F09C797A809D0EC00000000000000000C3863967EF6B1940F09C797A809D0EC000000000000000
310
00C3863967EF6B19409DD84630965510C00000000000000000C59DC1DD4B5019409DD84630965510C000000000000000009C6BCD0A961519409DD84630965510C00000000000000000
100
AcDbWipeout
 90
        0
 10
6.120526959959006
 20
-4.083580736469369
 30
0.0
 11
0.256675527084131
 21
0.0
 31
0.0
 12
0.0
 22
0.256675527084131
 32
0.0
 13
1.0
 23
1.0
340
0
 70
     4
280
     1
281
    50
282
    50
283
     0
360
0
 71
     2
 91
        7
 14
-0.4998223954776329
 24
0.4999999999999982
 14
-0.4999999999999964
 24
-0.5000000000000018
 14
0.4150793650793716
 24
-0.5000000000000018
 14
0.4150793650793716
 24
0.4999999999999982
 14
0.3099231318393372
 24
0.4999999999999982
 14
0.0865507312278417
 24
0.4999999999999982
 14
-0.4998223954776329
 24
0.4999999999999982
  0
POLYLINE
  5
229
330
48
100
AcDbEntity
  8
None
  6
Continuous
 62
     7
370
    18
100
AcDb2dPolyline
 66
     1
 10
0.0
 20
0.0
 30
0.0
 70
     1
  0
VERTEX
  5
22A
330
229
100
AcDbEntity
  8
None
  6
Continuous
 62
     7
370
    18
100
AcDbVertex
100
AcDb2dVertex
 10
6.120572546693396
 20
-4.083580736469369
 30
0.0
  0
VERTEX
  5
22B
330
229
100
AcDbEntity
  8
None
  6
Continuous
 62
     7
370
    18
100
AcDbVertex
100
AcDb2dVertex
 10
6.120526959959006
 20
-3.826905209385238
 30
0.0
  0
VERTEX
  5
22C
330
229
100
AcDbEntity
  8
None
  6
Continuous
 62
     7
370
    18
100
AcDbVertex
100
AcDb2dVertex
 10
6.355405438314564
 20
-3.826905209385238
 30
0.0
  0
VERTEX
  5
22D
330
229
100
AcDbEntity
  8
None
  6
Continuous
 62
     7
370
    18
100
AcDbVertex
100
AcDb2dVertex
 10
6.355405438314564
 20
-4.083580736469369
 30
0.0
  0
VERTEX
  5
22E
330
229
100
AcDbEntity
  8
None
  6
Continuous
 62
     7
370
    18
100
AcDbVertex
100
AcDb2dVertex
 10
6.328414406721497
 20
-4.083580736469369
 30
0.0
  0
VERTEX
  5
22F
330
229
100
AcDbEntity
  8
None
  6
Continuous
 62
     7
370
    18
100
AcDbVertex
100
AcDb2dVertex
 10
6.271080178058494
 20
-4.083580736469369
 30
0.0
  0
SEQEND
  5
230
330
229
100
AcDbEntity
  8
None
  6
Continuous
 62
     7
370
    18
  0
MTEXT
  5
231
330
48
100
AcDbEntity
  8
None
 62
     7
100
AcDbMText
 10
4.569178931343012
 20
-4.674167181637091
 30
0.0
 40
0.0781091510847966
 41
0.0
 71
     1
 72
     1
  1
BOUNDARY ROAD
  7
Helvetica
 11
0.0
 21
1.0
 31
0.0
 73
     1
 44
0.8397955333929317
  0
MTEXT
  5
232
330
48
100
AcDbEntity
  8
None
 62
     7
100
AcDbMText
 10
6.616605607963247
 20
-3.22910392007349
 30
0.0
 40
0.0781091510847966
 41
0.0
 71
     1
 72
     1
  1
HENNING DRIVE
  7
Helvetica
 73
     1
 44
0.8397955333929317
  0
WIPEOUT
  5
233
330
48
100
AcDbEntity
  8
None
  6
Continuous
 62
     7
370
    18
 92
      152
310
98000000040000000C0000000E000000B20000000C00000016000000000000C20C00000014000000010000006C00000007000000040000001E85BB0F01921D400529B352452011C000000000000000001C80D2C78B161E400529B352452011C000000000000000001C80D2C78B161E400ABBD1399CFE11C000000000000000
310
001E85BB0F01921D400ABBD1399CFE11C00000000000000000
100
AcDbWipeout
 90
        0
 10
7.392582174129783
 20
-4.498642829347554
 30
0.0
 11
0.2171283829125104
 21
0.0
 31
0.0
 12
0.0
 22
0.2171283829125104
 32
0.0
 13
1.0
 23
1.0
340
0
 70
     4
280
     1
281
    50
282
    50
283
     0
360
0
 71
     2
 91
        5
 14
-0.5
 24
-0.5000000000000036
 14
0.0961239135931322
 24
-0.5000000000000036
 14
0.0961239135931322
 24
0.4999999999999964
 14
-0.5
 24
0.4999999999999964
 14
-0.5
 24
-0.5000000000000036
  0
POLYLINE
  5
234
330
48
100
AcDbEntity
  8
None
  6
Continuous
 62
     7
370
    18
100
AcDb2dPolyline
 66
     1
 10
0.0
 20
0.0
 30
0.0
 70
     1
  0
VERTEX
  5
235
330
234
100
AcDbEntity
  8
None
  6
Continuous
 62
     7
370
    18
100
AcDbVertex
100
AcDb2dVertex
 10
7.392582174129783
 20
-4.281514446435044
 30
0.0
  0
VERTEX
  5
236
330
234
100
AcDbEntity
  8
None
  6
Continuous
 62
     7
370
    18
100
AcDbVertex
100
AcDb2dVertex
 10
7.522017595503738
 20
-4.281514446435044
 30
0.0
  0
VERTEX
  5
237
330
234
100
AcDbEntity
  8
None
  6
Continuous
 62
     7
370
    18
100
AcDbVertex
100
AcDb2dVertex
 10
7.522017595503738
 20
-4.498642829347554
 30
0.0
  0
VERTEX
  5
238
330
234
100
AcDbEntity
  8
None
  6
Continuous
 62
     7
370
    18
100
AcDbVertex
100
AcDb2dVertex
 10
7.392582174129783
 20
-4.498642829347554
 30
0.0
  0
SEQEND
  5
239
330
234
100
AcDbEntity
  8
None
  6
Continuous
 62
     7
370
    18
  0
WIPEOUT
  5
23A
330
48
100
AcDbEntity
  8
None
  6
Continuous
 62
     7
370
    18
 92
      200
310
C8000000040000000C0000000E000000B20000000C00000016000000000000C20C00000014000000010000009C0000000700000006000000D5B66FC619BA1840C04A4FBF583011C00000000000000000B9A1259CE0B9184020136893B9F311C00000000000000000822B4B4667381D4020136893B9F311C000000000000000
310
00822B4B4667381D40C04A4FBF583011C0000000000000000045CB11DC30B41C40C04A4FBF583011C0000000000000000032B8D174589B1B40C04A4FBF583011C00000000000000000
100
AcDbWipeout
 90
        0
 10
6.1815208814591
 20
-4.488012603022782
 30
0.0
 11
1.123560579816009
 21
0.0
 31
0.0
 12
0.0
 22
1.123560579816009
 32
0.0
 13
1.0
 23
1.0
340
0
 70
     4
280
     1
281
    50
282
    50
283
     0
360
0
 71
     2
 91
        7
 14
-0.4998059135315032
 24
0.3301835589875695
 14
-0.4999999999999991
 24
0.4999999999999996
 14
0.5000000000000009
 24
0.4999999999999996
 14
0.5000000000000009
 24
0.3301835589875695
 14
0.3850851223916285
 24
0.3301835589875695
 14
0.1409834530330274
 24
0.3301835589875695
 14
-0.4998059135315032
 24
0.3301835589875695
  0
POLYLINE
  5
23B
330
48
100
AcDbEntity
  8
None
  6
Continuous
 62
     7
370
    18
100
AcDb2dPolyline
 66
     1
 10
0.0
 20
0.0
 30
0.0
 70
     1
  0
VERTEX
  5
23C
330
23B
100
AcDbEntity
  8
None
  6
Continuous
 62
     7
370
    18
100
AcDbVertex
100
AcDb2dVertex
 10
6.181738949364179
 20
-4.297213544096565
 30
0.0
  0
VERTEX
  5
23D
330
23B
100
AcDbEntity
  8
None
  6
Continuous
 62
     7
370
    18
100
AcDbVertex
100
AcDb2dVertex
 10
6.1815208814591
 20
-4.488012603022782
 30
0.0
  0
VERTEX
  5
23E
330
23B
100
AcDbEntity
  8
None
  6
Continuous
 62
     7
370
    18
100
AcDbVertex
100
AcDb2dVertex
 10
7.305081461275109
 20
-4.488012603022782
 30
0.0
  0
VERTEX
  5
23F
330
23B
100
AcDbEntity
  8
None
  6
Continuous
 62
     7
370
    18
100
AcDbVertex
100
AcDb2dVertex
 10
7.305081461275109
 20
-4.297213544096565
 30
0.0
  0
VERTEX
  5
240
330
23B
100
AcDbEntity
  8
None
  6
Continuous
 62
     7
370
    18
100
AcDbVertex
100
AcDb2dVertex
 10
7.175967634759961
 20
-4.297213544096565
 30
0.0
  0
VERTEX
  5
241
330
23B
100
AcDbEntity
  8
None
  6
Continuous
 62
     7
370
    18
100
AcDbVertex
100
AcDb2dVertex
 10
6.901704621601356
 20
-4.297213544096565
 30
0.0
  0
SEQEND
  5
242
330
23B
100
AcDbEntity
  8
None
  6
Continuous
 62
     7
370
    18
  0
WIPEOUT
  5
243
330
48
100
AcDbEntity
  8
None
  6
Continuous
 62
     7
370
    18
 92
      152
310
98000000040000000C0000000E000000B20000000C00000016000000000000C20C00000014000000010000006C00000007000000040000002080D2C78B161E400529B352452011C00000000000000000D836F91CEDC91E400529B352452011C00000000000000000D836F91CEDC91E400ABBD1399CFE11C000000000000000
310
002080D2C78B161E400ABBD1399CFE11C00000000000000000
100
AcDbWipeout
 90
        0
 10
7.52201759550374
 20
-4.498642829347554
 30
0.0
 11
0.2171283829125104
 21
0.0
 31
0.0
 12
0.0
 22
0.2171283829125104
 32
0.0
 13
1.0
 23
1.0
340
0
 70
     4
280
     1
281
    50
282
    50
283
     0
360
0
 71
     2
 91
        5
 14
-0.5
 24
-0.5000000000000036
 14
0.3067852743944997
 24
-0.5000000000000036
 14
0.3067852743944997
 24
0.4999999999999964
 14
-0.5
 24
0.4999999999999964
 14
-0.5
 24
-0.5000000000000036
  0
POLYLINE
  5
244
330
48
100
AcDbEntity
  8
None
  6
Continuous
 62
     7
370
    18
100
AcDb2dPolyline
 66
     1
 10
0.0
 20
0.0
 30
0.0
 70
     1
  0
VERTEX
  5
245
330
244
100
AcDbEntity
  8
None
  6
Continuous
 62
     7
370
    18
100
AcDbVertex
100
AcDb2dVertex
 10
7.52201759550374
 20
-4.281514446435044
 30
0.0
  0
VERTEX
  5
246
330
244
100
AcDbEntity
  8
None
  6
Continuous
 62
     7
370
    18
100
AcDbVertex
100
AcDb2dVertex
 10
7.697193577490643
 20
-4.281514446435044
 30
0.0
  0
VERTEX
  5
247
330
244
100
AcDbEntity
  8
None
  6
Continuous
 62
     7
370
    18
100
AcDbVertex
100
AcDb2dVertex
 10
7.697193577490643
 20
-4.498642829347554
 30
0.0
  0
VERTEX
  5
248
330
244
100
AcDbEntity
  8
None
  6
Continuous
 62
     7
370
    18
100
AcDbVertex
100
AcDb2dVertex
 10
7.52201759550374
 20
-4.498642829347554
 30
0.0
  0
SEQEND
  5
249
330
244
100
AcDbEntity
  8
None
  6
Continuous
 62
     7
370
    18
  0
WIPEOUT
  5
24A
330
48
100
AcDbEntity
  8
None
  6
Continuous
 62
     7
370
    18
 92
      152
310
98000000040000000C0000000E000000B20000000C00000016000000000000C20C00000014000000010000006C0000000700000004000000802B4B4667381D40C14A4FBF583011C00000000000000000802B4B4667381D40E143AFE6890711C00000000000000000D4B66FC619BA1840E143AFE6890711C000000000000000
310
00D4B66FC619BA1840C14A4FBF583011C00000000000000000
100
AcDbWipeout
 90
        0
 10
6.181738949364179
 20
-4.297213544096565
 30
0.0
 11
1.123342511910931
 21
0.0
 31
0.0
 12
0.0
 22
1.123342511910931
 32
0.0
 13
1.0
 23
1.0
340
0
 70
     4
280
     1
281
    50
282
    50
283
     0
360
0
 71
     2
 91
        5
 14
0.4999999999999991
 24
0.5
 14
0.4999999999999991
 24
0.464524127610435
 14
-0.5000000000000009
 24
0.464524127610435
 14
-0.5000000000000009
 24
0.5
 14
0.4999999999999991
 24
0.5
  0
POLYLINE
  5
24B
330
48
100
AcDbEntity
  8
None
  6
Continuous
 62
     7
370
    18
100
AcDb2dPolyline
 66
     1
 10
0.0
 20
0.0
 30
0.0
 70
     1
  0
VERTEX
  5
24C
330
24B
100
AcDbEntity
  8
None
  6
Continuous
 62
     7
370
    18
100
AcDbVertex
100
AcDb2dVertex
 10
7.305081461275109
 20
-4.297213544096565
 30
0.0
  0
VERTEX
  5
24D
330
24B
100
AcDbEntity
  8
None
  6
Continuous
 62
     7
370
    18
100
AcDbVertex
100
AcDb2dVertex
 10
7.305081461275109
 20
-4.25736198849424
 30
0.0
  0
VERTEX
  5
24E
330
24B
100
AcDbEntity
  8
None
  6
Continuous
 62
     7
370
    18
100
AcDbVertex
100
AcDb2dVertex
 10
6.181738949364179
 20
-4.25736198849424
 30
0.0
  0
VERTEX
  5
24F
330
24B
100
AcDbEntity
  8
None
  6
Continuous
 62
     7
370
    18
100
AcDbVertex
100
AcDb2dVertex
 10
6.181738949364179
 20
-4.297213544096565
 30
0.0
  0
SEQEND
  5
250
330
24B
100
AcDbEntity
  8
None
  6
Continuous
 62
     7
370
    18
  0
MTEXT
  5
251
330
48
100
AcDbEntity
  8
None
 62
   251
100
AcDbMText
 10
5.618603976180795
 20
-4.322228721193647
 30
0.0
 40
0.099629019240812
 41
0.0
 71
     2
 72
     1
  1
6
  7
Helvetica
 73
     1
 44
0.8397955333929318
  0
MTEXT
  5
252
330
48
100
AcDbEntity
  8
None
 62
   251
100
AcDbMText
 10
6.549179178356943
 20
-3.896400621398457
 30
0.0
 40
0.099629019240812
 41
0.0
 71
     2
 72
     1
  1
2
  7
Helvetica
 73
     1
 44
0.8397955333929318
  0
MTEXT
  5
253
330
48
100
AcDbEntity
  8
None
 62
   251
100
AcDbMText
 10
6.884751797476892
 20
-3.896400621398457
 30
0.0
 40
0.099629019240812
 41
0.0
 71
     2
 72
     1
  1
3
  7
Helvetica
 73
     1
 44
0.8397955333929318
  0
MTEXT
  5
254
330
48
100
AcDbEntity
  8
None
 62
   251
100
AcDbMText
 10
6.720007505161086
 20
-4.33882136549535
 30
0.0
 40
0.099629019240812
 41
0.0
 71
     2
 72
     1
  1
FX
  7
Helvetica
 73
     1
 44
0.8397955333929318
  0
MTEXT
  5
255
330
48
100
AcDbEntity
  8
None
 62
   251
100
AcDbMText
 10
6.238478075767098
 20
-3.896400621398457
 30
0.0
 40
0.099629019240812
 41
0.0
 71
     2
 72
     1
  1
1
  7
Helvetica
 73
     1
 44
0.8397955333929318
  0
MTEXT
  5
256
330
48
100
AcDbEntity
  8
None
 62
   251
100
AcDbMText
 10
7.455730416853805
 20
-4.338845230106877
 30
0.0
 40
0.099629019240812
 41
0.0
 71
     2
 72
     1
  1
B
  7
Helvetica
 73
     1
 44
0.8397955333929318
  0
MTEXT
  5
257
330
48
100
AcDbEntity
  8
None
 62
     7
100
AcDbMText
 10
5.709983344073234
 20
-3.410099045572772
 30
0.0
 40
0.0398516076963248
 41
0.0
 71
     2
 72
     1
  1
SECURITY\PGATE
  7
Helvetica
 73
     1
 44
0.8397955333929318
  0
INSERT
  5
258
330
48
100
AcDbEntity
  8
elements-ojects
 62
     7
100
AcDbBlockReference
  2
Group-3-1
 10
0.0
 20
0.0
 30
0.0
  0
WIPEOUT
  5
259
330
48
100
AcDbEntity
  8
None
  6
Continuous
 62
   250
370
     9
 92
      392
310
88010000040000000C0000000E000000B20000000C00000016000000000000C20C00000014000000010000005C010000070000000E000000C0ECD5D6A8D7134053D882BCA6480FC00000000000000000C0ECD5D6A8D71340F11865225A630FC00000000000000000D54EBC2AF2B21340F11865225A630FC000000000000000
310
00D54EBC2AF2B2134064957AE07AC70FC00000000000000000B8EF36FBE999134064957AE07AC70FC00000000000000000B8EF36FBE99913407B0977601F3B11C0000000000000000075B587506B2515407B0977601F3B11C0000000000000000075B587506B2515405A226D61BA840FC000000000000000009A22290856E4
310
14405A226D61BA840FC000000000000000009A22290856E414406E448BF2514A0FC000000000000000001CC68E0E2FB814406E448BF2514A0FC000000000000000001CC68E0E2FB8144052E505C349310FC00000000000000000712E58B5F4FB134052E505C349310FC00000000000000000712E58B5F4FB134053D882BCA6
310
480FC00000000000000000
100
AcDbWipeout
 90
        0
 10
4.90030663035207
 20
-4.307736880555576
 30
0.0
 11
0.4086704098205742
 21
0.0
 31
0.0
 12
0.0
 22
0.4086704098205742
 32
0.0
 13
1.0
 23
1.0
340
0
 70
     4
280
     1
281
    50
282
    50
283
     0
360
0
 71
     2
 91
       15
 14
-0.3524523035186551
 24
-0.4720855648435691
 14
-0.3524523035186551
 24
-0.4401833603153538
 14
-0.440183366330146
 24
-0.4401833603153538
 14
-0.440183366330146
 24
-0.3205500929756475
 14
-0.5
 24
-0.3205500929756475
 14
-0.5
 24
0.5
 14
0.4451028150462761
 24
0.5
 14
0.4451028150462761
 24
-0.400305610550248
 14
0.2895795669623258
 24
-0.400305610550248
 14
0.2895795669623258
 24
-0.4700916831650748
 14
0.1840729610664589
 24
-0.4700916831650748
 14
0.1840729610664589
 24
-0.5
 14
-0.2657181845737533
 24
-0.5
 14
-0.2657181845737533
 24
-0.4720855648435691
 14
-0.3524523035186551
 24
-0.4720855648435691
  0
POLYLINE
  5
25A
330
48
100
AcDbEntity
  8
None
  6
Continuous
 62
   250
370
     9
100
AcDb2dPolyline
 66
     1
 10
0.0
 20
0.0
 30
0.0
 70
     1
  0
VERTEX
  5
25B
330
25A
100
AcDbEntity
  8
None
  6
Continuous
 62
   250
370
     9
100
AcDbVertex
100
AcDb2dVertex
 10
4.960605007941183
 20
-3.910474274390291
 30
0.0
  0
VERTEX
  5
25C
330
25A
100
AcDbEntity
  8
None
  6
Continuous
 62
   250
370
     9
100
AcDbVertex
100
AcDb2dVertex
 10
4.960605007941183
 20
-3.923511761389016
 30
0.0
  0
VERTEX
  5
25D
330
25A
100
AcDbEntity
  8
None
  6
Continuous
 62
   250
370
     9
100
AcDbVertex
100
AcDb2dVertex
 10
4.924751918548016
 20
-3.923511761389016
 30
0.0
  0
VERTEX
  5
25E
330
25A
100
AcDbEntity
  8
None
  6
Continuous
 62
   250
370
     9
100
AcDbVertex
100
AcDb2dVertex
 10
4.924751918548016
 20
-3.972402337780908
 30
0.0
  0
VERTEX
  5
25F
330
25A
100
AcDbEntity
  8
None
  6
Continuous
 62
   250
370
     9
100
AcDbVertex
100
AcDb2dVertex
 10
4.90030663035207
 20
-3.972402337780908
 30
0.0
  0
VERTEX
  5
260
330
25A
100
AcDbEntity
  8
None
  6
Continuous
 62
   250
370
     9
100
AcDbVertex
100
AcDb2dVertex
 10
4.90030663035207
 20
-4.307736880555576
 30
0.0
  0
VERTEX
  5
261
330
25A
100
AcDbEntity
  8
None
  6
Continuous
 62
   250
370
     9
100
AcDbVertex
100
AcDb2dVertex
 10
5.28654218509961
 20
-4.307736880555576
 30
0.0
  0
VERTEX
  5
262
330
25A
100
AcDbEntity
  8
None
  6
Continuous
 62
   250
370
     9
100
AcDbVertex
100
AcDb2dVertex
 10
5.28654218509961
 20
-3.939808617728244
 30
0.0
  0
VERTEX
  5
263
330
25A
100
AcDbEntity
  8
None
  6
Continuous
 62
   250
370
     9
100
AcDbVertex
100
AcDb2dVertex
 10
5.222984435568515
 20
-3.939808617728244
 30
0.0
  0
VERTEX
  5
264
330
25A
100
AcDbEntity
  8
None
  6
Continuous
 62
   250
370
     9
100
AcDbVertex
100
AcDb2dVertex
 10
5.222984435568515
 20
-3.911289114832975
 30
0.0
  0
VERTEX
  5
265
330
25A
100
AcDbEntity
  8
None
  6
Continuous
 62
   250
370
     9
100
AcDbVertex
100
AcDb2dVertex
 10
5.179867007698273
 20
-3.911289114832975
 30
0.0
  0
VERTEX
  5
266
330
25A
100
AcDbEntity
  8
None
  6
Continuous
 62
   250
370
     9
100
AcDbVertex
100
AcDb2dVertex
 10
5.179867007698273
 20
-3.899066470735002
 30
0.0
  0
VERTEX
  5
267
330
25A
100
AcDbEntity
  8
None
  6
Continuous
 62
   250
370
     9
100
AcDbVertex
100
AcDb2dVertex
 10
4.996050675875822
 20
-3.899066470735002
 30
0.0
  0
VERTEX
  5
268
330
25A
100
AcDbEntity
  8
None
  6
Continuous
 62
   250
370
     9
100
AcDbVertex
100
AcDb2dVertex
 10
4.996050675875822
 20
-3.910474274390291
 30
0.0
  0
SEQEND
  5
269
330
25A
100
AcDbEntity
  8
None
  6
Continuous
 62
   250
370
     9
  0
MTEXT
  5
26A
330
48
100
AcDbEntity
  8
None
 62
   251
100
AcDbMText
 10
7.201387056626372
 20
-3.883202994517626
 30
0.0
 40
0.099629019240812
 41
0.0
 71
     2
 72
     1
  1
H
  7
Helvetica
 73
     1
 44
0.8397955333929318
  0
MTEXT
  5
26B
330
48
100
AcDbEntity
  8
None
 62
     7
100
AcDbMText
 10
7.582748699248813
 20
-3.885148478708215
 30
0.0
 40
0.099629019240812
 41
0.0
 71
     2
 72
     1
  1
4
  7
Helvetica
 73
     1
 44
0.8397955333929318
  0
WIPEOUT
  5
26C
330
48
100
AcDbEntity
  8
None
  6
Continuous
 62
     7
370
    18
 92
      152
310
98000000040000000C0000000E000000B20000000C00000016000000000000C20C00000014000000010000006C00000007000000040000000BAB46670AAC1A40A08F598806960BC0000000000000000060407B99ECF91B40A08F598806960BC0000000000000000060407B99ECF91B40ACFC93DC01090DC000000000000000
310
000BAB46670AAC1A40ACFC93DC01090DC00000000000000000
100
AcDbWipeout
 90
        0
 10
6.668008435905684
 20
-3.629398082033353
 30
0.0
 11
0.3260581822008435
 21
0.0
 31
0.0
 12
0.0
 22
0.3260581822008435
 32
0.0
 13
1.0
 23
1.0
340
0
 70
     4
280
     1
281
    50
282
    50
283
     0
360
0
 71
     2
 91
        5
 14
-0.4999999999999964
 24
-0.0555555555555589
 14
0.5000000000000036
 24
-0.0555555555555589
 14
0.5000000000000036
 24
0.5
 14
-0.4999999999999964
 24
0.5
 14
-0.4999999999999964
 24
-0.0555555555555589
  0
POLYLINE
  5
26D
330
48
100
AcDbEntity
  8
None
  6
Continuous
 62
     7
370
    18
100
AcDb2dPolyline
 66
     1
 10
0.0
 20
0.0
 30
0.0
 70
     1
  0
VERTEX
  5
26E
330
26D
100
AcDbEntity
  8
None
  6
Continuous
 62
     7
370
    18
100
AcDbVertex
100
AcDb2dVertex
 10
6.668008435905684
 20
-3.448254647477327
 30
0.0
  0
VERTEX
  5
26F
330
26D
100
AcDbEntity
  8
None
  6
Continuous
 62
     7
370
    18
100
AcDbVertex
100
AcDb2dVertex
 10
6.994066618106528
 20
-3.448254647477327
 30
0.0
  0
VERTEX
  5
270
330
26D
100
AcDbEntity
  8
None
  6
Continuous
 62
     7
370
    18
100
AcDbVertex
100
AcDb2dVertex
 10
6.994066618106528
 20
-3.629398082033353
 30
0.0
  0
VERTEX
  5
271
330
26D
100
AcDbEntity
  8
None
  6
Continuous
 62
     7
370
    18
100
AcDbVertex
100
AcDb2dVertex
 10
6.668008435905684
 20
-3.629398082033353
 30
0.0
  0
SEQEND
  5
272
330
26D
100
AcDbEntity
  8
None
  6
Continuous
 62
     7
370
    18
  0
MTEXT
  5
273
330
48
100
AcDbEntity
  8
None
 62
   251
100
AcDbMText
 10
6.83064320675202
 20
-3.508572149492363
 30
0.0
 40
0.0398516076963248
 41
0.0
 71
     2
 72
     1
  1
CAFETERIA\P
  7
Helvetica
 73
     1
 44
0.8397955333929318
  0
MTEXT
  5
274
330
48
100
AcDbEntity
  8
None
 62
   251
100
AcDbMText
 10
5.618603976180795
 20
-4.04501806926748
 30
0.0
 40
0.099629019240812
 41
0.0
 71
     2
 72
     1
  1
5
  7
Helvetica
 73
     1
 44
0.8397955333929318
  0
ENDBLK
  5
4A
330
48
100
AcDbEntity
  8
0
100
AcDbBlockEnd
  0
BLOCK
  5
4C
330
4B
100
AcDbEntity
  8
0
100
AcDbBlockBegin
  2
Group-5-1
 70
     0
 10
0.0
 20
0.0
 30
0.0
  3
Group-5-1
  1

  0
WIPEOUT
  5
275
330
4B
100
AcDbEntity
  8
None
  6
Continuous
 62
     7
370
    15
 92
      152
310
98000000040000000C0000000E000000B20000000C00000016000000000000C20C00000014000000010000006C00000007000000040000000A000000006068C0229131EB234890C000000000000000000600000000E066C0229131EB234890C000000000000000000600000000E066C0229131EB236090C000000000000000
310
000A000000006068C0229131EB236090C00000000000000000
100
AcDbWipeout
 90
        0
 10
-195.0000000000003
 20
-1048.035076879962
 30
0.0
 11
12.00000000000011
 21
0.0
 31
0.0
 12
0.0
 22
12.00000000000011
 32
0.0
 13
1.0
 23
1.0
340
0
 70
     4
280
     1
281
    50
282
    50
283
     0
360
0
 71
     2
 91
        5
 14
-0.5
 24
-0.0000000000000142
 14
0.5
 24
-0.0000000000000142
 14
0.5
 24
0.4999999999999858
 14
-0.5
 24
0.4999999999999858
 14
-0.5
 24
-0.0000000000000142
  0
POLYLINE
  5
276
330
4B
100
AcDbEntity
  8
None
  6
Continuous
 62
     7
370
    15
100
AcDb2dPolyline
 66
     1
 10
0.0
 20
0.0
 30
0.0
 70
     1
  0
VERTEX
  5
277
330
276
100
AcDbEntity
  8
None
  6
Continuous
 62
     7
370
    15
100
AcDbVertex
100
AcDb2dVertex
 10
-195.0000000000003
 20
-1042.035076879962
 30
0.0
  0
VERTEX
  5
278
330
276
100
AcDbEntity
  8
None
  6
Continuous
 62
     7
370
    15
100
AcDbVertex
100
AcDb2dVertex
 10
-183.0000000000002
 20
-1042.035076879962
 30
0.0
  0
VERTEX
  5
279
330
276
100
AcDbEntity
  8
None
  6
Continuous
 62
     7
370
    15
100
AcDbVertex
100
AcDb2dVertex
 10
-183.0000000000002
 20
-1048.035076879962
 30
0.0
  0
VERTEX
  5
27A
330
276
100
AcDbEntity
  8
None
  6
Continuous
 62
     7
370
    15
100
AcDbVertex
100
AcDb2dVertex
 10
-195.0000000000003
 20
-1048.035076879962
 30
0.0
  0
SEQEND
  5
27B
330
276
100
AcDbEntity
  8
None
  6
Continuous
 62
     7
370
    15
  0
WIPEOUT
  5
27C
330
4B
100
AcDbEntity
  8
None
  6
Continuous
 62
     7
370
    15
 92
      152
310
98000000040000000C0000000E000000B20000000C00000016000000000000C20C00000014000000010000006C0000000700000004000000F2FFFFFFFFDF66C0249131EB236090C0000000000000000002000000006065C0249131EB236090C0000000000000000002000000006065C0239131EB237890C000000000000000
310
00F2FFFFFFFFDF66C0239131EB237890C00000000000000000
100
AcDbWipeout
 90
        0
 10
-182.9999999999996
 20
-1054.035076879962
 30
0.0
 11
11.99999999999955
 21
0.0
 31
0.0
 12
0.0
 22
11.99999999999955
 32
0.0
 13
1.0
 23
1.0
340
0
 70
     4
280
     1
281
    50
282
    50
283
     0
360
0
 71
     2
 91
        5
 14
-0.5
 24
0.0000000000000142
 14
0.5
 24
0.0000000000000142
 14
0.5
 24
0.5000000000000142
 14
-0.5
 24
0.5000000000000142
 14
-0.5
 24
0.0000000000000142
  0
POLYLINE
  5
27D
330
4B
100
AcDbEntity
  8
None
  6
Continuous
 62
     7
370
    15
100
AcDb2dPolyline
 66
     1
 10
0.0
 20
0.0
 30
0.0
 70
     1
  0
VERTEX
  5
27E
330
27D
100
AcDbEntity
  8
None
  6
Continuous
 62
     7
370
    15
100
AcDbVertex
100
AcDb2dVertex
 10
-182.9999999999996
 20
-1048.035076879962
 30
0.0
  0
VERTEX
  5
27F
330
27D
100
AcDbEntity
  8
None
  6
Continuous
 62
     7
370
    15
100
AcDbVertex
100
AcDb2dVertex
 10
-171.0000000000001
 20
-1048.035076879962
 30
0.0
  0
VERTEX
  5
280
330
27D
100
AcDbEntity
  8
None
  6
Continuous
 62
     7
370
    15
100
AcDbVertex
100
AcDb2dVertex
 10
-171.0000000000001
 20
-1054.035076879962
 30
0.0
  0
VERTEX
  5
281
330
27D
100
AcDbEntity
  8
None
  6
Continuous
 62
     7
370
    15
100
AcDbVertex
100
AcDb2dVertex
 10
-182.9999999999996
 20
-1054.035076879962
 30
0.0
  0
SEQEND
  5
282
330
27D
100
AcDbEntity
  8
None
  6
Continuous
 62
     7
370
    15
  0
WIPEOUT
  5
283
330
4B
100
AcDbEntity
  8
None
  6
Continuous
 62
     7
370
    15
 92
      152
310
98000000040000000C0000000E000000B20000000C00000016000000000000C20C00000014000000010000006C000000070000000400000002000000006065C0229131EB234890C00000000000000000FEFFFFFFFFDF63C0229131EB234890C00000000000000000FEFFFFFFFFDF63C0229131EB236090C000000000000000
310
0002000000006065C0229131EB236090C00000000000000000
100
AcDbWipeout
 90
        0
 10
-171.0000000000001
 20
-1048.035076879962
 30
0.0
 11
12.00000000000011
 21
0.0
 31
0.0
 12
0.0
 22
12.00000000000011
 32
0.0
 13
1.0
 23
1.0
340
0
 70
     4
280
     1
281
    50
282
    50
283
     0
360
0
 71
     2
 91
        5
 14
-0.5
 24
-0.0000000000000142
 14
0.5
 24
-0.0000000000000142
 14
0.5
 24
0.4999999999999858
 14
-0.5
 24
0.4999999999999858
 14
-0.5
 24
-0.0000000000000142
  0
POLYLINE
  5
284
330
4B
100
AcDbEntity
  8
None
  6
Continuous
 62
     7
370
    15
100
AcDb2dPolyline
 66
     1
 10
0.0
 20
0.0
 30
0.0
 70
     1
  0
VERTEX
  5
285
330
284
100
AcDbEntity
  8
None
  6
Continuous
 62
     7
370
    15
100
AcDbVertex
100
AcDb2dVertex
 10
-171.0000000000001
 20
-1042.035076879962
 30
0.0
  0
VERTEX
  5
286
330
284
100
AcDbEntity
  8
None
  6
Continuous
 62
     7
370
    15
100
AcDbVertex
100
AcDb2dVertex
 10
-158.9999999999999
 20
-1042.035076879962
 30
0.0
  0
VERTEX
  5
287
330
284
100
AcDbEntity
  8
None
  6
Continuous
 62
     7
370
    15
100
AcDbVertex
100
AcDb2dVertex
 10
-158.9999999999999
 20
-1048.035076879962
 30
0.0
  0
VERTEX
  5
288
330
284
100
AcDbEntity
  8
None
  6
Continuous
 62
     7
370
    15
100
AcDbVertex
100
AcDb2dVertex
 10
-171.0000000000001
 20
-1048.035076879962
 30
0.0
  0
SEQEND
  5
289
330
284
100
AcDbEntity
  8
None
  6
Continuous
 62
     7
370
    15
  0
WIPEOUT
  5
28A
330
4B
100
AcDbEntity
  8
None
  6
Continuous
 62
     7
370
    15
 92
      152
310
98000000040000000C0000000E000000B20000000C00000016000000000000C20C00000014000000010000006C0000000700000004000000FEFFFFFFFFDF63C0229131EB236090C00000000000000000FAFFFFFFFF5F62C0229131EB236090C00000000000000000FAFFFFFFFF5F62C0219131EB237890C000000000000000
310
00FEFFFFFFFFDF63C0219131EB237890C00000000000000000
100
AcDbWipeout
 90
        0
 10
-158.9999999999999
 20
-1054.035076879962
 30
0.0
 11
12.00000000000011
 21
0.0
 31
0.0
 12
0.0
 22
12.00000000000011
 32
0.0
 13
1.0
 23
1.0
340
0
 70
     4
280
     1
281
    50
282
    50
283
     0
360
0
 71
     2
 91
        5
 14
-0.5
 24
0.0
 14
0.5
 24
0.0
 14
0.5
 24
0.4999999999999716
 14
-0.5
 24
0.4999999999999716
 14
-0.5
 24
0.0
  0
POLYLINE
  5
28B
330
4B
100
AcDbEntity
  8
None
  6
Continuous
 62
     7
370
    15
100
AcDb2dPolyline
 66
     1
 10
0.0
 20
0.0
 30
0.0
 70
     1
  0
VERTEX
  5
28C
330
28B
100
AcDbEntity
  8
None
  6
Continuous
 62
     7
370
    15
100
AcDbVertex
100
AcDb2dVertex
 10
-158.9999999999999
 20
-1048.035076879962
 30
0.0
  0
VERTEX
  5
28D
330
28B
100
AcDbEntity
  8
None
  6
Continuous
 62
     7
370
    15
100
AcDbVertex
100
AcDb2dVertex
 10
-146.9999999999998
 20
-1048.035076879962
 30
0.0
  0
VERTEX
  5
28E
330
28B
100
AcDbEntity
  8
None
  6
Continuous
 62
     7
370
    15
100
AcDbVertex
100
AcDb2dVertex
 10
-146.9999999999998
 20
-1054.035076879962
 30
0.0
  0
VERTEX
  5
28F
330
28B
100
AcDbEntity
  8
None
  6
Continuous
 62
     7
370
    15
100
AcDbVertex
100
AcDb2dVertex
 10
-158.9999999999999
 20
-1054.035076879962
 30
0.0
  0
SEQEND
  5
290
330
28B
100
AcDbEntity
  8
None
  6
Continuous
 62
     7
370
    15
  0
WIPEOUT
  5
291
330
4B
100
AcDbEntity
  8
None
  6
Continuous
 62
     7
370
    15
 92
      152
310
98000000040000000C0000000E000000B20000000C00000016000000000000C20C00000014000000010000006C0000000700000004000000FAFFFFFFFF5F62C0229131EB234890C00000000000000000F6FFFFFFFFDF60C0229131EB234890C00000000000000000F6FFFFFFFFDF60C0229131EB236090C000000000000000
310
00FAFFFFFFFF5F62C0229131EB236090C00000000000000000
100
AcDbWipeout
 90
        0
 10
-146.9999999999998
 20
-1048.035076879962
 30
0.0
 11
12.00000000000011
 21
0.0
 31
0.0
 12
0.0
 22
12.00000000000011
 32
0.0
 13
1.0
 23
1.0
340
0
 70
     4
280
     1
281
    50
282
    50
283
     0
360
0
 71
     2
 91
        5
 14
-0.5
 24
-0.0000000000000142
 14
0.5
 24
-0.0000000000000142
 14
0.5
 24
0.4999999999999858
 14
-0.5
 24
0.4999999999999858
 14
-0.5
 24
-0.0000000000000142
  0
POLYLINE
  5
292
330
4B
100
AcDbEntity
  8
None
  6
Continuous
 62
     7
370
    15
100
AcDb2dPolyline
 66
     1
 10
0.0
 20
0.0
 30
0.0
 70
     1
  0
VERTEX
  5
293
330
292
100
AcDbEntity
  8
None
  6
Continuous
 62
     7
370
    15
100
AcDbVertex
100
AcDb2dVertex
 10
-146.9999999999998
 20
-1042.035076879962
 30
0.0
  0
VERTEX
  5
294
330
292
100
AcDbEntity
  8
None
  6
Continuous
 62
     7
370
    15
100
AcDbVertex
100
AcDb2dVertex
 10
-134.9999999999997
 20
-1042.035076879962
 30
0.0
  0
VERTEX
  5
295
330
292
100
AcDbEntity
  8
None
  6
Continuous
 62
     7
370
    15
100
AcDbVertex
100
AcDb2dVertex
 10
-134.9999999999997
 20
-1048.035076879962
 30
0.0
  0
VERTEX
  5
296
330
292
100
AcDbEntity
  8
None
  6
Continuous
 62
     7
370
    15
100
AcDbVertex
100
AcDb2dVertex
 10
-146.9999999999998
 20
-1048.035076879962
 30
0.0
  0
SEQEND
  5
297
330
292
100
AcDbEntity
  8
None
  6
Continuous
 62
     7
370
    15
  0
WIPEOUT
  5
298
330
4B
100
AcDbEntity
  8
None
  6
Continuous
 62
     7
370
    15
 92
      152
310
98000000040000000C0000000E000000B20000000C00000016000000000000C20C00000014000000010000006C00000007000000040000000B00000000E060C0249131EB236090C000000000000000001400000000C052C0249131EB236090C000000000000000001400000000C052C0229131EB237890C000000000000000
310
000B00000000E060C0229131EB237890C00000000000000000
100
AcDbWipeout
 90
        0
 10
-135.0000000000003
 20
-1054.035076879962
 30
0.0
 11
60.00000000000001
 21
0.0
 31
0.0
 12
0.0
 22
60.00000000000001
 32
0.0
 13
1.0
 23
1.0
340
0
 70
     4
280
     1
281
    50
282
    50
283
     0
360
0
 71
     2
 91
        5
 14
-0.5000000000000002
 24
0.4000000000000057
 14
0.5
 24
0.4000000000000057
 14
0.5
 24
0.5
 14
-0.5000000000000002
 24
0.5
 14
-0.5000000000000002
 24
0.4000000000000057
  0
POLYLINE
  5
299
330
4B
100
AcDbEntity
  8
None
  6
Continuous
 62
     7
370
    15
100
AcDb2dPolyline
 66
     1
 10
0.0
 20
0.0
 30
0.0
 70
     1
  0
VERTEX
  5
29A
330
299
100
AcDbEntity
  8
None
  6
Continuous
 62
     7
370
    15
100
AcDbVertex
100
AcDb2dVertex
 10
-135.0000000000003
 20
-1048.035076879962
 30
0.0
  0
VERTEX
  5
29B
330
299
100
AcDbEntity
  8
None
  6
Continuous
 62
     7
370
    15
100
AcDbVertex
100
AcDb2dVertex
 10
-75.00000000000027
 20
-1048.035076879962
 30
0.0
  0
VERTEX
  5
29C
330
299
100
AcDbEntity
  8
None
  6
Continuous
 62
     7
370
    15
100
AcDbVertex
100
AcDb2dVertex
 10
-75.00000000000027
 20
-1054.035076879962
 30
0.0
  0
VERTEX
  5
29D
330
299
100
AcDbEntity
  8
None
  6
Continuous
 62
     7
370
    15
100
AcDbVertex
100
AcDb2dVertex
 10
-135.0000000000003
 20
-1054.035076879962
 30
0.0
  0
SEQEND
  5
29E
330
299
100
AcDbEntity
  8
None
  6
Continuous
 62
     7
370
    15
  0
WIPEOUT
  5
29F
330
4B
100
AcDbEntity
  8
None
  6
Continuous
 62
     7
370
    15
 92
      152
310
98000000040000000C0000000E000000B20000000C00000016000000000000C20C00000014000000010000006C00000007000000040000001200000000C052C0229131EB234890C00000000000000000C5FFFFFFFF7F4640229131EB234890C00000000000000000C5FFFFFFFF7F4640229131EB236090C000000000000000
310
001200000000C052C0229131EB236090C00000000000000000
100
AcDbWipeout
 90
        0
 10
-75.00000000000027
 20
-1048.035076879962
 30
0.0
 11
119.9999999999999
 21
0.0
 31
0.0
 12
0.0
 22
119.9999999999999
 32
0.0
 13
1.0
 23
1.0
340
0
 70
     4
280
     1
281
    50
282
    50
283
     0
360
0
 71
     2
 91
        5
 14
-0.4999999999999999
 24
0.4499999999999975
 14
0.4999999999999999
 24
0.4499999999999975
 14
0.4999999999999999
 24
0.4999999999999982
 14
-0.4999999999999999
 24
0.4999999999999982
 14
-0.4999999999999999
 24
0.4499999999999975
  0
POLYLINE
  5
2A0
330
4B
100
AcDbEntity
  8
None
  6
Continuous
 62
     7
370
    15
100
AcDb2dPolyline
 66
     1
 10
0.0
 20
0.0
 30
0.0
 70
     1
  0
VERTEX
  5
2A1
330
2A0
100
AcDbEntity
  8
None
  6
Continuous
 62
     7
370
    15
100
AcDbVertex
100
AcDb2dVertex
 10
-75.00000000000027
 20
-1042.035076879962
 30
0.0
  0
VERTEX
  5
2A2
330
2A0
100
AcDbEntity
  8
None
  6
Continuous
 62
     7
370
    15
100
AcDbVertex
100
AcDb2dVertex
 10
44.99999999999959
 20
-1042.035076879962
 30
0.0
  0
VERTEX
  5
2A3
330
2A0
100
AcDbEntity
  8
None
  6
Continuous
 62
     7
370
    15
100
AcDbVertex
100
AcDb2dVertex
 10
44.99999999999959
 20
-1048.035076879962
 30
0.0
  0
VERTEX
  5
2A4
330
2A0
100
AcDbEntity
  8
None
  6
Continuous
 62
     7
370
    15
100
AcDbVertex
100
AcDb2dVertex
 10
-75.00000000000027
 20
-1048.035076879962
 30
0.0
  0
SEQEND
  5
2A5
330
2A0
100
AcDbEntity
  8
None
  6
Continuous
 62
     7
370
    15
  0
WIPEOUT
  5
2A6
330
4B
100
AcDbEntity
  8
None
  6
Continuous
 62
     7
370
    15
 92
      152
310
98000000040000000C0000000E000000B20000000C00000016000000000000C20C00000014000000010000006C0000000700000004000000C0FFFFFFFF7F4640229131EB236090C00000000000000000F3FFFFFFFFCF7140229131EB236090C00000000000000000F3FFFFFFFFCF7140219131EB237890C000000000000000
310
00C0FFFFFFFF7F4640219131EB237890C00000000000000000
100
AcDbWipeout
 90
        0
 10
44.99999999999959
 20
-1054.035076879962
 30
0.0
 11
239.9999999999997
 21
0.0
 31
0.0
 12
0.0
 22
239.9999999999997
 32
0.0
 13
1.0
 23
1.0
340
0
 70
     4
280
     1
281
    50
282
    50
283
     0
360
0
 71
     2
 91
        5
 14
-0.5000000000000001
 24
0.4750000000000005
 14
0.4999999999999999
 24
0.4750000000000005
 14
0.4999999999999999
 24
0.4999999999999991
 14
-0.5000000000000001
 24
0.4999999999999991
 14
-0.5000000000000001
 24
0.4750000000000005
  0
POLYLINE
  5
2A7
330
4B
100
AcDbEntity
  8
None
  6
Continuous
 62
     7
370
    15
100
AcDb2dPolyline
 66
     1
 10
0.0
 20
0.0
 30
0.0
 70
     1
  0
VERTEX
  5
2A8
330
2A7
100
AcDbEntity
  8
None
  6
Continuous
 62
     7
370
    15
100
AcDbVertex
100
AcDb2dVertex
 10
44.99999999999959
 20
-1048.035076879962
 30
0.0
  0
VERTEX
  5
2A9
330
2A7
100
AcDbEntity
  8
None
  6
Continuous
 62
     7
370
    15
100
AcDbVertex
100
AcDb2dVertex
 10
284.9999999999993
 20
-1048.035076879962
 30
0.0
  0
VERTEX
  5
2AA
330
2A7
100
AcDbEntity
  8
None
  6
Continuous
 62
     7
370
    15
100
AcDbVertex
100
AcDb2dVertex
 10
284.9999999999993
 20
-1054.035076879962
 30
0.0
  0
VERTEX
  5
2AB
330
2A7
100
AcDbEntity
  8
None
  6
Continuous
 62
     7
370
    15
100
AcDbVertex
100
AcDb2dVertex
 10
44.99999999999959
 20
-1054.035076879962
 30
0.0
  0
SEQEND
  5
2AC
330
2A7
100
AcDbEntity
  8
None
  6
Continuous
 62
     7
370
    15
  0
LINE
  5
2AD
330
4B
100
AcDbEntity
  8
None
  6
Continuous
 62
     7
370
    15
100
AcDbLine
 10
-195.0000000000003
 20
-1042.035076879962
 30
0.0
 11
-195.0000000000003
 21
-1054.035076879962
 31
0.0
  0
LINE
  5
2AE
330
4B
100
AcDbEntity
  8
None
  6
Continuous
 62
     7
370
    15
100
AcDbLine
 10
524.9999999999994
 20
-1054.035076879962
 30
0.0
 11
524.9999999999994
 21
-1042.035076879962
 31
0.0
  0
WIPEOUT
  5
2AF
330
4B
100
AcDbEntity
  8
None
  6
Continuous
 62
     7
370
    15
 92
      152
310
98000000040000000C0000000E000000B20000000C00000016000000000000C20C00000014000000010000006C0000000700000004000000FFFFFFFFFFCF7140229131EB234890C000000000000000000400000000688040229131EB234890C000000000000000000400000000688040229131EB236090C000000000000000
310
00FFFFFFFFFFCF7140229131EB236090C00000000000000000
100
AcDbWipeout
 90
        0
 10
285.0
 20
-1048.035076879962
 30
0.0
 11
240.0000000000006
 21
0.0
 31
0.0
 12
0.0
 22
240.0000000000006
 32
0.0
 13
1.0
 23
1.0
340
0
 70
     4
280
     1
281
    50
282
    50
283
     0
360
0
 71
     2
 91
        5
 14
-0.5000000000000002
 24
0.4750000000000001
 14
0.4999999999999996
 24
0.4750000000000001
 14
0.4999999999999996
 24
0.4999999999999996
 14
-0.5000000000000002
 24
0.4999999999999996
 14
-0.5000000000000002
 24
0.4750000000000001
  0
POLYLINE
  5
2B0
330
4B
100
AcDbEntity
  8
None
  6
Continuous
 62
     7
370
    15
100
AcDb2dPolyline
 66
     1
 10
0.0
 20
0.0
 30
0.0
 70
     1
  0
VERTEX
  5
2B1
330
2B0
100
AcDbEntity
  8
None
  6
Continuous
 62
     7
370
    15
100
AcDbVertex
100
AcDb2dVertex
 10
285.0
 20
-1042.035076879962
 30
0.0
  0
VERTEX
  5
2B2
330
2B0
100
AcDbEntity
  8
None
  6
Continuous
 62
     7
370
    15
100
AcDbVertex
100
AcDb2dVertex
 10
525.0000000000006
 20
-1042.035076879962
 30
0.0
  0
VERTEX
  5
2B3
330
2B0
100
AcDbEntity
  8
None
  6
Continuous
 62
     7
370
    15
100
AcDbVertex
100
AcDb2dVertex
 10
525.0000000000006
 20
-1048.035076879962
 30
0.0
  0
VERTEX
  5
2B4
330
2B0
100
AcDbEntity
  8
None
  6
Continuous
 62
     7
370
    15
100
AcDbVertex
100
AcDb2dVertex
 10
285.0
 20
-1048.035076879962
 30
0.0
  0
SEQEND
  5
2B5
330
2B0
100
AcDbEntity
  8
None
  6
Continuous
 62
     7
370
    15
  0
ENDBLK
  5
4D
330
4B
100
AcDbEntity
  8
0
100
AcDbBlockEnd
  0
BLOCK
  5
4F
330
4E
100
AcDbEntity
  8
0
100
AcDbBlockBegin
  2
Group-6-1
 70
     0
 10
0.0
 20
0.0
 30
0.0
  3
Group-6-1
  1

  0
INSERT
  5
2B6
330
4E
100
AcDbEntity
  8
None
 62
     7
100
AcDbBlockReference
  2
Group-5-1
 10
0.0
 20
0.0
 30
0.0
  0
WIPEOUT
  5
2B7
330
4E
100
AcDbEntity
  8
None
  6
Continuous
 62
     7
370
     9
 92
      152
310
98000000040000000C0000000E000000B20000000C00000016000000000000C20C00000014000000010000006C000000070000000400000001000000002069C01A711F2DD51391C00000000000000000E6388EE3305967C01A711F2DD51391C00000000000000000E6388EE3305967C0363891499CAD90C000000000000000
310
0001000000002069C0363891499CAD90C00000000000000000
100
AcDbWipeout
 90
        0
 10
-201.0000000000001
 20
-1092.958179942397
 30
0.0
 11
25.55555555555566
 21
0.0
 31
0.0
 12
0.0
 22
25.55555555555566
 32
0.0
 13
1.0
 23
1.0
340
0
 70
     4
280
     1
281
    50
282
    50
283
     0
360
0
 71
     2
 91
        5
 14
-0.4999999999999991
 24
0.4999999999999929
 14
0.0561523437499973
 24
0.4999999999999929
 14
0.0561523437499973
 24
-0.5000000000000071
 14
-0.4999999999999991
 24
-0.5000000000000071
 14
-0.4999999999999991
 24
0.4999999999999929
  0
MTEXT
  5
2B8
330
4E
100
AcDbEntity
  8
None
 62
     7
100
AcDbMText
 10
-201.0000000000001
 20
-1068.748662624309
 30
0.0
 40
18.3317395403094
 41
0.0
 71
     1
 72
     1
  1
0
  7
Helvetica
 73
     1
 44
0.8397955333929319
  0
WIPEOUT
  5
2B9
330
4E
100
AcDbEntity
  8
None
  6
Continuous
 62
     7
370
     9
 92
      152
310
98000000040000000C0000000E000000B20000000C00000016000000000000C20C00000014000000010000006C0000000700000004000000E92BC406CC9261C01A711F2DD51391C00000000000000000D357880DB85F5EC01A711F2DD51391C00000000000000000D357880DB85F5EC0363891499CAD90C000000000000000
310
00E92BC406CC9261C0363891499CAD90C00000000000000000
100
AcDbWipeout
 90
        0
 10
-140.5874055701709
 20
-1092.958179942397
 30
0.0
 11
25.55555555555566
 21
0.0
 31
0.0
 12
0.0
 22
25.55555555555566
 32
0.0
 13
1.0
 23
1.0
340
0
 70
     4
280
     1
281
    50
282
    50
283
     0
360
0
 71
     2
 91
        5
 14
-0.5
 24
0.4999999999999929
 14
0.2470703124999964
 24
0.4999999999999929
 14
0.2470703124999964
 24
-0.5000000000000071
 14
-0.5
 24
-0.5000000000000071
 14
-0.5
 24
0.4999999999999929
  0
MTEXT
  5
2BA
330
4E
100
AcDbEntity
  8
None
 62
     7
100
AcDbMText
 10
-140.5874055701709
 20
-1068.748662624309
 30
0.0
 40
18.3317395403094
 41
0.0
 71
     1
 72
     1
  1
5'
  7
Helvetica
 73
     1
 44
0.8397955333929319
  0
WIPEOUT
  5
2BB
330
4E
100
AcDbEntity
  8
None
  6
Continuous
 62
     7
370
     9
 92
      152
310
98000000040000000C0000000E000000B20000000C00000016000000000000C20C00000014000000010000006C000000070000000400000020AC350B3A4456C01B711F2DD51391C00000000000000000CF3BA4A477E14BC01B711F2DD51391C00000000000000000CF3BA4A477E14BC0373891499CAD90C000000000000000
310
0020AC350B3A4456C0373891499CAD90C00000000000000000
100
AcDbWipeout
 90
        0
 10
-89.06604271165317
 20
-1092.958179942397
 30
0.0
 11
33.30457899305556
 21
0.0
 31
0.0
 12
0.0
 22
33.30457899305556
 32
0.0
 13
1.0
 23
1.0
340
0
 70
     4
280
     1
281
    50
282
    50
283
     0
360
0
 71
     2
 91
        5
 14
-0.5
 24
0.5
 14
0.5
 24
0.5
 14
0.5
 24
-0.2673285874859488
 14
-0.5
 24
-0.2673285874859488
 14
-0.5
 24
0.5
  0
MTEXT
  5
2BC
330
4E
100
AcDbEntity
  8
None
 62
     7
100
AcDbMText
 10
-89.06604271165317
 20
-1068.748662624309
 30
0.0
 40
18.3317395403094
 41
0.0
 71
     1
 72
     1
  1
10'
  7
Helvetica
 73
     1
 44
0.8397955333929319
  0
WIPEOUT
  5
2BD
330
4E
100
AcDbEntity
  8
None
  6
Continuous
 62
     7
370
     9
 92
      152
310
98000000040000000C0000000E000000B20000000C00000016000000000000C20C00000014000000010000006C0000000700000004000000A8A0DEC99F6941401B711F2DD51391C000000000000000008FDED21D4E0851401B711F2DD51391C000000000000000008FDED21D4E085140363891499CAD90C000000000000000
310
00A8A0DEC99F694140363891499CAD90C00000000000000000
100
AcDbWipeout
 90
        0
 10
34.82518885965811
 20
-1092.958179942397
 30
0.0
 11
33.30457899305557
 21
0.0
 31
0.0
 12
0.0
 22
33.30457899305557
 32
0.0
 13
1.0
 23
1.0
340
0
 70
     4
280
     1
281
    50
282
    50
283
     0
360
0
 71
     2
 91
        5
 14
-0.5
 24
0.5
 14
0.5000000000000004
 24
0.5
 14
0.5000000000000004
 24
-0.2673285874859559
 14
-0.5
 24
-0.2673285874859559
 14
-0.5
 24
0.5
  0
MTEXT
  5
2BE
330
4E
100
AcDbEntity
  8
None
 62
     7
100
AcDbMText
 10
34.82518885965811
 20
-1068.748662624309
 30
0.0
 40
18.3317395403094
 41
0.0
 71
     1
 72
     1
  1
20'
  7
Helvetica
 73
     1
 44
0.8397955333929319
  0
WIPEOUT
  5
2BF
330
4E
100
AcDbEntity
  8
None
  6
Continuous
 62
     7
370
     9
 92
      152
310
98000000040000000C0000000E000000B20000000C00000016000000000000C20C00000014000000010000006C000000070000000400000023D43BF933ED70401C711F2DD51391C00000000000000000B1B77487130273401C711F2DD51391C00000000000000000B1B7748713027340373891499CAD90C000000000000000
310
0023D43BF933ED7040373891499CAD90C00000000000000000
100
AcDbWipeout
 90
        0
 10
270.8251888596589
 20
-1092.958179942397
 30
0.0
 11
33.30457899305554
 21
0.0
 31
0.0
 12
0.0
 22
33.30457899305554
 32
0.0
 13
1.0
 23
1.0
340
0
 70
     4
280
     1
281
    50
282
    50
283
     0
360
0
 71
     2
 91
        5
 14
-0.5
 24
0.5000000000000071
 14
0.5
 24
0.5000000000000071
 14
0.5
 24
-0.2673285874859488
 14
-0.5
 24
-0.2673285874859488
 14
-0.5
 24
0.5000000000000071
  0
MTEXT
  5
2C0
330
4E
100
AcDbEntity
  8
None
 62
     7
100
AcDbMText
 10
270.8251888596589
 20
-1068.748662624309
 30
0.0
 40
18.3317395403094
 41
0.0
 71
     1
 72
     1
  1
40'
  7
Helvetica
 73
     1
 44
0.8397955333929319
  0
WIPEOUT
  5
2C1
330
4E
100
AcDbEntity
  8
None
  6
Continuous
 62
     7
370
     9
 92
      152
310
98000000040000000C0000000E000000B20000000C00000016000000000000C20C00000014000000010000006C00000007000000040000006B46952736D67F401C711F2DD51391C00000000000000000FC14E7DA8AF580401C711F2DD51391C00000000000000000FC14E7DA8AF58040373891499CAD90C000000000000000
310
006B46952736D67F40373891499CAD90C00000000000000000
100
AcDbWipeout
 90
        0
 10
509.3882213431414
 20
-1092.958179942397
 30
0.0
 11
33.30457899305554
 21
0.0
 31
0.0
 12
0.0
 22
33.30457899305554
 32
0.0
 13
1.0
 23
1.0
340
0
 70
     4
280
     1
281
    50
282
    50
283
     0
360
0
 71
     2
 91
        5
 14
-0.5000000000000036
 24
0.5000000000000071
 14
0.4999999999999947
 24
0.5000000000000071
 14
0.4999999999999947
 24
-0.2673285874859488
 14
-0.5000000000000036
 24
-0.2673285874859488
 14
-0.5000000000000036
 24
0.5000000000000071
  0
MTEXT
  5
2C2
330
4E
100
AcDbEntity
  8
None
 62
     7
100
AcDbMText
 10
509.3882213431414
 20
-1068.748662624309
 30
0.0
 40
18.3317395403094
 41
0.0
 71
     1
 72
     1
  1
60'
  7
Helvetica
 73
     1
 44
0.8397955333929319
  0
ENDBLK
  5
50
330
4E
100
AcDbEntity
  8
0
100
AcDbBlockEnd
  0
BLOCK
  5
52
330
51
100
AcDbEntity
  8
0
100
AcDbBlockBegin
  2
Group-7-1
 70
     0
 10
0.0
 20
0.0
 30
0.0
  3
Group-7-1
  1

  0
WIPEOUT
  5
2C3
330
51
100
AcDbEntity
  8
None
  6
Continuous
 62
     7
370
     9
 92
      152
310
98000000040000000C0000000E000000B20000000C00000016000000000000C20C00000014000000010000006C0000000700000004000000342D67B3C0B868C03E851B099AE28FC000000000000000004850DC43313656403E851B099AE28FC000000000000000004850DC433136564093DA705EEFAF8EC000000000000000
310
00342D67B3C0B868C093DA705EEFAF8EC00000000000000000
100
AcDbWipeout
 90
        0
 10
-197.7735230460327
 20
-1020.325212683681
 30
0.0
 11
286.6202799479168
 21
0.0
 31
0.0
 12
0.0
 22
286.6202799479168
 32
0.0
 13
1.0
 23
1.0
340
0
 70
     4
280
     1
281
    50
282
    50
283
     0
360
0
 71
     2
 91
        5
 14
-0.4999999999999999
 24
0.5
 14
0.4999999999999999
 24
0.5
 14
0.4999999999999999
 24
0.3662574283288706
 14
-0.4999999999999999
 24
0.3662574283288706
 14
-0.4999999999999999
 24
0.5
  0
MTEXT
  5
2C4
330
51
100
AcDbEntity
  8
None
 62
     7
100
AcDbMText
 10
-197.7735230460327
 20
-984.0109367065504
 30
0.0
 40
27.4976093104641
 41
0.0
 71
     1
 72
     1
  1
SCALE = 1 : 230
  7
Helvetica
 73
     1
 44
0.8397955333929319
  0
INSERT
  5
2C5
330
51
100
AcDbEntity
  8
None
 62
     7
100
AcDbBlockReference
  2
Group-6-1
 10
0.0
 20
0.0
 30
0.0
  0
ENDBLK
  5
53
330
51
100
AcDbEntity
  8
0
100
AcDbBlockEnd
  0
BLOCK
  5
55
330
54
100
AcDbEntity
  8
0
100
AcDbBlockBegin
  2
*D8
 70
     1
 10
0.0
 20
0.0
 30
0.0
  3
*D8
  1

  0
LINE
  5
2C6
330
54
100
AcDbEntity
  8
Dimension
  6
Continuous
 62
     0
370
    -2
100
AcDbLine
 10
-215.5705588101889
 20
853.1970808923578
 30
0.0
 11
-215.5705588101889
 21
1098.572080892358
 31
0.0
  0
LINE
  5
2C7
330
54
100
AcDbEntity
  8
Dimension
  6
Continuous
 62
     0
370
    -2
100
AcDbLine
 10
-1415.570458810188
 20
850.1970808923578
 30
0.0
 11
-1415.570458810188
 21
1098.572080892358
 31
0.0
  0
LINE
  5
2C8
330
54
100
AcDbEntity
  8
Dimension
  6
Continuous
 62
     0
370
    -2
100
AcDbLine
 10
-244.3205588101889
 20
1069.822080892358
 30
0.0
 11
-772.6944597952397
 21
1069.822080892358
 31
0.0
  0
LINE
  5
2C9
102
{ACAD_REACTORS
330
2CE
102
}
330
54
100
AcDbEntity
  8
Dimension
  6
Continuous
 62
     0
370
    -2
100
AcDbLine
 10
-1386.820458810188
 20
1069.822080892358
 30
0.0
 11
-858.4465578251373
 21
1069.822080892358
 31
0.0
  0
INSERT
  5
2CE
330
54
100
AcDbEntity
  8
Dimension
 62
     0
370
    -2
100
AcDbBlockReference
  2
VW_FILLEDARROW
 10
-215.5705588101889
 20
1069.822080892358
 30
0.0
 41
28.75
 42
28.75
 43
28.75
  0
INSERT
  5
2CF
102
{ACAD_REACTORS
330
2D4
102
}
330
54
100
AcDbEntity
  8
Dimension
 62
     0
370
    -2
100
AcDbBlockReference
  2
VW_FILLEDARROW
 10
-1415.570458810188
 20
1069.822080892358
 30
0.0
 41
28.75
 42
28.75
 43
28.75
 50
180.0
  0
MTEXT
  5
2D4
330
54
100
AcDbEntity
  8
Dimension
 62
     0
370
     9
100
AcDbMText
 10
-815.5705088101885
 20
1069.822080892358
 30
0.0
 40
27.4976093104641
 41
0.0
 71
     5
 72
     1
  1
\A1;100'
  7
Helvetica
 73
     1
 44
1.0
  0
POINT
  5
2D5
330
54
100
AcDbEntity
  8
Defpoints
 62
     0
100
AcDbPoint
 10
-215.5705588101889
 20
838.8220808923578
 30
0.0
  0
POINT
  5
2D6
330
54
100
AcDbEntity
  8
Defpoints
 62
     0
100
AcDbPoint
 10
-1415.570458810188
 20
835.8220808923578
 30
0.0
  0
POINT
  5
2D7
330
54
100
AcDbEntity
  8
Defpoints
 62
     0
100
AcDbPoint
 10
-1415.570458810188
 20
1069.822080892358
 30
0.0
  0
ENDBLK
  5
56
330
54
100
AcDbEntity
  8
0
100
AcDbBlockEnd
  0
BLOCK
  5
58
330
57
100
AcDbEntity
  8
0
100
AcDbBlockBegin
  2
*D9
 70
     1
 10
0.0
 20
0.0
 30
0.0
  3
*D9
  1

  0
LINE
  5
2DA
330
57
100
AcDbEntity
  8
Dimension
  6
Continuous
 62
     0
370
    -2
100
AcDbLine
 10
-1414.445558810189
 20
-944.1321084025509
 30
0.0
 11
-1660.320558810189
 21
-944.1321084025508
 31
0.0
  0
LINE
  5
2DB
330
57
100
AcDbEntity
  8
Dimension
  6
Continuous
 62
     0
370
    -2
100
AcDbLine
 10
-1392.445558810189
 20
856.209291597449
 30
0.0
 11
-1660.320558810189
 21
856.209291597449
 31
0.0
  0
LINE
  5
2DC
330
57
100
AcDbEntity
  8
Dimension
  6
Continuous
 62
     0
370
    -2
100
AcDbLine
 10
-1631.570558810189
 20
-915.3821084025508
 30
0.0
 11
-1631.570558810189
 21
-61.30396305778299
 31
0.0
  0
LINE
  5
2DD
102
{ACAD_REACTORS
330
2E2
102
}
330
57
100
AcDbEntity
  8
Dimension
  6
Continuous
 62
     0
370
    -2
100
AcDbLine
 10
-1631.570558810189
 20
827.459291597449
 30
0.0
 11
-1631.570558810189
 21
-26.61885374731867
 31
0.0
  0
INSERT
  5
2E2
330
57
100
AcDbEntity
  8
Dimension
 62
     0
370
    -2
100
AcDbBlockReference
  2
VW_FILLEDARROW
 10
-1631.570558810189
 20
-944.1321084025508
 30
0.0
 41
28.75
 42
28.75
 43
28.75
 50
270.0
  0
INSERT
  5
2E3
102
{ACAD_REACTORS
330
2E8
102
}
330
57
100
AcDbEntity
  8
Dimension
 62
     0
370
    -2
100
AcDbBlockReference
  2
VW_FILLEDARROW
 10
-1631.570558810189
 20
856.209291597449
 30
0.0
 41
28.75
 42
28.75
 43
28.75
 50
90.0
  0
MTEXT
  5
2E8
330
57
100
AcDbEntity
  8
Dimension
 62
     0
370
     9
100
AcDbMText
 10
-1631.570558810189
 20
-43.96140840255089
 30
0.0
 40
27.4976093104641
 41
0.0
 71
     5
 72
     1
  1
\A1;150'
  7
Helvetica
 73
     1
 44
1.0
  0
POINT
  5
2E9
330
57
100
AcDbEntity
  8
Defpoints
 62
     0
100
AcDbPoint
 10
-1400.070558810189
 20
-944.1321084025509
 30
0.0
  0
POINT
  5
2EA
330
57
100
AcDbEntity
  8
Defpoints
 62
     0
100
AcDbPoint
 10
-1378.070558810189
 20
856.209291597449
 30
0.0
  0
POINT
  5
2EB
330
57
100
AcDbEntity
  8
Defpoints
 62
     0
100
AcDbPoint
 10
-1631.570558810189
 20
856.209291597449
 30
0.0
  0
ENDBLK
  5
59
330
57
100
AcDbEntity
  8
0
100
AcDbBlockEnd
  0
BLOCK
  5
5B
330
5A
100
AcDbEntity
  8
0
100
AcDbBlockBegin
  2
Group-8-1
 70
     0
 10
0.0
 20
0.0
 30
0.0
  3
Group-8-1
  1

  0
LINE
  5
2EE
330
5A
100
AcDbEntity
  8
0
  6
Continuous
 62
    19
370
     9
100
AcDbLine
 10
-890.9180039160667
 20
991.209291597449
 30
0.0
 11
-890.9180039160667
 21
1035.209291597449
 31
0.0
  0
LINE
  5
2EF
330
5A
100
AcDbEntity
  8
0
  6
Continuous
 62
    19
370
     9
100
AcDbLine
 10
-888.4735588101885
 20
991.209291597449
 30
0.0
 11
-890.9180039160667
 21
991.209291597449
 31
0.0
  0
LINE
  5
2F0
330
5A
100
AcDbEntity
  8
0
  6
Continuous
 62
    19
370
     9
100
AcDbLine
 10
-888.4735588101885
 20
1035.209291597449
 30
0.0
 11
-888.4735588101885
 21
991.209291597449
 31
0.0
  0
LINE
  5
2F1
330
5A
100
AcDbEntity
  8
0
  6
Continuous
 62
    19
370
     9
100
AcDbLine
 10
-890.9180039160667
 20
1035.209291597449
 30
0.0
 11
-888.4735588101885
 21
1035.209291597449
 31
0.0
  0
SPLINE
  5
2F2
330
5A
100
AcDbEntity
  8
0
  6
Continuous
 62
    19
370
     9
100
AcDbSpline
210
0.0
220
0.0
230
1.0
 70
     8
 71
     2
 72
     8
 73
     5
 74
     0
 42
0.000000001
 43
0.0000000000001
 40
0.0
 40
0.0
 40
0.0
 40
1.0
 40
2.0
 40
3.0
 40
3.0
 40
3.0
 10
-890.9178985520537
 20
1035.141331827334
 30
0.0
 10
-902.2543158373917
 20
1034.510583968596
 30
0.0
 10
-921.4858269361872
 20
1022.435912058736
 30
0.0
 10
-932.4735316216091
 20
1002.563344740896
 30
0.0
 10
-932.4735588101887
 20
991.2093969614053
 30
0.0
  0
ENDBLK
  5
5C
330
5A
100
AcDbEntity
  8
0
100
AcDbBlockEnd
  0
BLOCK
  5
5E
330
5D
100
AcDbEntity
  8
0
100
AcDbBlockBegin
  2
Group-9-1
 70
     0
 10
0.0
 20
0.0
 30
0.0
  3
Group-9-1
  1

  0
LINE
  5
2F3
330
5D
100
AcDbEntity
  8
0
  6
Continuous
 62
    19
370
     9
100
AcDbLine
 10
-890.9180039160667
 20
873.2092915974487
 30
0.0
 11
-890.9180039160667
 21
917.2092915974489
 31
0.0
  0
LINE
  5
2F4
330
5D
100
AcDbEntity
  8
0
  6
Continuous
 62
    19
370
     9
100
AcDbLine
 10
-888.4735588101885
 20
873.2092915974487
 30
0.0
 11
-890.9180039160667
 21
873.2092915974487
 31
0.0
  0
LINE
  5
2F5
330
5D
100
AcDbEntity
  8
0
  6
Continuous
 62
    19
370
     9
100
AcDbLine
 10
-888.4735588101885
 20
917.2092915974489
 30
0.0
 11
-888.4735588101885
 21
873.2092915974487
 31
0.0
  0
LINE
  5
2F6
330
5D
100
AcDbEntity
  8
0
  6
Continuous
 62
    19
370
     9
100
AcDbLine
 10
-890.9180039160667
 20
917.2092915974489
 30
0.0
 11
-888.4735588101885
 21
917.2092915974489
 31
0.0
  0
SPLINE
  5
2F7
330
5D
100
AcDbEntity
  8
0
  6
Continuous
 62
    19
370
     9
100
AcDbSpline
210
0.0
220
0.0
230
1.0
 70
     8
 71
     2
 72
     8
 73
     5
 74
     0
 42
0.000000001
 43
0.0000000000001
 40
0.0
 40
0.0
 40
0.0
 40
1.0
 40
2.0
 40
3.0
 40
3.0
 40
3.0
 10
-890.9178985520537
 20
917.1413318273337
 30
0.0
 10
-902.2543158373917
 20
916.510583968596
 30
0.0
 10
-921.4858269361872
 20
904.4359120587361
 30
0.0
 10
-932.4735316216091
 20
884.5633447408953
 30
0.0
 10
-932.4735588101887
 20
873.209396961405
 30
0.0
  0
ENDBLK
  5
5F
330
5D
100
AcDbEntity
  8
0
100
AcDbBlockEnd
  0
BLOCK
  5
61
330
60
100
AcDbEntity
  8
0
100
AcDbBlockBegin
  2
Group-10-1
 70
     0
 10
0.0
 20
0.0
 30
0.0
  3
Group-10-1
  1

  0
LINE
  5
2F8
330
60
100
AcDbEntity
  8
0
  6
Continuous
 62
    19
370
     9
100
AcDbLine
 10
-1026.126114365744
 20
873.7956926838162
 30
0.0
 11
-1026.126114365744
 21
917.7956926838165
 31
0.0
  0
LINE
  5
2F9
330
60
100
AcDbEntity
  8
0
  6
Continuous
 62
    19
370
     9
100
AcDbLine
 10
-1028.570558810188
 20
873.7956926838162
 30
0.0
 11
-1026.126114365744
 21
873.7956926838162
 31
0.0
  0
LINE
  5
2FA
330
60
100
AcDbEntity
  8
0
  6
Continuous
 62
    19
370
     9
100
AcDbLine
 10
-1028.570558810188
 20
917.7956926838165
 30
0.0
 11
-1028.570558810188
 21
873.7956926838162
 31
0.0
  0
LINE
  5
2FB
330
60
100
AcDbEntity
  8
0
  6
Continuous
 62
    19
370
     9
100
AcDbLine
 10
-1026.126114365744
 20
917.7956926838165
 30
0.0
 11
-1028.570558810188
 21
917.7956926838165
 31
0.0
  0
SPLINE
  5
2FC
330
60
100
AcDbEntity
  8
0
  6
Continuous
 62
    19
370
     9
100
AcDbSpline
210
0.0
220
0.0
230
1.0
 70
     8
 71
     2
 72
     8
 73
     5
 74
     0
 42
0.000000001
 43
0.0000000000001
 40
0.0
 40
0.0
 40
0.0
 40
1.0
 40
2.0
 40
3.0
 40
3.0
 40
3.0
 10
-984.5705588101882
 20
873.7957980478006
 30
0.0
 10
-984.5705859987678
 20
885.1497488995166
 30
0.0
 10
-995.5582906841897
 20
905.0223215946062
 30
0.0
 10
-1014.789801782985
 20
917.0969967717097
 30
0.0
 10
-1026.126219068323
 20
917.7277448011195
 30
0.0
  0
ENDBLK
  5
62
330
60
100
AcDbEntity
  8
0
100
AcDbBlockEnd
  0
BLOCK
  5
64
330
63
100
AcDbEntity
  8
0
100
AcDbBlockBegin
  2
Group-11-1
 70
     0
 10
0.0
 20
0.0
 30
0.0
  3
Group-11-1
  1

  0
LINE
  5
2FD
330
63
100
AcDbEntity
  8
0
  6
Continuous
 62
    19
370
     9
100
AcDbLine
 10
-1026.188814365744
 20
991.209291597449
 30
0.0
 11
-1026.188814365744
 21
1035.209291597449
 31
0.0
  0
LINE
  5
2FE
330
63
100
AcDbEntity
  8
0
  6
Continuous
 62
    19
370
     9
100
AcDbLine
 10
-1028.633258810188
 20
991.209291597449
 30
0.0
 11
-1026.188814365744
 21
991.209291597449
 31
0.0
  0
LINE
  5
2FF
330
63
100
AcDbEntity
  8
0
  6
Continuous
 62
    19
370
     9
100
AcDbLine
 10
-1028.633258810188
 20
1035.209291597449
 30
0.0
 11
-1028.633258810188
 21
991.209291597449
 31
0.0
  0
LINE
  5
300
330
63
100
AcDbEntity
  8
0
  6
Continuous
 62
    19
370
     9
100
AcDbLine
 10
-1026.188814365744
 20
1035.209291597449
 30
0.0
 11
-1028.633258810188
 21
1035.209291597449
 31
0.0
  0
SPLINE
  5
301
330
63
100
AcDbEntity
  8
0
  6
Continuous
 62
    19
370
     9
100
AcDbSpline
210
0.0
220
0.0
230
1.0
 70
     8
 71
     2
 72
     8
 73
     5
 74
     0
 42
0.000000001
 43
0.0000000000001
 40
0.0
 40
0.0
 40
0.0
 40
1.0
 40
2.0
 40
3.0
 40
3.0
 40
3.0
 10
-984.6332588101892
 20
991.2093969614334
 30
0.0
 10
-984.6332859987676
 20
1002.563347813149
 30
0.0
 10
-995.6209906841896
 20
1022.435920508238
 30
0.0
 10
-1014.852501782985
 20
1034.510595685342
 30
0.0
 10
-1026.188919068323
 20
1035.141343714752
 30
0.0
  0
ENDBLK
  5
65
330
63
100
AcDbEntity
  8
0
100
AcDbBlockEnd
  0
BLOCK
  5
67
330
66
100
AcDbEntity
  8
0
100
AcDbBlockBegin
  2
Group-12-1
 70
     0
 10
0.0
 20
0.0
 30
0.0
  3
Group-12-1
  1

  0
LINE
  5
302
330
66
100
AcDbEntity
  8
0
  6
Continuous
 62
    19
370
     9
100
AcDbLine
 10
-764.5177032546334
 20
-1079.132108402551
 30
0.0
 11
-764.5177032546334
 21
-1123.132108402551
 31
0.0
  0
LINE
  5
303
330
66
100
AcDbEntity
  8
0
  6
Continuous
 62
    19
370
     9
100
AcDbLine
 10
-762.073258810189
 20
-1079.132108402551
 30
0.0
 11
-764.5177032546334
 21
-1079.132108402551
 31
0.0
  0
LINE
  5
304
330
66
100
AcDbEntity
  8
0
  6
Continuous
 62
    19
370
     9
100
AcDbLine
 10
-762.073258810189
 20
-1123.132108402551
 30
0.0
 11
-762.073258810189
 21
-1079.132108402551
 31
0.0
  0
LINE
  5
305
330
66
100
AcDbEntity
  8
0
  6
Continuous
 62
    19
370
     9
100
AcDbLine
 10
-764.5177032546334
 20
-1123.132108402551
 30
0.0
 11
-762.073258810189
 21
-1123.132108402551
 31
0.0
  0
SPLINE
  5
306
330
66
100
AcDbEntity
  8
0
  6
Continuous
 62
    19
370
     9
100
AcDbSpline
210
0.0
220
0.0
230
1.0
 70
     8
 71
     2
 72
     8
 73
     5
 74
     0
 42
0.000000001
 43
0.0000000000001
 40
0.0
 40
0.0
 40
0.0
 40
1.0
 40
2.0
 40
3.0
 40
3.0
 40
3.0
 10
-806.0732588101893
 20
-1079.132213766536
 30
0.0
 10
-806.0732316216086
 20
-1090.486164618251
 30
0.0
 10
-795.0855269361878
 20
-1110.358737313341
 30
0.0
 10
-775.8540158373921
 20
-1122.433412490444
 30
0.0
 10
-764.5175985520542
 20
-1123.064160519854
 30
0.0
  0
ENDBLK
  5
68
330
66
100
AcDbEntity
  8
0
100
AcDbBlockEnd
  0
BLOCK
  5
6A
330
69
100
AcDbEntity
  8
0
100
AcDbBlockBegin
  2
Group-13-1
 70
     0
 10
0.0
 20
0.0
 30
0.0
  3
Group-13-1
  1

  0
LINE
  5
307
330
69
100
AcDbEntity
  8
0
  6
Continuous
 62
    19
370
     9
100
AcDbLine
 10
-764.5177032546334
 20
-960.85966878667
 30
0.0
 11
-764.5177032546334
 21
-1004.85966878667
 31
0.0
  0
LINE
  5
308
330
69
100
AcDbEntity
  8
0
  6
Continuous
 62
    19
370
     9
100
AcDbLine
 10
-762.073258810189
 20
-960.85966878667
 30
0.0
 11
-764.5177032546334
 21
-960.85966878667
 31
0.0
  0
LINE
  5
309
330
69
100
AcDbEntity
  8
0
  6
Continuous
 62
    19
370
     9
100
AcDbLine
 10
-762.073258810189
 20
-1004.85966878667
 30
0.0
 11
-762.073258810189
 21
-960.85966878667
 31
0.0
  0
LINE
  5
30A
330
69
100
AcDbEntity
  8
0
  6
Continuous
 62
    19
370
     9
100
AcDbLine
 10
-764.5177032546334
 20
-1004.85966878667
 30
0.0
 11
-762.073258810189
 21
-1004.85966878667
 31
0.0
  0
SPLINE
  5
30B
330
69
100
AcDbEntity
  8
0
  6
Continuous
 62
    19
370
     9
100
AcDbSpline
210
0.0
220
0.0
230
1.0
 70
     8
 71
     2
 72
     8
 73
     5
 74
     0
 42
0.000000001
 43
0.0000000000001
 40
0.0
 40
0.0
 40
0.0
 40
1.0
 40
2.0
 40
3.0
 40
3.0
 40
3.0
 10
-806.0732588101893
 20
-960.859774150655
 30
0.0
 10
-806.0732316216086
 20
-972.2137250023703
 30
0.0
 10
-795.0855269361878
 20
-992.08629769746
 30
0.0
 10
-775.8540158373921
 20
-1004.160972874563
 30
0.0
 10
-764.5175985520542
 20
-1004.791720903973
 30
0.0
  0
ENDBLK
  5
6B
330
69
100
AcDbEntity
  8
0
100
AcDbBlockEnd
  0
BLOCK
  5
6D
330
6C
100
AcDbEntity
  8
0
100
AcDbBlockBegin
  2
Group-14-1
 70
     0
 10
0.0
 20
0.0
 30
0.0
  3
Group-14-1
  1

  0
LINE
  5
30C
330
6C
100
AcDbEntity
  8
0
  6
Continuous
 62
    19
370
    15
100
AcDbLine
 10
-899.6309137043102
 20
-961.1321084025511
 30
0.0
 11
-899.6309137043102
 21
-1005.132108402551
 31
0.0
  0
LINE
  5
30D
330
6C
100
AcDbEntity
  8
0
  6
Continuous
 62
    19
370
    15
100
AcDbLine
 10
-902.0753588101884
 20
-961.1321084025511
 30
0.0
 11
-899.6309137043102
 21
-961.1321084025511
 31
0.0
  0
LINE
  5
30E
330
6C
100
AcDbEntity
  8
0
  6
Continuous
 62
    19
370
    15
100
AcDbLine
 10
-902.0753588101884
 20
-1005.132108402551
 30
0.0
 11
-902.0753588101884
 21
-961.1321084025511
 31
0.0
  0
LINE
  5
30F
330
6C
100
AcDbEntity
  8
0
  6
Continuous
 62
    19
370
    15
100
AcDbLine
 10
-899.6309137043102
 20
-1005.132108402551
 30
0.0
 11
-902.0753588101884
 21
-1005.132108402551
 31
0.0
  0
SPLINE
  5
310
330
6C
100
AcDbEntity
  8
0
  6
Continuous
 62
    19
370
    15
100
AcDbSpline
210
0.0
220
0.0
230
1.0
 70
     8
 71
     2
 72
     8
 73
     5
 74
     0
 42
0.000000001
 43
0.0000000000001
 40
0.0
 40
0.0
 40
0.0
 40
1.0
 40
2.0
 40
3.0
 40
3.0
 40
3.0
 10
-899.6310190683232
 20
-1005.064148632436
 30
0.0
 10
-888.2946017829853
 20
-1004.433400773698
 30
0.0
 10
-869.0630906841897
 20
-992.3587288638387
 30
0.0
 10
-858.0753859987689
 20
-972.4861615459979
 30
0.0
 10
-858.0753588101882
 20
-961.1322137665074
 30
0.0
  0
ENDBLK
  5
6E
330
6C
100
AcDbEntity
  8
0
100
AcDbBlockEnd
  0
BLOCK
  5
70
330
6F
100
AcDbEntity
  8
0
100
AcDbBlockBegin
  2
Group-15-1
 70
     0
 10
0.0
 20
0.0
 30
0.0
  3
Group-15-1
  1

  0
LINE
  5
311
330
6F
100
AcDbEntity
  8
0
  6
Continuous
 62
    19
370
    15
100
AcDbLine
 10
-899.6309137043102
 20
-1079.132108402551
 30
0.0
 11
-899.6309137043102
 21
-1123.132108402551
 31
0.0
  0
LINE
  5
312
330
6F
100
AcDbEntity
  8
0
  6
Continuous
 62
    19
370
    15
100
AcDbLine
 10
-902.0753588101884
 20
-1079.132108402551
 30
0.0
 11
-899.6309137043102
 21
-1079.132108402551
 31
0.0
  0
LINE
  5
313
330
6F
100
AcDbEntity
  8
0
  6
Continuous
 62
    19
370
    15
100
AcDbLine
 10
-902.0753588101884
 20
-1123.132108402551
 30
0.0
 11
-902.0753588101884
 21
-1079.132108402551
 31
0.0
  0
LINE
  5
314
330
6F
100
AcDbEntity
  8
0
  6
Continuous
 62
    19
370
    15
100
AcDbLine
 10
-899.6309137043102
 20
-1123.132108402551
 30
0.0
 11
-902.0753588101884
 21
-1123.132108402551
 31
0.0
  0
SPLINE
  5
315
330
6F
100
AcDbEntity
  8
0
  6
Continuous
 62
    19
370
    15
100
AcDbSpline
210
0.0
220
0.0
230
1.0
 70
     8
 71
     2
 72
     8
 73
     5
 74
     0
 42
0.000000001
 43
0.0000000000001
 40
0.0
 40
0.0
 40
0.0
 40
1.0
 40
2.0
 40
3.0
 40
3.0
 40
3.0
 10
-899.6310190683232
 20
-1123.064148632436
 30
0.0
 10
-888.2946017829853
 20
-1122.433400773698
 30
0.0
 10
-869.0630906841897
 20
-1110.358728863838
 30
0.0
 10
-858.0753859987689
 20
-1090.486161545998
 30
0.0
 10
-858.0753588101882
 20
-1079.132213766507
 30
0.0
  0
ENDBLK
  5
71
330
6F
100
AcDbEntity
  8
0
100
AcDbBlockEnd
  0
BLOCK
  5
73
330
72
100
AcDbEntity
  8
0
100
AcDbBlockBegin
  2
Group-16-1
 70
     0
 10
0.0
 20
0.0
 30
0.0
  3
Group-16-1
  1

  0
LINE
  5
316
330
72
100
AcDbEntity
  8
0
  6
Continuous
 62
    19
370
     9
100
AcDbLine
 10
-749.2793588101883
 20
-1032.551443488733
 30
0.0
 11
-705.2793588101881
 21
-1032.551443488733
 31
0.0
  0
LINE
  5
317
330
72
100
AcDbEntity
  8
0
  6
Continuous
 62
    19
370
     9
100
AcDbLine
 10
-749.2793588101883
 20
-1034.995888594611
 30
0.0
 11
-749.2793588101883
 21
-1032.551443488733
 31
0.0
  0
LINE
  5
318
330
72
100
AcDbEntity
  8
0
  6
Continuous
 62
    19
370
     9
100
AcDbLine
 10
-705.2793588101881
 20
-1034.995888594611
 30
0.0
 11
-749.2793588101883
 21
-1034.995888594611
 31
0.0
  0
LINE
  5
319
330
72
100
AcDbEntity
  8
0
  6
Continuous
 62
    19
370
     9
100
AcDbLine
 10
-705.2793588101881
 20
-1032.551443488733
 30
0.0
 11
-705.2793588101881
 21
-1034.995888594611
 31
0.0
  0
SPLINE
  5
31A
330
72
100
AcDbEntity
  8
0
  6
Continuous
 62
    19
370
     9
100
AcDbSpline
210
0.0
220
0.0
230
1.0
 70
     8
 71
     2
 72
     8
 73
     5
 74
     0
 42
0.000000001
 43
0.0000000000001
 40
0.0
 40
0.0
 40
0.0
 40
1.0
 40
2.0
 40
3.0
 40
3.0
 40
3.0
 10
-705.3473185803033
 20
-1032.551548852746
 30
0.0
 10
-705.978066439041
 20
-1021.215131567408
 30
0.0
 10
-718.0527383489015
 20
-1001.983620468612
 30
0.0
 10
-737.9253056667417
 20
-990.99591578319
 30
0.0
 10
-749.2792534462326
 20
-990.9958885946104
 30
0.0
  0
ENDBLK
  5
74
330
72
100
AcDbEntity
  8
0
100
AcDbBlockEnd
  0
BLOCK
  5
76
330
75
100
AcDbEntity
  8
0
100
AcDbBlockBegin
  2
Group-17-1
 70
     0
 10
0.0
 20
0.0
 30
0.0
  3
Group-17-1
  1

  0
LINE
  5
31B
330
75
100
AcDbEntity
  8
0
  6
Continuous
 62
    19
370
     9
100
AcDbLine
 10
-276.0337588101887
 20
-915.2598622103058
 30
0.0
 11
-232.0337588101884
 21
-915.2598622103058
 31
0.0
  0
LINE
  5
31C
330
75
100
AcDbEntity
  8
0
  6
Continuous
 62
    19
370
     9
100
AcDbLine
 10
-276.0337588101887
 20
-917.704307316184
 30
0.0
 11
-276.0337588101887
 21
-915.2598622103058
 31
0.0
  0
LINE
  5
31D
330
75
100
AcDbEntity
  8
0
  6
Continuous
 62
    19
370
     9
100
AcDbLine
 10
-232.0337588101884
 20
-917.704307316184
 30
0.0
 11
-276.0337588101887
 21
-917.704307316184
 31
0.0
  0
LINE
  5
31E
330
75
100
AcDbEntity
  8
0
  6
Continuous
 62
    19
370
     9
100
AcDbLine
 10
-232.0337588101884
 20
-915.2598622103058
 30
0.0
 11
-232.0337588101884
 21
-917.704307316184
 31
0.0
  0
SPLINE
  5
31F
330
75
100
AcDbEntity
  8
0
  6
Continuous
 62
    19
370
     9
100
AcDbSpline
210
0.0
220
0.0
230
1.0
 70
     8
 71
     2
 72
     8
 73
     5
 74
     0
 42
0.000000001
 43
0.0000000000001
 40
0.0
 40
0.0
 40
0.0
 40
1.0
 40
2.0
 40
3.0
 40
3.0
 40
3.0
 10
-232.1017185803036
 20
-915.2599675743188
 30
0.0
 10
-232.7324664390413
 20
-903.9235502889809
 30
0.0
 10
-244.8071383489017
 20
-884.6920391901853
 30
0.0
 10
-264.6797056667419
 20
-873.7043345047639
 30
0.0
 10
-276.0336534462329
 20
-873.7043073161843
 30
0.0
  0
ENDBLK
  5
77
330
75
100
AcDbEntity
  8
0
100
AcDbBlockEnd
  0
BLOCK
  5
79
330
78
100
AcDbEntity
  8
0
100
AcDbBlockBegin
  2
Group-18-1
 70
     0
 10
0.0
 20
0.0
 30
0.0
  3
Group-18-1
  1

  0
LINE
  5
320
330
78
100
AcDbEntity
  8
0
  6
Continuous
 62
    19
370
     9
100
AcDbLine
 10
-198.5705588101887
 20
-811.7557528469961
 30
0.0
 11
-154.5705588101885
 21
-811.7557528469961
 31
0.0
  0
LINE
  5
321
330
78
100
AcDbEntity
  8
0
  6
Continuous
 62
    19
370
     9
100
AcDbLine
 10
-198.5705588101887
 20
-809.3113084025516
 30
0.0
 11
-198.5705588101887
 21
-811.7557528469961
 31
0.0
  0
LINE
  5
322
330
78
100
AcDbEntity
  8
0
  6
Continuous
 62
    19
370
     9
100
AcDbLine
 10
-154.5705588101885
 20
-809.3113084025516
 30
0.0
 11
-198.5705588101887
 21
-809.3113084025516
 31
0.0
  0
LINE
  5
323
330
78
100
AcDbEntity
  8
0
  6
Continuous
 62
    19
370
     9
100
AcDbLine
 10
-154.5705588101885
 20
-811.7557528469961
 30
0.0
 11
-154.5705588101885
 21
-809.3113084025516
 31
0.0
  0
SPLINE
  5
324
330
78
100
AcDbEntity
  8
0
  6
Continuous
 62
    19
370
     9
100
AcDbSpline
210
0.0
220
0.0
230
1.0
 70
     8
 71
     2
 72
     8
 73
     5
 74
     0
 42
0.000000001
 43
0.0000000000001
 40
0.0
 40
0.0
 40
0.0
 40
1.0
 40
2.0
 40
3.0
 40
3.0
 40
3.0
 10
-198.5704534462043
 20
-853.3113084025513
 30
0.0
 10
-187.216502594489
 20
-853.3112812139717
 30
0.0
 10
-167.3439298993987
 20
-842.3235765285498
 30
0.0
 10
-155.2692547222964
 20
-823.0920654297543
 30
0.0
 10
-154.6385066928866
 20
-811.7556481444162
 30
0.0
  0
ENDBLK
  5
7A
330
78
100
AcDbEntity
  8
0
100
AcDbBlockEnd
  0
BLOCK
  5
7C
330
7B
100
AcDbEntity
  8
0
100
AcDbBlockBegin
  2
Group-19-1
 70
     0
 10
0.0
 20
0.0
 30
0.0
  3
Group-19-1
  1

  0
POLYLINE
  5
325
330
7B
100
AcDbEntity
  8
WINDOW
  6
Continuous
 62
     7
370
    15
100
AcDb2dPolyline
 66
     1
 10
0.0
 20
0.0
 30
0.0
 70
     1
  0
VERTEX
  5
326
330
325
100
AcDbEntity
  8
WINDOW
  6
Continuous
 62
     7
370
    15
100
AcDbVertex
100
AcDb2dVertex
 10
-222.5705588101885
 20
192.2092915974493
 30
0.0
  0
VERTEX
  5
327
330
325
100
AcDbEntity
  8
WINDOW
  6
Continuous
 62
     7
370
    15
100
AcDbVertex
100
AcDb2dVertex
 10
-215.5705588101889
 20
192.2092915974493
 30
0.0
  0
VERTEX
  5
328
330
325
100
AcDbEntity
  8
WINDOW
  6
Continuous
 62
     7
370
    15
100
AcDbVertex
100
AcDb2dVertex
 10
-215.5705588101889
 20
146.209291597449
 30
0.0
  0
VERTEX
  5
329
330
325
100
AcDbEntity
  8
WINDOW
  6
Continuous
 62
     7
370
    15
100
AcDbVertex
100
AcDb2dVertex
 10
-222.5705588101885
 20
146.209291597449
 30
0.0
  0
SEQEND
  5
32A
330
325
100
AcDbEntity
  8
WINDOW
  6
Continuous
 62
     7
370
    15
  0
POLYLINE
  5
32B
330
7B
100
AcDbEntity
  8
WINDOW
  6
Continuous
 62
     7
370
    15
100
AcDb2dPolyline
 66
     1
 10
0.0
 20
0.0
 30
0.0
 70
     1
  0
VERTEX
  5
32C
330
32B
100
AcDbEntity
  8
WINDOW
  6
Continuous
 62
     7
370
    15
100
AcDbVertex
100
AcDb2dVertex
 10
-224.0705588101887
 20
238.2092915974491
 30
0.0
  0
VERTEX
  5
32D
330
32B
100
AcDbEntity
  8
WINDOW
  6
Continuous
 62
     7
370
    15
100
AcDbVertex
100
AcDb2dVertex
 10
-222.5705588101885
 20
238.2092915974491
 30
0.0
  0
VERTEX
  5
32E
330
32B
100
AcDbEntity
  8
WINDOW
  6
Continuous
 62
     7
370
    15
100
AcDbVertex
100
AcDb2dVertex
 10
-222.5705588101885
 20
192.2092915974493
 30
0.0
  0
VERTEX
  5
32F
330
32B
100
AcDbEntity
  8
WINDOW
  6
Continuous
 62
     7
370
    15
100
AcDbVertex
100
AcDb2dVertex
 10
-224.0705588101887
 20
192.2092915974493
 30
0.0
  0
SEQEND
  5
330
330
32B
100
AcDbEntity
  8
WINDOW
  6
Continuous
 62
     7
370
    15
  0
ARC
  5
331
330
7B
100
AcDbEntity
  8
WINDOW
  6
Continuous
 62
     7
370
    15
100
AcDbCircle
 10
-222.5675985297152
 20
192.2215681237607
 30
0.0
 40
46.01227662153997
100
AcDbArc
 50
91.87186133235232
 51
269.9963137755863
  0
POLYLINE
  5
332
330
7B
100
AcDbEntity
  8
WINDOW
  6
Continuous
 62
     7
370
    15
100
AcDb2dPolyline
 66
     1
 10
0.0
 20
0.0
 30
0.0
 70
     1
  0
VERTEX
  5
333
330
332
100
AcDbEntity
  8
WINDOW
  6
Continuous
 62
     7
370
    15
100
AcDbVertex
100
AcDb2dVertex
 10
-225.5705588101889
 20
146.209291597449
 30
0.0
  0
VERTEX
  5
334
330
332
100
AcDbEntity
  8
WINDOW
  6
Continuous
 62
     7
370
    15
100
AcDbVertex
100
AcDb2dVertex
 10
-215.5705588101889
 20
146.209291597449
 30
0.0
  0
VERTEX
  5
335
330
332
100
AcDbEntity
  8
WINDOW
  6
Continuous
 62
     7
370
    15
100
AcDbVertex
100
AcDb2dVertex
 10
-215.5705588101889
 20
139.2092915974489
 30
0.0
  0
VERTEX
  5
336
330
332
100
AcDbEntity
  8
WINDOW
  6
Continuous
 62
     7
370
    15
100
AcDbVertex
100
AcDb2dVertex
 10
-225.5705588101889
 20
139.2092915974489
 30
0.0
  0
SEQEND
  5
337
330
332
100
AcDbEntity
  8
WINDOW
  6
Continuous
 62
     7
370
    15
  0
ENDBLK
  5
7D
330
7B
100
AcDbEntity
  8
0
100
AcDbBlockEnd
  0
BLOCK
  5
7F
330
7E
100
AcDbEntity
  8
0
100
AcDbBlockBegin
  2
Group-20-1
 70
     0
 10
0.0
 20
0.0
 30
0.0
  3
Group-20-1
  1

  0
POLYLINE
  5
338
330
7E
100
AcDbEntity
  8
WINDOW
  6
Continuous
 62
     7
370
    15
100
AcDb2dPolyline
 66
     1
 10
0.0
 20
0.0
 30
0.0
 70
     1
  0
VERTEX
  5
339
330
338
100
AcDbEntity
  8
WINDOW
  6
Continuous
 62
     7
370
    15
100
AcDbVertex
100
AcDb2dVertex
 10
-1415.570458810188
 20
-295.1321084025503
 30
0.0
  0
VERTEX
  5
33A
330
338
100
AcDbEntity
  8
WINDOW
  6
Continuous
 62
     7
370
    15
100
AcDbVertex
100
AcDb2dVertex
 10
-1408.570458810188
 20
-295.1321084025503
 30
0.0
  0
VERTEX
  5
33B
330
338
100
AcDbEntity
  8
WINDOW
  6
Continuous
 62
     7
370
    15
100
AcDbVertex
100
AcDb2dVertex
 10
-1408.570458810188
 20
-341.1321084025506
 30
0.0
  0
VERTEX
  5
33C
330
338
100
AcDbEntity
  8
WINDOW
  6
Continuous
 62
     7
370
    15
100
AcDbVertex
100
AcDb2dVertex
 10
-1415.570458810188
 20
-341.1321084025506
 30
0.0
  0
SEQEND
  5
33D
330
338
100
AcDbEntity
  8
WINDOW
  6
Continuous
 62
     7
370
    15
  0
POLYLINE
  5
33E
330
7E
100
AcDbEntity
  8
WINDOW
  6
Continuous
 62
     7
370
    15
100
AcDb2dPolyline
 66
     1
 10
0.0
 20
0.0
 30
0.0
 70
     1
  0
VERTEX
  5
33F
330
33E
100
AcDbEntity
  8
WINDOW
  6
Continuous
 62
     7
370
    15
100
AcDbVertex
100
AcDb2dVertex
 10
-1408.570458810188
 20
-341.1321084025506
 30
0.0
  0
VERTEX
  5
340
330
33E
100
AcDbEntity
  8
WINDOW
  6
Continuous
 62
     7
370
    15
100
AcDbVertex
100
AcDb2dVertex
 10
-1407.070458810188
 20
-341.1321084025506
 30
0.0
  0
VERTEX
  5
341
330
33E
100
AcDbEntity
  8
WINDOW
  6
Continuous
 62
     7
370
    15
100
AcDbVertex
100
AcDb2dVertex
 10
-1407.070458810188
 20
-387.1321084025503
 30
0.0
  0
VERTEX
  5
342
330
33E
100
AcDbEntity
  8
WINDOW
  6
Continuous
 62
     7
370
    15
100
AcDbVertex
100
AcDb2dVertex
 10
-1408.570458810188
 20
-387.1321084025503
 30
0.0
  0
SEQEND
  5
343
330
33E
100
AcDbEntity
  8
WINDOW
  6
Continuous
 62
     7
370
    15
  0
ARC
  5
344
330
7E
100
AcDbEntity
  8
WINDOW
  6
Continuous
 62
     7
370
    15
100
AcDbCircle
 10
-1408.573419090661
 20
-341.1443849288625
 30
0.0
 40
46.01227662153936
100
AcDbArc
 50
271.8718613323509
 51
89.99631377558777
  0
POLYLINE
  5
345
330
7E
100
AcDbEntity
  8
WINDOW
  6
Continuous
 62
     7
370
    15
100
AcDb2dPolyline
 66
     1
 10
0.0
 20
0.0
 30
0.0
 70
     1
  0
VERTEX
  5
346
330
345
100
AcDbEntity
  8
WINDOW
  6
Continuous
 62
     7
370
    15
100
AcDbVertex
100
AcDb2dVertex
 10
-1415.570458810188
 20
-288.1321084025502
 30
0.0
  0
VERTEX
  5
347
330
345
100
AcDbEntity
  8
WINDOW
  6
Continuous
 62
     7
370
    15
100
AcDbVertex
100
AcDb2dVertex
 10
-1405.570458810188
 20
-288.1321084025502
 30
0.0
  0
VERTEX
  5
348
330
345
100
AcDbEntity
  8
WINDOW
  6
Continuous
 62
     7
370
    15
100
AcDbVertex
100
AcDb2dVertex
 10
-1405.570458810188
 20
-295.1321084025503
 30
0.0
  0
VERTEX
  5
349
330
345
100
AcDbEntity
  8
WINDOW
  6
Continuous
 62
     7
370
    15
100
AcDbVertex
100
AcDb2dVertex
 10
-1415.570458810188
 20
-295.1321084025503
 30
0.0
  0
SEQEND
  5
34A
330
345
100
AcDbEntity
  8
WINDOW
  6
Continuous
 62
     7
370
    15
  0
ENDBLK
  5
80
330
7E
100
AcDbEntity
  8
0
100
AcDbBlockEnd
  0
BLOCK
  5
82
330
81
100
AcDbEntity
  8
0
100
AcDbBlockBegin
  2
Group-21-1
 70
     0
 10
0.0
 20
0.0
 30
0.0
  3
Group-21-1
  1

  0
LINE
  5
34B
330
81
100
AcDbEntity
  8
WINDOW
  6
Dash Style-6
 62
     7
370
     9
100
AcDbLine
 10
-215.5705588101889
 20
824.2092915974489
 30
0.0
 11
-395.5705588101891
 21
824.2092915974489
 31
0.0
  0
LINE
  5
34C
330
81
100
AcDbEntity
  8
WINDOW
  6
Dash Style-6
 62
     7
370
     9
100
AcDbLine
 10
-215.5705588101889
 20
762.2092915974494
 30
0.0
 11
-395.5705588101891
 21
762.2092915974494
 31
0.0
  0
LINE
  5
34D
330
81
100
AcDbEntity
  8
WINDOW
  6
Dash Style-6
 62
     7
370
     9
100
AcDbLine
 10
-215.5705588101889
 20
700.2092915974487
 30
0.0
 11
-395.5705588101891
 21
700.2092915974487
 31
0.0
  0
LINE
  5
34E
330
81
100
AcDbEntity
  8
WINDOW
  6
Dash Style-6
 62
     7
370
     9
100
AcDbLine
 10
-215.5705588101889
 20
638.2092915974494
 30
0.0
 11
-395.5705588101891
 21
638.2092915974494
 31
0.0
  0
LINE
  5
34F
330
81
100
AcDbEntity
  8
WINDOW
  6
Dash Style-6
 62
     7
370
     9
100
AcDbLine
 10
-215.5705588101889
 20
576.2092915974491
 30
0.0
 11
-395.5705588101891
 21
576.2092915974491
 31
0.0
  0
LINE
  5
350
330
81
100
AcDbEntity
  8
WINDOW
  6
Dash Style-6
 62
     7
370
     9
100
AcDbLine
 10
-215.5705588101889
 20
514.209291597449
 30
0.0
 11
-395.5705588101891
 21
514.209291597449
 31
0.0
  0
LINE
  5
351
330
81
100
AcDbEntity
  8
WINDOW
  6
Dash Style-6
 62
     7
370
     9
100
AcDbLine
 10
-215.5705588101889
 20
452.2092915974495
 30
0.0
 11
-395.5705588101891
 21
452.2092915974495
 31
0.0
  0
LINE
  5
352
330
81
100
AcDbEntity
  8
WINDOW
  6
Dash Style-6
 62
     7
370
     9
100
AcDbLine
 10
-215.5705588101889
 20
390.2092915974494
 30
0.0
 11
-395.5705588101891
 21
390.2092915974494
 31
0.0
  0
LINE
  5
353
330
81
100
AcDbEntity
  8
WINDOW
  6
Dash Style-6
 62
     7
370
     9
100
AcDbLine
 10
-215.5705588101889
 20
328.2092915974491
 30
0.0
 11
-395.5705588101891
 21
328.2092915974491
 31
0.0
  0
LINE
  5
354
330
81
100
AcDbEntity
  8
WINDOW
  6
Dash Style-6
 62
     7
370
     9
100
AcDbLine
 10
-215.5705588101889
 20
266.209291597449
 30
0.0
 11
-395.5705588101891
 21
266.209291597449
 31
0.0
  0
LINE
  5
355
330
81
100
AcDbEntity
  8
WINDOW
  6
Dash Style-6
 62
     7
370
     9
100
AcDbLine
 10
-215.5705588101889
 20
204.2092915974489
 30
0.0
 11
-395.5705588101891
 21
204.2092915974489
 31
0.0
  0
LINE
  5
356
330
81
100
AcDbEntity
  8
WINDOW
  6
Dash Style-6
 62
     7
370
     9
100
AcDbLine
 10
-215.5705588101889
 20
142.2092915974493
 30
0.0
 11
-395.5705588101891
 21
142.2092915974493
 31
0.0
  0
LINE
  5
357
330
81
100
AcDbEntity
  8
WINDOW
  6
Dash Style-6
 62
     7
370
     9
100
AcDbLine
 10
-215.5705588101889
 20
80.20929159744924
 30
0.0
 11
-395.5705588101891
 21
80.20929159744924
 31
0.0
  0
LINE
  5
358
330
81
100
AcDbEntity
  8
WINDOW
  6
Dash Style-6
 62
     7
370
     9
100
AcDbLine
 10
-215.5705588101889
 20
18.20929159744911
 30
0.0
 11
-395.5705588101891
 21
18.20929159744911
 31
0.0
  0
LINE
  5
359
330
81
100
AcDbEntity
  8
WINDOW
  6
Dash Style-6
 62
     7
370
     9
100
AcDbLine
 10
-215.5705588101889
 20
-43.79070840255042
 30
0.0
 11
-395.5705588101891
 21
-43.79070840255042
 31
0.0
  0
LINE
  5
35A
330
81
100
AcDbEntity
  8
WINDOW
  6
Dash Style-6
 62
     7
370
     9
100
AcDbLine
 10
-215.5705588101889
 20
-105.7907084025506
 30
0.0
 11
-395.5705588101891
 21
-105.7907084025506
 31
0.0
  0
LINE
  5
35B
330
81
100
AcDbEntity
  8
WINDOW
  6
Dash Style-6
 62
     7
370
     9
100
AcDbLine
 10
-215.5705588101889
 20
-167.7907084025507
 30
0.0
 11
-395.5705588101891
 21
-167.7907084025507
 31
0.0
  0
LINE
  5
35C
330
81
100
AcDbEntity
  8
WINDOW
  6
Dash Style-6
 62
     7
370
     9
100
AcDbLine
 10
-215.5705588101889
 20
-229.7907084025508
 30
0.0
 11
-395.5705588101891
 21
-229.7907084025508
 31
0.0
  0
LINE
  5
35D
330
81
100
AcDbEntity
  8
WINDOW
  6
Dash Style-6
 62
     7
370
     9
100
AcDbLine
 10
-215.5705588101889
 20
-291.7907084025509
 30
0.0
 11
-395.5705588101891
 21
-291.7907084025509
 31
0.0
  0
LINE
  5
35E
330
81
100
AcDbEntity
  8
WINDOW
  6
Dash Style-6
 62
     7
370
     9
100
AcDbLine
 10
-215.5705588101889
 20
-353.7907084025504
 30
0.0
 11
-395.5705588101891
 21
-353.7907084025504
 31
0.0
  0
LINE
  5
35F
330
81
100
AcDbEntity
  8
WINDOW
  6
Dash Style-6
 62
     7
370
     9
100
AcDbLine
 10
-215.5705588101889
 20
-415.7907084025505
 30
0.0
 11
-395.5705588101891
 21
-415.7907084025505
 31
0.0
  0
LINE
  5
360
330
81
100
AcDbEntity
  8
WINDOW
  6
Dash Style-6
 62
     7
370
     9
100
AcDbLine
 10
-215.5705588101889
 20
-477.7907084025506
 30
0.0
 11
-395.5705588101891
 21
-477.7907084025506
 31
0.0
  0
LINE
  5
361
330
81
100
AcDbEntity
  8
WINDOW
  6
Dash Style-6
 62
     7
370
     9
100
AcDbLine
 10
-215.5705588101889
 20
-539.7907084025502
 30
0.0
 11
-395.5705588101891
 21
-539.7907084025502
 31
0.0
  0
LINE
  5
362
330
81
100
AcDbEntity
  8
WINDOW
  6
Dash Style-6
 62
     7
370
     9
100
AcDbLine
 10
-215.5705588101889
 20
-601.790708402551
 30
0.0
 11
-395.5705588101891
 21
-601.790708402551
 31
0.0
  0
LINE
  5
363
330
81
100
AcDbEntity
  8
WINDOW
  6
Dash Style-6
 62
     7
370
     9
100
AcDbLine
 10
-215.5705588101889
 20
-663.7907084025508
 30
0.0
 11
-395.5705588101891
 21
-663.7907084025508
 31
0.0
  0
LINE
  5
364
330
81
100
AcDbEntity
  8
WINDOW
  6
Dash Style-6
 62
     7
370
     9
100
AcDbLine
 10
-215.5705588101889
 20
-725.7907084025514
 30
0.0
 11
-395.5705588101891
 21
-725.7907084025514
 31
0.0
  0
ENDBLK
  5
83
330
81
100
AcDbEntity
  8
0
100
AcDbBlockEnd
  0
BLOCK
  5
85
330
84
100
AcDbEntity
  8
0
100
AcDbBlockBegin
  2
Group-22-1
 70
     0
 10
0.0
 20
0.0
 30
0.0
  3
Group-22-1
  1

  0
LINE
  5
365
330
84
100
AcDbEntity
  8
WINDOW
  6
Dash Style-6
 62
     7
370
     9
100
AcDbLine
 10
-1415.570458810188
 20
824.2092915974489
 30
0.0
 11
-1208.570558810189
 21
824.2092915974489
 31
0.0
  0
LINE
  5
366
330
84
100
AcDbEntity
  8
WINDOW
  6
Dash Style-6
 62
     7
370
     9
100
AcDbLine
 10
-1415.570458810188
 20
762.2092915974494
 30
0.0
 11
-1208.570558810189
 21
762.2092915974494
 31
0.0
  0
LINE
  5
367
330
84
100
AcDbEntity
  8
WINDOW
  6
Dash Style-6
 62
     7
370
     9
100
AcDbLine
 10
-1415.570458810188
 20
700.2092915974487
 30
0.0
 11
-1208.570558810189
 21
700.2092915974487
 31
0.0
  0
LINE
  5
368
330
84
100
AcDbEntity
  8
WINDOW
  6
Dash Style-6
 62
     7
370
     9
100
AcDbLine
 10
-1415.570458810188
 20
638.2092915974494
 30
0.0
 11
-1208.570558810189
 21
638.2092915974494
 31
0.0
  0
LINE
  5
369
330
84
100
AcDbEntity
  8
WINDOW
  6
Dash Style-6
 62
     7
370
     9
100
AcDbLine
 10
-1415.570458810188
 20
576.2092915974491
 30
0.0
 11
-1208.570558810189
 21
576.2092915974491
 31
0.0
  0
LINE
  5
36A
330
84
100
AcDbEntity
  8
WINDOW
  6
Dash Style-6
 62
     7
370
     9
100
AcDbLine
 10
-1415.570458810188
 20
514.209291597449
 30
0.0
 11
-1208.570558810189
 21
514.209291597449
 31
0.0
  0
LINE
  5
36B
330
84
100
AcDbEntity
  8
WINDOW
  6
Dash Style-6
 62
     7
370
     9
100
AcDbLine
 10
-1415.570458810188
 20
452.2092915974495
 30
0.0
 11
-1208.570558810189
 21
452.2092915974495
 31
0.0
  0
LINE
  5
36C
330
84
100
AcDbEntity
  8
WINDOW
  6
Dash Style-6
 62
     7
370
     9
100
AcDbLine
 10
-1415.570458810188
 20
390.2092915974494
 30
0.0
 11
-1208.570558810189
 21
390.2092915974494
 31
0.0
  0
LINE
  5
36D
330
84
100
AcDbEntity
  8
WINDOW
  6
Dash Style-6
 62
     7
370
     9
100
AcDbLine
 10
-1415.570458810188
 20
328.2092915974491
 30
0.0
 11
-1208.570558810189
 21
328.2092915974491
 31
0.0
  0
LINE
  5
36E
330
84
100
AcDbEntity
  8
WINDOW
  6
Dash Style-6
 62
     7
370
     9
100
AcDbLine
 10
-1415.570458810188
 20
266.209291597449
 30
0.0
 11
-1208.570558810189
 21
266.209291597449
 31
0.0
  0
LINE
  5
36F
330
84
100
AcDbEntity
  8
WINDOW
  6
Dash Style-6
 62
     7
370
     9
100
AcDbLine
 10
-1415.570458810188
 20
204.2092915974489
 30
0.0
 11
-1208.570558810189
 21
204.2092915974489
 31
0.0
  0
LINE
  5
370
330
84
100
AcDbEntity
  8
WINDOW
  6
Dash Style-6
 62
     7
370
     9
100
AcDbLine
 10
-1415.570458810188
 20
142.2092915974493
 30
0.0
 11
-1208.570558810189
 21
142.2092915974493
 31
0.0
  0
LINE
  5
371
330
84
100
AcDbEntity
  8
WINDOW
  6
Dash Style-6
 62
     7
370
     9
100
AcDbLine
 10
-1415.570458810188
 20
80.20929159744924
 30
0.0
 11
-1208.570558810189
 21
80.20929159744924
 31
0.0
  0
LINE
  5
372
330
84
100
AcDbEntity
  8
WINDOW
  6
Dash Style-6
 62
     7
370
     9
100
AcDbLine
 10
-1415.570458810188
 20
18.20929159744911
 30
0.0
 11
-1208.570558810189
 21
18.20929159744911
 31
0.0
  0
LINE
  5
373
330
84
100
AcDbEntity
  8
WINDOW
  6
Dash Style-6
 62
     7
370
     9
100
AcDbLine
 10
-1415.570458810188
 20
-43.79070840255042
 30
0.0
 11
-1208.570558810189
 21
-43.79070840255042
 31
0.0
  0
LINE
  5
374
330
84
100
AcDbEntity
  8
WINDOW
  6
Dash Style-6
 62
     7
370
     9
100
AcDbLine
 10
-1415.570458810188
 20
-105.7907084025506
 30
0.0
 11
-1208.570558810189
 21
-105.7907084025506
 31
0.0
  0
LINE
  5
375
330
84
100
AcDbEntity
  8
WINDOW
  6
Dash Style-6
 62
     7
370
     9
100
AcDbLine
 10
-1415.570458810188
 20
-167.7907084025507
 30
0.0
 11
-1208.570558810189
 21
-167.7907084025507
 31
0.0
  0
LINE
  5
376
330
84
100
AcDbEntity
  8
WINDOW
  6
Dash Style-6
 62
     7
370
     9
100
AcDbLine
 10
-1415.570458810188
 20
-229.7907084025508
 30
0.0
 11
-1208.570558810189
 21
-229.7907084025508
 31
0.0
  0
LINE
  5
377
330
84
100
AcDbEntity
  8
WINDOW
  6
Dash Style-6
 62
     7
370
     9
100
AcDbLine
 10
-1415.570458810188
 20
-291.7907084025509
 30
0.0
 11
-1208.570558810189
 21
-291.7907084025509
 31
0.0
  0
LINE
  5
378
330
84
100
AcDbEntity
  8
WINDOW
  6
Dash Style-6
 62
     7
370
     9
100
AcDbLine
 10
-1415.570458810188
 20
-353.7907084025504
 30
0.0
 11
-1208.570558810189
 21
-353.7907084025504
 31
0.0
  0
LINE
  5
379
330
84
100
AcDbEntity
  8
WINDOW
  6
Dash Style-6
 62
     7
370
     9
100
AcDbLine
 10
-1415.570458810188
 20
-415.7907084025505
 30
0.0
 11
-1208.570558810189
 21
-415.7907084025505
 31
0.0
  0
LINE
  5
37A
330
84
100
AcDbEntity
  8
WINDOW
  6
Dash Style-6
 62
     7
370
     9
100
AcDbLine
 10
-1415.570458810188
 20
-477.7907084025506
 30
0.0
 11
-1208.570558810189
 21
-477.7907084025506
 31
0.0
  0
LINE
  5
37B
330
84
100
AcDbEntity
  8
WINDOW
  6
Dash Style-6
 62
     7
370
     9
100
AcDbLine
 10
-1415.570458810188
 20
-539.7907084025502
 30
0.0
 11
-1208.570558810189
 21
-539.7907084025502
 31
0.0
  0
LINE
  5
37C
330
84
100
AcDbEntity
  8
WINDOW
  6
Dash Style-6
 62
     7
370
     9
100
AcDbLine
 10
-1415.570458810188
 20
-601.790708402551
 30
0.0
 11
-1208.570558810189
 21
-601.790708402551
 31
0.0
  0
LINE
  5
37D
330
84
100
AcDbEntity
  8
WINDOW
  6
Dash Style-6
 62
     7
370
     9
100
AcDbLine
 10
-1415.570458810188
 20
-663.7907084025508
 30
0.0
 11
-1208.570558810189
 21
-663.7907084025508
 31
0.0
  0
LINE
  5
37E
330
84
100
AcDbEntity
  8
WINDOW
  6
Dash Style-6
 62
     7
370
     9
100
AcDbLine
 10
-1415.570458810188
 20
-725.7907084025514
 30
0.0
 11
-1208.570558810189
 21
-725.7907084025514
 31
0.0
  0
ENDBLK
  5
86
330
84
100
AcDbEntity
  8
0
100
AcDbBlockEnd
  0
BLOCK
  5
88
330
87
100
AcDbEntity
  8
0
100
AcDbBlockBegin
  2
Group-23-1
 70
     0
 10
0.0
 20
0.0
 30
0.0
  3
Group-23-1
  1

  0
POLYLINE
  5
37F
102
{ACAD_REACTORS
330
394
102
}
330
87
100
AcDbEntity
  8
0
  6
Continuous
 62
    19
370
    15
100
AcDb2dPolyline
 66
     1
 10
0.0
 20
0.0
 30
0.0
 70
     1
  0
VERTEX
  5
380
330
37F
100
AcDbEntity
  8
0
  6
Continuous
 62
    19
370
    15
100
AcDbVertex
100
AcDb2dVertex
 10
-215.5705588101889
 20
-809.3113084025516
 30
0.0
  0
VERTEX
  5
381
330
37F
100
AcDbEntity
  8
0
  6
Continuous
 62
    19
370
    15
100
AcDbVertex
100
AcDb2dVertex
 10
-215.5705588101889
 20
-795.2343084025516
 30
0.0
  0
VERTEX
  5
382
330
37F
100
AcDbEntity
  8
0
  6
Continuous
 62
    19
370
    15
100
AcDbVertex
100
AcDb2dVertex
 10
-276.0337588101887
 20
-795.2343084025516
 30
0.0
  0
VERTEX
  5
383
330
37F
100
AcDbEntity
  8
0
  6
Continuous
 62
    19
370
    15
100
AcDbVertex
100
AcDb2dVertex
 10
-276.0337588101887
 20
-873.7907084025514
 30
0.0
  0
VERTEX
  5
384
330
37F
100
AcDbEntity
  8
0
  6
Continuous
 62
    19
370
    15
100
AcDbVertex
100
AcDb2dVertex
 10
-282.0337588101884
 20
-873.7907084025514
 30
0.0
  0
VERTEX
  5
385
330
37F
100
AcDbEntity
  8
0
  6
Continuous
 62
    19
370
    15
100
AcDbVertex
100
AcDb2dVertex
 10
-282.0337588101884
 20
-789.2343084025507
 30
0.0
  0
VERTEX
  5
386
330
37F
100
AcDbEntity
  8
0
  6
Continuous
 62
    19
370
    15
100
AcDbVertex
100
AcDb2dVertex
 10
-215.5705588101889
 20
-789.2343084025507
 30
0.0
  0
VERTEX
  5
387
330
37F
100
AcDbEntity
  8
0
  6
Continuous
 62
    19
370
    15
100
AcDbVertex
100
AcDb2dVertex
 10
-215.5705588101889
 20
856.209291597449
 30
0.0
  0
VERTEX
  5
388
330
37F
100
AcDbEntity
  8
0
  6
Continuous
 62
    19
370
    15
100
AcDbVertex
100
AcDb2dVertex
 10
-880.1955377575589
 20
856.209291597449
 30
0.0
  0
VERTEX
  5
389
330
37F
100
AcDbEntity
  8
0
  6
Continuous
 62
    19
370
    15
100
AcDbVertex
100
AcDb2dVertex
 10
-888.4735588101885
 20
856.209291597449
 30
0.0
  0
VERTEX
  5
38A
330
37F
100
AcDbEntity
  8
0
  6
Continuous
 62
    19
370
    15
100
AcDbVertex
100
AcDb2dVertex
 10
-888.4735588101885
 20
873.2092915974487
 30
0.0
  0
VERTEX
  5
38B
330
37F
100
AcDbEntity
  8
0
  6
Continuous
 62
    19
370
    15
100
AcDbVertex
100
AcDb2dVertex
 10
-881.4455588101882
 20
873.2092915974487
 30
0.0
  0
VERTEX
  5
38C
330
37F
100
AcDbEntity
  8
0
  6
Continuous
 62
    19
370
    15
100
AcDbVertex
100
AcDb2dVertex
 10
-881.4455588101882
 20
985.2092915974492
 30
0.0
  0
VERTEX
  5
38D
330
37F
100
AcDbEntity
  8
0
  6
Continuous
 62
    19
370
    15
100
AcDbVertex
100
AcDb2dVertex
 10
-888.4735588101885
 20
985.2092915974492
 30
0.0
  0
VERTEX
  5
38E
330
37F
100
AcDbEntity
  8
0
  6
Continuous
 62
    19
370
    15
100
AcDbVertex
100
AcDb2dVertex
 10
-888.4735588101885
 20
991.209291597449
 30
0.0
  0
VERTEX
  5
38F
330
37F
100
AcDbEntity
  8
0
  6
Continuous
 62
    19
370
    15
100
AcDbVertex
100
AcDb2dVertex
 10
-875.4455588101885
 20
991.209291597449
 30
0.0
  0
VERTEX
  5
390
330
37F
100
AcDbEntity
  8
0
  6
Continuous
 62
    19
370
    15
100
AcDbVertex
100
AcDb2dVertex
 10
-875.4455588101885
 20
873.2092915974487
 30
0.0
  0
VERTEX
  5
391
330
37F
100
AcDbEntity
  8
0
  6
Continuous
 62
    19
370
    15
100
AcDbVertex
100
AcDb2dVertex
 10
-198.5705588101887
 20
873.2092915974487
 30
0.0
  0
VERTEX
  5
392
330
37F
100
AcDbEntity
  8
0
  6
Continuous
 62
    19
370
    15
100
AcDbVertex
100
AcDb2dVertex
 10
-198.5705588101887
 20
-809.3113084025516
 30
0.0
  0
SEQEND
  5
393
330
37F
100
AcDbEntity
  8
0
  6
Continuous
 62
    19
370
    15
  0
HATCH
  5
394
330
87
100
AcDbEntity
  8
0
  6
Continuous
 62
     7
370
     0
100
AcDbHatch
 10
0.0
 20
0.0
 30
0.0
210
0.0
220
0.0
230
1.0
  2
SOLID
 70
     1
 71
     1
 91
        1
 92
        1
 93
       19
 72
     1
 10
-215.5705588101889
 20
-809.3113084025516
 11
-215.5705588101889
 21
-795.2343084025516
 72
     1
 10
-215.5705588101889
 20
-795.2343084025516
 11
-276.0337588101887
 21
-795.2343084025516
 72
     1
 10
-276.0337588101887
 20
-795.2343084025516
 11
-276.0337588101887
 21
-873.7907084025514
 72
     1
 10
-276.0337588101887
 20
-873.7907084025514
 11
-282.0337588101884
 21
-873.7907084025514
 72
     1
 10
-282.0337588101884
 20
-873.7907084025514
 11
-282.0337588101884
 21
-789.2343084025507
 72
     1
 10
-282.0337588101884
 20
-789.2343084025507
 11
-215.5705588101889
 21
-789.2343084025507
 72
     1
 10
-215.5705588101889
 20
-789.2343084025507
 11
-215.5705588101889
 21
856.2092915974489
 72
     1
 10
-215.5705588101889
 20
856.209291597449
 11
-880.1955377575589
 21
856.209291597449
 72
     1
 10
-880.1955377575589
 20
856.209291597449
 11
-888.4735588101885
 21
856.209291597449
 72
     1
 10
-888.4735588101885
 20
856.209291597449
 11
-888.4735588101885
 21
873.2092915974487
 72
     1
 10
-888.4735588101885
 20
873.2092915974487
 11
-881.4455588101882
 21
873.2092915974487
 72
     1
 10
-881.4455588101882
 20
873.2092915974487
 11
-881.4455588101882
 21
985.2092915974492
 72
     1
 10
-881.4455588101882
 20
985.2092915974492
 11
-888.4735588101885
 21
985.2092915974492
 72
     1
 10
-888.4735588101885
 20
985.2092915974492
 11
-888.4735588101885
 21
991.209291597449
 72
     1
 10
-888.4735588101885
 20
991.209291597449
 11
-875.4455588101885
 21
991.209291597449
 72
     1
 10
-875.4455588101885
 20
991.209291597449
 11
-875.4455588101885
 21
873.2092915974487
 72
     1
 10
-875.4455588101885
 20
873.2092915974487
 11
-198.5705588101887
 21
873.2092915974487
 72
     1
 10
-198.5705588101887
 20
873.2092915974487
 11
-198.5705588101887
 21
-809.3113084025516
 72
     1
 10
-198.5705588101887
 20
-809.3113084025516
 11
-215.5705588101889
 21
-809.3113084025516
 97
        1
330
37F
 75
     0
 76
     1
 98
        1
 10
0.0
 20
0.0
  0
POLYLINE
  5
395
102
{ACAD_REACTORS
330
39B
102
}
330
87
100
AcDbEntity
  8
0
  6
Continuous
 62
    19
370
    15
100
AcDb2dPolyline
 66
     1
 10
0.0
 20
0.0
 30
0.0
 70
     1
  0
VERTEX
  5
396
330
395
100
AcDbEntity
  8
0
  6
Continuous
 62
    19
370
    15
100
AcDbVertex
100
AcDb2dVertex
 10
-932.5344588101889
 20
991.209291597449
 30
0.0
  0
VERTEX
  5
397
330
395
100
AcDbEntity
  8
0
  6
Continuous
 62
    19
370
    15
100
AcDbVertex
100
AcDb2dVertex
 10
-984.5706588101888
 20
991.209291597449
 30
0.0
  0
VERTEX
  5
398
330
395
100
AcDbEntity
  8
0
  6
Continuous
 62
    19
370
    15
100
AcDbVertex
100
AcDb2dVertex
 10
-984.5706588101888
 20
985.2092915974492
 30
0.0
  0
VERTEX
  5
399
330
395
100
AcDbEntity
  8
0
  6
Continuous
 62
    19
370
    15
100
AcDbVertex
100
AcDb2dVertex
 10
-932.5344588101889
 20
985.2092915974492
 30
0.0
  0
SEQEND
  5
39A
330
395
100
AcDbEntity
  8
0
  6
Continuous
 62
    19
370
    15
  0
HATCH
  5
39B
330
87
100
AcDbEntity
  8
0
  6
Continuous
 62
     7
370
     0
100
AcDbHatch
 10
0.0
 20
0.0
 30
0.0
210
0.0
220
0.0
230
1.0
  2
SOLID
 70
     1
 71
     1
 91
        1
 92
        1
 93
        4
 72
     1
 10
-932.5344588101889
 20
991.209291597449
 11
-984.5706588101888
 21
991.209291597449
 72
     1
 10
-984.5706588101888
 20
991.209291597449
 11
-984.5706588101888
 21
985.2092915974492
 72
     1
 10
-984.5706588101888
 20
985.2092915974492
 11
-932.5344588101889
 21
985.2092915974492
 72
     1
 10
-932.5344588101889
 20
985.2092915974492
 11
-932.5344588101889
 21
991.209291597449
 97
        1
330
395
 75
     0
 76
     1
 98
        1
 10
0.0
 20
0.0
  0
POLYLINE
  5
39C
102
{ACAD_REACTORS
330
3A2
102
}
330
87
100
AcDbEntity
  8
0
  6
Continuous
 62
    19
370
    15
100
AcDb2dPolyline
 66
     1
 10
0.0
 20
0.0
 30
0.0
 70
     1
  0
VERTEX
  5
39D
330
39C
100
AcDbEntity
  8
0
  6
Continuous
 62
    19
370
    15
100
AcDbVertex
100
AcDb2dVertex
 10
-932.5344588101889
 20
873.2092915974487
 30
0.0
  0
VERTEX
  5
39E
330
39C
100
AcDbEntity
  8
0
  6
Continuous
 62
    19
370
    15
100
AcDbVertex
100
AcDb2dVertex
 10
-984.5364588101883
 20
873.2092915974487
 30
0.0
  0
VERTEX
  5
39F
330
39C
100
AcDbEntity
  8
0
  6
Continuous
 62
    19
370
    15
100
AcDbVertex
100
AcDb2dVertex
 10
-984.5364588101883
 20
856.209291597449
 30
0.0
  0
VERTEX
  5
3A0
330
39C
100
AcDbEntity
  8
0
  6
Continuous
 62
    19
370
    15
100
AcDbVertex
100
AcDb2dVertex
 10
-932.5344588101889
 20
856.209291597449
 30
0.0
  0
SEQEND
  5
3A1
330
39C
100
AcDbEntity
  8
0
  6
Continuous
 62
    19
370
    15
  0
HATCH
  5
3A2
330
87
100
AcDbEntity
  8
0
  6
Continuous
 62
     7
370
     0
100
AcDbHatch
 10
0.0
 20
0.0
 30
0.0
210
0.0
220
0.0
230
1.0
  2
SOLID
 70
     1
 71
     1
 91
        1
 92
        1
 93
        4
 72
     1
 10
-932.5344588101889
 20
873.2092915974487
 11
-984.5364588101883
 21
873.2092915974487
 72
     1
 10
-984.5364588101883
 20
873.2092915974487
 11
-984.5364588101883
 21
856.209291597449
 72
     1
 10
-984.5364588101883
 20
856.209291597449
 11
-932.5344588101889
 21
856.209291597449
 72
     1
 10
-932.5344588101889
 20
856.209291597449
 11
-932.5344588101889
 21
873.2092915974487
 97
        1
330
39C
 75
     0
 76
     1
 98
        1
 10
0.0
 20
0.0
  0
POLYLINE
  5
3A3
102
{ACAD_REACTORS
330
3BD
102
}
330
87
100
AcDbEntity
  8
0
  6
Continuous
 62
    19
370
    15
100
AcDb2dPolyline
 66
     1
 10
0.0
 20
0.0
 30
0.0
 70
     1
  0
VERTEX
  5
3A4
330
3A3
100
AcDbEntity
  8
0
  6
Continuous
 62
    19
370
    15
100
AcDbVertex
100
AcDb2dVertex
 10
-276.0337588101887
 20
-943.7907084025514
 30
0.0
  0
VERTEX
  5
3A5
330
3A3
100
AcDbEntity
  8
0
  6
Continuous
 62
    19
370
    15
100
AcDbVertex
100
AcDb2dVertex
 10
-215.5705588101889
 20
-943.7907084025514
 30
0.0
  0
VERTEX
  5
3A6
330
3A3
100
AcDbEntity
  8
0
  6
Continuous
 62
    19
370
    15
100
AcDbVertex
100
AcDb2dVertex
 10
-215.5705588101889
 20
-853.3113084025513
 30
0.0
  0
VERTEX
  5
3A7
330
3A3
100
AcDbEntity
  8
0
  6
Continuous
 62
    19
370
    15
100
AcDbVertex
100
AcDb2dVertex
 10
-198.5705588101887
 20
-853.3113084025513
 30
0.0
  0
VERTEX
  5
3A8
330
3A3
100
AcDbEntity
  8
0
  6
Continuous
 62
    19
370
    15
100
AcDbVertex
100
AcDb2dVertex
 10
-198.5705588101887
 20
-960.85966878667
 30
0.0
  0
VERTEX
  5
3A9
330
3A3
100
AcDbEntity
  8
0
  6
Continuous
 62
    19
370
    15
100
AcDbVertex
100
AcDb2dVertex
 10
-669.5826588101881
 20
-960.85966878667
 30
0.0
  0
VERTEX
  5
3AA
330
3A3
100
AcDbEntity
  8
0
  6
Continuous
 62
    19
370
    15
100
AcDbVertex
100
AcDb2dVertex
 10
-669.5826588101881
 20
-1079.132108402551
 30
0.0
  0
VERTEX
  5
3AB
330
3A3
100
AcDbEntity
  8
0
  6
Continuous
 62
    19
370
    15
100
AcDbVertex
100
AcDb2dVertex
 10
-762.073258810189
 20
-1079.132108402551
 30
0.0
  0
VERTEX
  5
3AC
330
3A3
100
AcDbEntity
  8
0
  6
Continuous
 62
    19
370
    15
100
AcDbVertex
100
AcDb2dVertex
 10
-762.073258810189
 20
-1073.132108402551
 30
0.0
  0
VERTEX
  5
3AD
330
3A3
100
AcDbEntity
  8
0
  6
Continuous
 62
    19
370
    15
100
AcDbVertex
100
AcDb2dVertex
 10
-754.7369588101886
 20
-1073.132108402551
 30
0.0
  0
VERTEX
  5
3AE
330
3A3
100
AcDbEntity
  8
0
  6
Continuous
 62
    19
370
    15
100
AcDbVertex
100
AcDb2dVertex
 10
-754.7369588101886
 20
-1034.995888594611
 30
0.0
  0
VERTEX
  5
3AF
330
3A3
100
AcDbEntity
  8
0
  6
Continuous
 62
    19
370
    15
100
AcDbVertex
100
AcDb2dVertex
 10
-749.2793588101883
 20
-1034.995888594611
 30
0.0
  0
VERTEX
  5
3B0
330
3A3
100
AcDbEntity
  8
0
  6
Continuous
 62
    19
370
    15
100
AcDbVertex
100
AcDb2dVertex
 10
-749.2793588101883
 20
-1073.132108402551
 30
0.0
  0
VERTEX
  5
3B1
330
3A3
100
AcDbEntity
  8
0
  6
Continuous
 62
    19
370
    15
100
AcDbVertex
100
AcDb2dVertex
 10
-675.5826588101891
 20
-1073.132108402551
 30
0.0
  0
VERTEX
  5
3B2
330
3A3
100
AcDbEntity
  8
0
  6
Continuous
 62
    19
370
    15
100
AcDbVertex
100
AcDb2dVertex
 10
-675.5826588101891
 20
-960.85966878667
 30
0.0
  0
VERTEX
  5
3B3
330
3A3
100
AcDbEntity
  8
0
  6
Continuous
 62
    19
370
    15
100
AcDbVertex
100
AcDb2dVertex
 10
-749.2793588101883
 20
-960.85966878667
 30
0.0
  0
VERTEX
  5
3B4
330
3A3
100
AcDbEntity
  8
0
  6
Continuous
 62
    19
370
    15
100
AcDbVertex
100
AcDb2dVertex
 10
-749.2793588101883
 20
-990.9958885946104
 30
0.0
  0
VERTEX
  5
3B5
330
3A3
100
AcDbEntity
  8
0
  6
Continuous
 62
    19
370
    15
100
AcDbVertex
100
AcDb2dVertex
 10
-754.7369588101886
 20
-990.9958885946104
 30
0.0
  0
VERTEX
  5
3B6
330
3A3
100
AcDbEntity
  8
0
  6
Continuous
 62
    19
370
    15
100
AcDbVertex
100
AcDb2dVertex
 10
-754.7369588101886
 20
-960.85966878667
 30
0.0
  0
VERTEX
  5
3B7
330
3A3
100
AcDbEntity
  8
0
  6
Continuous
 62
    19
370
    15
100
AcDbVertex
100
AcDb2dVertex
 10
-762.073258810189
 20
-960.85966878667
 30
0.0
  0
VERTEX
  5
3B8
330
3A3
100
AcDbEntity
  8
0
  6
Continuous
 62
    19
370
    15
100
AcDbVertex
100
AcDb2dVertex
 10
-762.073258810189
 20
-943.7907084025514
 30
0.0
  0
VERTEX
  5
3B9
330
3A3
100
AcDbEntity
  8
0
  6
Continuous
 62
    19
370
    15
100
AcDbVertex
100
AcDb2dVertex
 10
-282.0337588101884
 20
-943.7907084025514
 30
0.0
  0
VERTEX
  5
3BA
330
3A3
100
AcDbEntity
  8
0
  6
Continuous
 62
    19
370
    15
100
AcDbVertex
100
AcDb2dVertex
 10
-282.0337588101884
 20
-917.704307316184
 30
0.0
  0
VERTEX
  5
3BB
330
3A3
100
AcDbEntity
  8
0
  6
Continuous
 62
    19
370
    15
100
AcDbVertex
100
AcDb2dVertex
 10
-276.0337588101887
 20
-917.704307316184
 30
0.0
  0
SEQEND
  5
3BC
330
3A3
100
AcDbEntity
  8
0
  6
Continuous
 62
    19
370
    15
  0
HATCH
  5
3BD
330
87
100
AcDbEntity
  8
0
  6
Continuous
 62
     7
370
     0
100
AcDbHatch
 10
0.0
 20
0.0
 30
0.0
210
0.0
220
0.0
230
1.0
  2
SOLID
 70
     1
 71
     1
 91
        1
 92
        1
 93
       24
 72
     1
 10
-276.0337588101887
 20
-943.7907084025514
 11
-215.5705588101889
 21
-943.7907084025514
 72
     1
 10
-215.5705588101889
 20
-943.7907084025514
 11
-215.5705588101889
 21
-853.3113084025513
 72
     1
 10
-215.5705588101889
 20
-853.3113084025513
 11
-198.5705588101887
 21
-853.3113084025513
 72
     1
 10
-198.5705588101887
 20
-853.3113084025513
 11
-198.5705588101887
 21
-960.85966878667
 72
     1
 10
-198.5705588101887
 20
-960.85966878667
 11
-669.5826588101881
 21
-960.85966878667
 72
     1
 10
-669.5826588101881
 20
-960.85966878667
 11
-669.5826588101881
 21
-1079.132108402551
 72
     1
 10
-669.5826588101881
 20
-1079.132108402551
 11
-762.073258810189
 21
-1079.132108402551
 72
     1
 10
-762.073258810189
 20
-1079.132108402551
 11
-762.073258810189
 21
-1073.132108402551
 72
     1
 10
-762.073258810189
 20
-1073.132108402551
 11
-754.7369588101886
 21
-1073.132108402551
 72
     1
 10
-754.7369588101886
 20
-1073.132108402551
 11
-754.7369588101886
 21
-1034.995888594611
 72
     1
 10
-754.7369588101886
 20
-1034.995888594611
 11
-749.2793588101883
 21
-1034.995888594611
 72
     1
 10
-749.2793588101883
 20
-1034.995888594611
 11
-749.2793588101883
 21
-1073.132108402551
 72
     1
 10
-749.2793588101883
 20
-1073.132108402551
 11
-675.5826588101891
 21
-1073.132108402551
 72
     1
 10
-675.5826588101891
 20
-1073.132108402551
 11
-675.5826588101891
 21
-960.85966878667
 72
     1
 10
-675.5826588101891
 20
-960.85966878667
 11
-749.2793588101883
 21
-960.85966878667
 72
     1
 10
-749.2793588101883
 20
-960.85966878667
 11
-749.2793588101883
 21
-990.9958885946104
 72
     1
 10
-749.2793588101883
 20
-990.9958885946104
 11
-754.7369588101886
 21
-990.9958885946104
 72
     1
 10
-754.7369588101886
 20
-990.9958885946104
 11
-754.7369588101886
 21
-960.85966878667
 72
     1
 10
-754.7369588101886
 20
-960.85966878667
 11
-762.073258810189
 21
-960.85966878667
 72
     1
 10
-762.073258810189
 20
-960.85966878667
 11
-762.073258810189
 21
-943.7907084025514
 72
     1
 10
-762.073258810189
 20
-943.7907084025514
 11
-282.0337588101884
 21
-943.7907084025514
 72
     1
 10
-282.0337588101884
 20
-943.7907084025514
 11
-282.0337588101884
 21
-917.704307316184
 72
     1
 10
-282.0337588101884
 20
-917.704307316184
 11
-276.0337588101887
 21
-917.704307316184
 72
     1
 10
-276.0337588101887
 20
-917.704307316184
 11
-276.0337588101887
 21
-943.7907084025514
 97
        1
330
3A3
 75
     0
 76
     1
 98
        1
 10
0.0
 20
0.0
  0
POLYLINE
  5
3BE
102
{ACAD_REACTORS
330
3C4
102
}
330
87
100
AcDbEntity
  8
0
  6
Continuous
 62
    19
370
    15
100
AcDb2dPolyline
 66
     1
 10
0.0
 20
0.0
 30
0.0
 70
     1
  0
VERTEX
  5
3BF
330
3BE
100
AcDbEntity
  8
0
  6
Continuous
 62
    19
370
    15
100
AcDbVertex
100
AcDb2dVertex
 10
-806.0766050999094
 20
-944.1321084025509
 30
0.0
  0
VERTEX
  5
3C0
330
3BE
100
AcDbEntity
  8
0
  6
Continuous
 62
    19
370
    15
100
AcDbVertex
100
AcDb2dVertex
 10
-858.0617167339748
 20
-944.1321084025509
 30
0.0
  0
VERTEX
  5
3C1
330
3BE
100
AcDbEntity
  8
0
  6
Continuous
 62
    19
370
    15
100
AcDbVertex
100
AcDb2dVertex
 10
-858.0617167339748
 20
-961.1321084025511
 30
0.0
  0
VERTEX
  5
3C2
330
3BE
100
AcDbEntity
  8
0
  6
Continuous
 62
    19
370
    15
100
AcDbVertex
100
AcDb2dVertex
 10
-806.0766050999094
 20
-961.1321084025511
 30
0.0
  0
SEQEND
  5
3C3
330
3BE
100
AcDbEntity
  8
0
  6
Continuous
 62
    19
370
    15
  0
HATCH
  5
3C4
330
87
100
AcDbEntity
  8
0
  6
Continuous
 62
     7
370
     0
100
AcDbHatch
 10
0.0
 20
0.0
 30
0.0
210
0.0
220
0.0
230
1.0
  2
SOLID
 70
     1
 71
     1
 91
        1
 92
        1
 93
        4
 72
     1
 10
-806.0766050999094
 20
-944.1321084025509
 11
-858.0617167339748
 21
-944.1321084025509
 72
     1
 10
-858.0617167339748
 20
-944.1321084025509
 11
-858.0617167339748
 21
-961.1321084025511
 72
     1
 10
-858.0617167339748
 20
-961.1321084025511
 11
-806.0766050999094
 21
-961.1321084025511
 72
     1
 10
-806.0766050999094
 20
-961.1321084025511
 11
-806.0766050999094
 21
-944.1321084025509
 97
        1
330
3BE
 75
     0
 76
     1
 98
        1
 10
0.0
 20
0.0
  0
POLYLINE
  5
3C5
102
{ACAD_REACTORS
330
3CB
102
}
330
87
100
AcDbEntity
  8
0
  6
Continuous
 62
    19
370
    15
100
AcDb2dPolyline
 66
     1
 10
0.0
 20
0.0
 30
0.0
 70
     1
  0
VERTEX
  5
3C6
330
3C5
100
AcDbEntity
  8
0
  6
Continuous
 62
    19
370
    15
100
AcDbVertex
100
AcDb2dVertex
 10
-806.0766050999094
 20
-1073.132108402551
 30
0.0
  0
VERTEX
  5
3C7
330
3C5
100
AcDbEntity
  8
0
  6
Continuous
 62
    19
370
    15
100
AcDbVertex
100
AcDb2dVertex
 10
-858.0977701098789
 20
-1073.132108402551
 30
0.0
  0
VERTEX
  5
3C8
330
3C5
100
AcDbEntity
  8
0
  6
Continuous
 62
    19
370
    15
100
AcDbVertex
100
AcDb2dVertex
 10
-858.0977701098789
 20
-1079.132108402551
 30
0.0
  0
VERTEX
  5
3C9
330
3C5
100
AcDbEntity
  8
0
  6
Continuous
 62
    19
370
    15
100
AcDbVertex
100
AcDb2dVertex
 10
-806.0766050999094
 20
-1079.132108402551
 30
0.0
  0
SEQEND
  5
3CA
330
3C5
100
AcDbEntity
  8
0
  6
Continuous
 62
    19
370
    15
  0
HATCH
  5
3CB
330
87
100
AcDbEntity
  8
0
  6
Continuous
 62
     7
370
     0
100
AcDbHatch
 10
0.0
 20
0.0
 30
0.0
210
0.0
220
0.0
230
1.0
  2
SOLID
 70
     1
 71
     1
 91
        1
 92
        1
 93
        4
 72
     1
 10
-806.0766050999094
 20
-1073.132108402551
 11
-858.0977701098789
 21
-1073.132108402551
 72
     1
 10
-858.0977701098789
 20
-1073.132108402551
 11
-858.0977701098789
 21
-1079.132108402551
 72
     1
 10
-858.0977701098789
 20
-1079.132108402551
 11
-806.0766050999094
 21
-1079.132108402551
 72
     1
 10
-806.0766050999094
 20
-1079.132108402551
 11
-806.0766050999094
 21
-1073.132108402551
 97
        1
330
3C5
 75
     0
 76
     1
 98
        1
 10
0.0
 20
0.0
  0
INSERT
  5
3CC
330
87
100
AcDbEntity
  8
Layer0
 62
    19
100
AcDbBlockReference
  2
Group-8-1
 10
0.0
 20
0.0
 30
0.0
  0
INSERT
  5
3CD
330
87
100
AcDbEntity
  8
Layer0
 62
    19
100
AcDbBlockReference
  2
Group-9-1
 10
0.0
 20
0.0
 30
0.0
  0
INSERT
  5
3CE
330
87
100
AcDbEntity
  8
Layer0
 62
    19
100
AcDbBlockReference
  2
Group-10-1
 10
0.0
 20
0.0
 30
0.0
  0
INSERT
  5
3CF
330
87
100
AcDbEntity
  8
Layer0
 62
    19
100
AcDbBlockReference
  2
Group-11-1
 10
0.0
 20
0.0
 30
0.0
  0
INSERT
  5
3D0
330
87
100
AcDbEntity
  8
Layer0
 62
    19
100
AcDbBlockReference
  2
Group-12-1
 10
0.0
 20
0.0
 30
0.0
  0
INSERT
  5
3D1
330
87
100
AcDbEntity
  8
Layer0
 62
    19
100
AcDbBlockReference
  2
Group-13-1
 10
0.0
 20
0.0
 30
0.0
  0
INSERT
  5
3D2
330
87
100
AcDbEntity
  8
Layer0
 62
    19
100
AcDbBlockReference
  2
Group-14-1
 10
0.0
 20
0.0
 30
0.0
  0
INSERT
  5
3D3
330
87
100
AcDbEntity
  8
Layer0
 62
    19
100
AcDbBlockReference
  2
Group-15-1
 10
0.0
 20
0.0
 30
0.0
  0
LWPOLYLINE
  5
3D4
330
87
100
AcDbEntity
  8
Layer0
  6
Continuous
 62
    19
370
     9
100
AcDbPolyline
 90
        4
 70
     1
 43
0.0
 10
-926.0753588101886
 20
-944.1321084025509
 10
-940.5753588101882
 20
-944.1321084025509
 10
-940.5753588101882
 20
-937.1321084025508
 10
-926.0753588101886
 20
-937.1321084025508
  0
INSERT
  5
3D5
330
87
100
AcDbEntity
  8
Layer0
 62
    19
100
AcDbBlockReference
  2
Group-16-1
 10
0.0
 20
0.0
 30
0.0
  0
INSERT
  5
3D6
330
87
100
AcDbEntity
  8
Layer0
 62
    19
100
AcDbBlockReference
  2
Group-17-1
 10
0.0
 20
0.0
 30
0.0
  0
INSERT
  5
3D7
330
87
100
AcDbEntity
  8
Layer0
 62
    19
100
AcDbBlockReference
  2
Group-18-1
 10
0.0
 20
0.0
 30
0.0
  0
LWPOLYLINE
  5
3D8
102
{ACAD_REACTORS
330
3DA
102
}
330
87
100
AcDbEntity
  8
WINDOW
  6
Continuous
 62
     7
370
    15
100
AcDbPolyline
 90
       12
 70
     1
 43
0.0
 10
-920.9571588101892
 20
-1073.132108402551
 10
-902.0753588101884
 20
-1073.132108402551
 10
-902.0753588101884
 20
-1079.132108402551
 10
-1115.594758810189
 20
-1079.132108402551
 10
-1115.594758810189
 20
-1073.132108402551
 10
-1076.823658810189
 20
-1073.132108402551
 10
-1076.823658810189
 20
-961.1321084025511
 10
-1115.594758810189
 20
-961.1321084025511
 10
-1115.594758810189
 20
-944.1321084025509
 10
-902.0753588101884
 20
-944.1321084025509
 10
-902.0753588101884
 20
-961.1321084025511
 10
-920.9571588101892
 20
-961.1321084025511
  0
LWPOLYLINE
  5
3D9
330
87
100
AcDbEntity
  8
WINDOW
  6
Continuous
 62
     7
370
    15
100
AcDbPolyline
 90
        4
 70
     1
 43
0.0
 10
-926.957158810189
 20
-961.1321084025511
 10
-1070.901158810189
 20
-961.1321084025511
 10
-1070.901158810189
 20
-1073.132108402551
 10
-926.957158810189
 20
-1073.132108402551
  0
HATCH
  5
3DA
330
87
100
AcDbEntity
  8
WINDOW
  6
Continuous
 62
     7
370
     0
100
AcDbHatch
 10
0.0
 20
0.0
 30
0.0
210
0.0
220
0.0
230
1.0
  2
SOLID
 70
     1
 71
     1
 91
        1
 92
        1
 93
       12
 72
     1
 10
-920.9571588101892
 20
-1073.132108402551
 11
-902.0753588101884
 21
-1073.132108402551
 72
     1
 10
-902.0753588101884
 20
-1073.132108402551
 11
-902.0753588101884
 21
-1079.132108402551
 72
     1
 10
-902.0753588101884
 20
-1079.132108402551
 11
-1115.594758810189
 21
-1079.132108402551
 72
     1
 10
-1115.594758810189
 20
-1079.132108402551
 11
-1115.594758810189
 21
-1073.132108402551
 72
     1
 10
-1115.594758810189
 20
-1073.132108402551
 11
-1076.823658810189
 21
-1073.132108402551
 72
     1
 10
-1076.823658810189
 20
-1073.132108402551
 11
-1076.823658810189
 21
-961.1321084025511
 72
     1
 10
-1076.823658810189
 20
-961.1321084025511
 11
-1115.594758810189
 21
-961.1321084025511
 72
     1
 10
-1115.594758810189
 20
-961.1321084025511
 11
-1115.594758810189
 21
-944.1321084025509
 72
     1
 10
-1115.594758810189
 20
-944.1321084025509
 11
-902.0753588101884
 21
-944.1321084025509
 72
     1
 10
-902.0753588101884
 20
-944.1321084025509
 11
-902.0753588101884
 21
-961.1321084025511
 72
     1
 10
-902.0753588101884
 20
-961.1321084025511
 11
-920.9571588101892
 21
-961.1321084025511
 72
     1
 10
-920.9571588101892
 20
-961.1321084025511
 11
-920.9571588101892
 21
-1073.132108402551
 97
        1
330
3D8
 75
     0
 76
     1
 98
        1
 10
0.0
 20
0.0
  0
POLYLINE
  5
3DB
102
{ACAD_REACTORS
330
3F1
102
}
330
87
100
AcDbEntity
  8
WINDOW
  6
Continuous
 62
     7
370
    15
100
AcDb2dPolyline
 66
     1
 10
0.0
 20
0.0
 30
0.0
 70
     1
  0
VERTEX
  5
3DC
330
3DB
100
AcDbEntity
  8
WINDOW
  6
Continuous
 62
     7
370
    15
100
AcDbVertex
100
AcDb2dVertex
 10
-1432.570458810188
 20
873.2091915974491
 30
0.0
  0
VERTEX
  5
3DD
330
3DB
100
AcDbEntity
  8
WINDOW
  6
Continuous
 62
     7
370
    15
100
AcDbVertex
100
AcDb2dVertex
 10
-1309.820458810188
 20
873.2091915974491
 30
0.0
  0
VERTEX
  5
3DE
330
3DB
100
AcDbEntity
  8
WINDOW
  6
Continuous
 62
     7
370
    15
100
AcDbVertex
100
AcDb2dVertex
 10
-1309.820458810188
 20
991.209291597449
 30
0.0
  0
VERTEX
  5
3DF
330
3DB
100
AcDbEntity
  8
WINDOW
  6
Continuous
 62
     7
370
    15
100
AcDbVertex
100
AcDb2dVertex
 10
-1263.626258810189
 20
991.209291597449
 30
0.0
  0
VERTEX
  5
3E0
330
3DB
100
AcDbEntity
  8
WINDOW
  6
Continuous
 62
     7
370
    15
100
AcDbVertex
100
AcDb2dVertex
 10
-1263.626258810189
 20
985.2092915974492
 30
0.0
  0
VERTEX
  5
3E1
330
3DB
100
AcDbEntity
  8
WINDOW
  6
Continuous
 62
     7
370
    15
100
AcDbVertex
100
AcDb2dVertex
 10
-1303.820458810189
 20
985.2092915974492
 30
0.0
  0
VERTEX
  5
3E2
330
3DB
100
AcDbEntity
  8
WINDOW
  6
Continuous
 62
     7
370
    15
100
AcDbVertex
100
AcDb2dVertex
 10
-1303.820458810189
 20
873.2091915974491
 30
0.0
  0
VERTEX
  5
3E3
330
3DB
100
AcDbEntity
  8
WINDOW
  6
Continuous
 62
     7
370
    15
100
AcDbVertex
100
AcDb2dVertex
 10
-1263.626258810189
 20
873.2091915974491
 30
0.0
  0
VERTEX
  5
3E4
330
3DB
100
AcDbEntity
  8
WINDOW
  6
Continuous
 62
     7
370
    15
100
AcDbVertex
100
AcDb2dVertex
 10
-1263.626258810189
 20
856.209291597449
 30
0.0
  0
VERTEX
  5
3E5
330
3DB
100
AcDbEntity
  8
WINDOW
  6
Continuous
 62
     7
370
    15
100
AcDbVertex
100
AcDb2dVertex
 10
-1415.570458810188
 20
856.209291597449
 30
0.0
  0
VERTEX
  5
3E6
330
3DB
100
AcDbEntity
  8
WINDOW
  6
Continuous
 62
     7
370
    15
100
AcDbVertex
100
AcDb2dVertex
 10
-1415.570458810188
 20
-944.1321084025509
 30
0.0
  0
VERTEX
  5
3E7
330
3DB
100
AcDbEntity
  8
WINDOW
  6
Continuous
 62
     7
370
    15
100
AcDbVertex
100
AcDb2dVertex
 10
-1259.576658810189
 20
-944.1321084025509
 30
0.0
  0
VERTEX
  5
3E8
330
3DB
100
AcDbEntity
  8
WINDOW
  6
Continuous
 62
     7
370
    15
100
AcDbVertex
100
AcDb2dVertex
 10
-1259.576658810189
 20
-960.7908084025511
 30
0.0
  0
VERTEX
  5
3E9
330
3DB
100
AcDbEntity
  8
WINDOW
  6
Continuous
 62
     7
370
    15
100
AcDbVertex
100
AcDb2dVertex
 10
-1299.770958810188
 20
-960.7908084025511
 30
0.0
  0
VERTEX
  5
3EA
330
3DB
100
AcDbEntity
  8
WINDOW
  6
Continuous
 62
     7
370
    15
100
AcDbVertex
100
AcDb2dVertex
 10
-1299.770958810188
 20
-1073.132208402551
 30
0.0
  0
VERTEX
  5
3EB
330
3DB
100
AcDbEntity
  8
WINDOW
  6
Continuous
 62
     7
370
    15
100
AcDbVertex
100
AcDb2dVertex
 10
-1259.576658810189
 20
-1073.132208402551
 30
0.0
  0
VERTEX
  5
3EC
330
3DB
100
AcDbEntity
  8
WINDOW
  6
Continuous
 62
     7
370
    15
100
AcDbVertex
100
AcDb2dVertex
 10
-1259.576658810189
 20
-1079.132108402551
 30
0.0
  0
VERTEX
  5
3ED
330
3DB
100
AcDbEntity
  8
WINDOW
  6
Continuous
 62
     7
370
    15
100
AcDbVertex
100
AcDb2dVertex
 10
-1305.770958810188
 20
-1079.132108402551
 30
0.0
  0
VERTEX
  5
3EE
330
3DB
100
AcDbEntity
  8
WINDOW
  6
Continuous
 62
     7
370
    15
100
AcDbVertex
100
AcDb2dVertex
 10
-1305.770958810188
 20
-960.7908084025511
 30
0.0
  0
VERTEX
  5
3EF
330
3DB
100
AcDbEntity
  8
WINDOW
  6
Continuous
 62
     7
370
    15
100
AcDbVertex
100
AcDb2dVertex
 10
-1432.570458810188
 20
-960.7908084025511
 30
0.0
  0
SEQEND
  5
3F0
330
3DB
100
AcDbEntity
  8
WINDOW
  6
Continuous
 62
     7
370
    15
  0
HATCH
  5
3F1
330
87
100
AcDbEntity
  8
WINDOW
  6
Continuous
 62
     7
370
     0
100
AcDbHatch
 10
0.0
 20
0.0
 30
0.0
210
0.0
220
0.0
230
1.0
  2
SOLID
 70
     1
 71
     1
 91
        1
 92
        1
 93
       20
 72
     1
 10
-1432.570458810188
 20
873.2091915974491
 11
-1309.820458810188
 21
873.2091915974491
 72
     1
 10
-1309.820458810188
 20
873.2091915974491
 11
-1309.820458810188
 21
991.209291597449
 72
     1
 10
-1309.820458810188
 20
991.209291597449
 11
-1263.626258810189
 21
991.209291597449
 72
     1
 10
-1263.626258810189
 20
991.209291597449
 11
-1263.626258810189
 21
985.2092915974492
 72
     1
 10
-1263.626258810189
 20
985.2092915974492
 11
-1303.820458810189
 21
985.2092915974492
 72
     1
 10
-1303.820458810189
 20
985.2092915974492
 11
-1303.820458810189
 21
873.2091915974491
 72
     1
 10
-1303.820458810189
 20
873.2091915974491
 11
-1263.626258810189
 21
873.2091915974491
 72
     1
 10
-1263.626258810189
 20
873.2091915974491
 11
-1263.626258810189
 21
856.209291597449
 72
     1
 10
-1263.626258810189
 20
856.209291597449
 11
-1415.570458810188
 21
856.209291597449
 72
     1
 10
-1415.570458810188
 20
856.209291597449
 11
-1415.570458810188
 21
-944.1321084025508
 72
     1
 10
-1415.570458810188
 20
-944.1321084025509
 11
-1259.576658810189
 21
-944.1321084025509
 72
     1
 10
-1259.576658810189
 20
-944.1321084025509
 11
-1259.576658810189
 21
-960.7908084025511
 72
     1
 10
-1259.576658810189
 20
-960.7908084025511
 11
-1299.770958810188
 21
-960.7908084025511
 72
     1
 10
-1299.770958810188
 20
-960.7908084025511
 11
-1299.770958810188
 21
-1073.132208402551
 72
     1
 10
-1299.770958810188
 20
-1073.132208402551
 11
-1259.576658810189
 21
-1073.132208402551
 72
     1
 10
-1259.576658810189
 20
-1073.132208402551
 11
-1259.576658810189
 21
-1079.132108402551
 72
     1
 10
-1259.576658810189
 20
-1079.132108402551
 11
-1305.770958810188
 21
-1079.132108402551
 72
     1
 10
-1305.770958810188
 20
-1079.132108402551
 11
-1305.770958810188
 21
-960.7908084025511
 72
     1
 10
-1305.770958810188
 20
-960.7908084025511
 11
-1432.570458810188
 21
-960.7908084025511
 72
     1
 10
-1432.570458810188
 20
-960.7908084025511
 11
-1432.570458810188
 21
873.2091915974491
 97
        1
330
3DB
 75
     0
 76
     1
 98
        1
 10
0.0
 20
0.0
  0
POLYLINE
  5
3F2
330
87
100
AcDbEntity
  8
WINDOW
  6
Continuous
 62
     7
370
     9
100
AcDb2dPolyline
 66
     1
 10
0.0
 20
0.0
 30
0.0
 70
     1
  0
VERTEX
  5
3F3
330
3F2
100
AcDbEntity
  8
WINDOW
  6
Continuous
 62
     7
370
     9
100
AcDbVertex
100
AcDb2dVertex
 10
-1116.635258810189
 20
984.7701915974488
 30
0.0
  0
VERTEX
  5
3F4
330
3F2
100
AcDbEntity
  8
WINDOW
  6
Continuous
 62
     7
370
     9
100
AcDbVertex
100
AcDb2dVertex
 10
-1116.635258810189
 20
981.770291597449
 30
0.0
  0
VERTEX
  5
3F5
330
3F2
100
AcDbEntity
  8
WINDOW
  6
Continuous
 62
     7
370
     9
100
AcDbVertex
100
AcDb2dVertex
 10
-1266.635258810189
 20
981.770291597449
 30
0.0
  0
VERTEX
  5
3F6
330
3F2
100
AcDbEntity
  8
WINDOW
  6
Continuous
 62
     7
370
     9
100
AcDbVertex
100
AcDb2dVertex
 10
-1266.635258810189
 20
984.7701915974488
 30
0.0
  0
SEQEND
  5
3F7
330
3F2
100
AcDbEntity
  8
WINDOW
  6
Continuous
 62
     7
370
     9
  0
CIRCLE
  5
3F8
330
87
100
AcDbEntity
  8
Layer0
  6
Continuous
 62
    19
370
     9
100
AcDbCircle
 10
-1251.626258810189
 20
840.2092915974492
 30
0.0
 40
3.024499999999993
  0
CIRCLE
  5
3F9
330
87
100
AcDbEntity
  8
Layer0
  6
Continuous
 62
    19
370
     9
100
AcDbCircle
 10
-1131.644258810189
 20
840.2092915974492
 30
0.0
 40
3.024499999999993
  0
POLYLINE
  5
3FA
102
{ACAD_REACTORS
330
408
102
}
330
87
100
AcDbEntity
  8
WINDOW
  6
Continuous
 62
     7
370
    15
100
AcDb2dPolyline
 66
     1
 10
0.0
 20
0.0
 30
0.0
 70
     1
  0
VERTEX
  5
3FB
330
3FA
100
AcDbEntity
  8
WINDOW
  6
Continuous
 62
     7
370
    15
100
AcDbVertex
100
AcDb2dVertex
 10
-1082.184523178046
 20
873.2091915974491
 30
0.0
  0
VERTEX
  5
3FC
330
3FA
100
AcDbEntity
  8
WINDOW
  6
Continuous
 62
     7
370
    15
100
AcDbVertex
100
AcDb2dVertex
 10
-1082.184523178046
 20
985.2092915974492
 30
0.0
  0
VERTEX
  5
3FD
330
3FA
100
AcDbEntity
  8
WINDOW
  6
Continuous
 62
     7
370
    15
100
AcDbVertex
100
AcDb2dVertex
 10
-1119.644258810189
 20
985.2092915974492
 30
0.0
  0
VERTEX
  5
3FE
330
3FA
100
AcDbEntity
  8
WINDOW
  6
Continuous
 62
     7
370
    15
100
AcDbVertex
100
AcDb2dVertex
 10
-1119.644258810189
 20
991.209291597449
 30
0.0
  0
VERTEX
  5
3FF
330
3FA
100
AcDbEntity
  8
WINDOW
  6
Continuous
 62
     7
370
    15
100
AcDbVertex
100
AcDb2dVertex
 10
-1028.633258810188
 20
991.209291597449
 30
0.0
  0
VERTEX
  5
400
330
3FA
100
AcDbEntity
  8
WINDOW
  6
Continuous
 62
     7
370
    15
100
AcDbVertex
100
AcDb2dVertex
 10
-1028.633258810188
 20
985.2092915974492
 30
0.0
  0
VERTEX
  5
401
330
3FA
100
AcDbEntity
  8
WINDOW
  6
Continuous
 62
     7
370
    15
100
AcDbVertex
100
AcDb2dVertex
 10
-1076.184523178046
 20
985.2092915974492
 30
0.0
  0
VERTEX
  5
402
330
3FA
100
AcDbEntity
  8
WINDOW
  6
Continuous
 62
     7
370
    15
100
AcDbVertex
100
AcDb2dVertex
 10
-1076.184523178046
 20
873.2091915974491
 30
0.0
  0
VERTEX
  5
403
330
3FA
100
AcDbEntity
  8
WINDOW
  6
Continuous
 62
     7
370
    15
100
AcDbVertex
100
AcDb2dVertex
 10
-1028.597258810189
 20
873.2091915974491
 30
0.0
  0
VERTEX
  5
404
330
3FA
100
AcDbEntity
  8
WINDOW
  6
Continuous
 62
     7
370
    15
100
AcDbVertex
100
AcDb2dVertex
 10
-1028.597258810189
 20
856.209291597449
 30
0.0
  0
VERTEX
  5
405
330
3FA
100
AcDbEntity
  8
WINDOW
  6
Continuous
 62
     7
370
    15
100
AcDbVertex
100
AcDb2dVertex
 10
-1119.644258810189
 20
856.209291597449
 30
0.0
  0
VERTEX
  5
406
330
3FA
100
AcDbEntity
  8
WINDOW
  6
Continuous
 62
     7
370
    15
100
AcDbVertex
100
AcDb2dVertex
 10
-1119.644258810189
 20
873.2091915974491
 30
0.0
  0
SEQEND
  5
407
330
3FA
100
AcDbEntity
  8
WINDOW
  6
Continuous
 62
     7
370
    15
  0
HATCH
  5
408
330
87
100
AcDbEntity
  8
WINDOW
  6
Continuous
 62
     7
370
     0
100
AcDbHatch
 10
0.0
 20
0.0
 30
0.0
210
0.0
220
0.0
230
1.0
  2
SOLID
 70
     1
 71
     1
 91
        1
 92
        1
 93
       12
 72
     1
 10
-1082.184523178046
 20
873.2091915974491
 11
-1082.184523178046
 21
985.2092915974492
 72
     1
 10
-1082.184523178046
 20
985.2092915974492
 11
-1119.644258810189
 21
985.2092915974492
 72
     1
 10
-1119.644258810189
 20
985.2092915974492
 11
-1119.644258810189
 21
991.209291597449
 72
     1
 10
-1119.644258810189
 20
991.209291597449
 11
-1028.633258810188
 21
991.209291597449
 72
     1
 10
-1028.633258810188
 20
991.209291597449
 11
-1028.633258810188
 21
985.2092915974492
 72
     1
 10
-1028.633258810188
 20
985.2092915974492
 11
-1076.184523178046
 21
985.2092915974492
 72
     1
 10
-1076.184523178046
 20
985.2092915974492
 11
-1076.184523178046
 21
873.2091915974491
 72
     1
 10
-1076.184523178046
 20
873.2091915974491
 11
-1028.597258810189
 21
873.2091915974491
 72
     1
 10
-1028.597258810189
 20
873.2091915974491
 11
-1028.597258810189
 21
856.209291597449
 72
     1
 10
-1028.597258810189
 20
856.209291597449
 11
-1119.644258810189
 21
856.209291597449
 72
     1
 10
-1119.644258810189
 20
856.209291597449
 11
-1119.644258810189
 21
873.2091915974491
 72
     1
 10
-1119.644258810189
 20
873.2091915974491
 11
-1082.184523178046
 21
873.2091915974491
 97
        1
330
3FA
 75
     0
 76
     1
 98
        1
 10
0.0
 20
0.0
  0
POLYLINE
  5
409
330
87
100
AcDbEntity
  8
WINDOW
  6
Continuous
 62
     7
370
     9
100
AcDb2dPolyline
 66
     1
 10
0.0
 20
0.0
 30
0.0
 70
     1
  0
VERTEX
  5
40A
330
409
100
AcDbEntity
  8
WINDOW
  6
Continuous
 62
     7
370
     9
100
AcDbVertex
100
AcDb2dVertex
 10
-1056.635258810189
 20
854.810365232674
 30
0.0
  0
VERTEX
  5
40B
330
409
100
AcDbEntity
  8
WINDOW
  6
Continuous
 62
     7
370
     9
100
AcDbVertex
100
AcDb2dVertex
 10
-1056.635258810189
 20
848.8103652326737
 30
0.0
  0
VERTEX
  5
40C
330
409
100
AcDbEntity
  8
WINDOW
  6
Continuous
 62
     7
370
     9
100
AcDbVertex
100
AcDb2dVertex
 10
-1131.635258810189
 20
848.8103652326737
 30
0.0
  0
VERTEX
  5
40D
330
409
100
AcDbEntity
  8
WINDOW
  6
Continuous
 62
     7
370
     9
100
AcDbVertex
100
AcDb2dVertex
 10
-1131.635258810189
 20
854.810365232674
 30
0.0
  0
SEQEND
  5
40E
330
409
100
AcDbEntity
  8
WINDOW
  6
Continuous
 62
     7
370
     9
  0
POLYLINE
  5
40F
330
87
100
AcDbEntity
  8
WINDOW
  6
Continuous
 62
     7
370
     9
100
AcDb2dPolyline
 66
     1
 10
0.0
 20
0.0
 30
0.0
 70
     1
  0
VERTEX
  5
410
330
40F
100
AcDbEntity
  8
WINDOW
  6
Continuous
 62
     7
370
     9
100
AcDbVertex
100
AcDb2dVertex
 10
-1251.635258810189
 20
854.810365232674
 30
0.0
  0
VERTEX
  5
411
330
40F
100
AcDbEntity
  8
WINDOW
  6
Continuous
 62
     7
370
     9
100
AcDbVertex
100
AcDb2dVertex
 10
-1251.635258810189
 20
848.8103652326737
 30
0.0
  0
VERTEX
  5
412
330
40F
100
AcDbEntity
  8
WINDOW
  6
Continuous
 62
     7
370
     9
100
AcDbVertex
100
AcDb2dVertex
 10
-1326.635258810188
 20
848.8103652326737
 30
0.0
  0
VERTEX
  5
413
330
40F
100
AcDbEntity
  8
WINDOW
  6
Continuous
 62
     7
370
     9
100
AcDbVertex
100
AcDb2dVertex
 10
-1326.635258810188
 20
854.810365232674
 30
0.0
  0
SEQEND
  5
414
330
40F
100
AcDbEntity
  8
WINDOW
  6
Continuous
 62
     7
370
     9
  0
POLYLINE
  5
415
330
87
100
AcDbEntity
  8
WINDOW
  6
Continuous
 62
     7
370
     9
100
AcDb2dPolyline
 66
     1
 10
0.0
 20
0.0
 30
0.0
 70
     1
  0
VERTEX
  5
416
330
415
100
AcDbEntity
  8
WINDOW
  6
Continuous
 62
     7
370
     9
100
AcDbVertex
100
AcDb2dVertex
 10
-1262.585658810189
 20
-1072.351808402551
 30
0.0
  0
VERTEX
  5
417
330
415
100
AcDbEntity
  8
WINDOW
  6
Continuous
 62
     7
370
     9
100
AcDbVertex
100
AcDb2dVertex
 10
-1262.585658810189
 20
-1069.351908402551
 30
0.0
  0
VERTEX
  5
418
330
415
100
AcDbEntity
  8
WINDOW
  6
Continuous
 62
     7
370
     9
100
AcDbVertex
100
AcDb2dVertex
 10
-1112.585658810189
 20
-1069.351908402551
 30
0.0
  0
VERTEX
  5
419
330
415
100
AcDbEntity
  8
WINDOW
  6
Continuous
 62
     7
370
     9
100
AcDbVertex
100
AcDb2dVertex
 10
-1112.585658810189
 20
-1072.351808402551
 30
0.0
  0
SEQEND
  5
41A
330
415
100
AcDbEntity
  8
WINDOW
  6
Continuous
 62
     7
370
     9
  0
CIRCLE
  5
41B
330
87
100
AcDbEntity
  8
Layer0
  6
Continuous
 62
    19
370
     9
100
AcDbCircle
 10
-1127.594658810189
 20
-927.7909084025512
 30
0.0
 40
3.024499999999993
  0
CIRCLE
  5
41C
330
87
100
AcDbEntity
  8
Layer0
  6
Continuous
 62
    19
370
     9
100
AcDbCircle
 10
-1247.576658810189
 20
-927.7909084025512
 30
0.0
 40
3.024499999999993
  0
POLYLINE
  5
41D
330
87
100
AcDbEntity
  8
WINDOW
  6
Continuous
 62
     7
370
     9
100
AcDb2dPolyline
 66
     1
 10
0.0
 20
0.0
 30
0.0
 70
     1
  0
VERTEX
  5
41E
330
41D
100
AcDbEntity
  8
WINDOW
  6
Continuous
 62
     7
370
     9
100
AcDbVertex
100
AcDb2dVertex
 10
-1322.585658810189
 20
-942.391982037776
 30
0.0
  0
VERTEX
  5
41F
330
41D
100
AcDbEntity
  8
WINDOW
  6
Continuous
 62
     7
370
     9
100
AcDbVertex
100
AcDb2dVertex
 10
-1322.585658810189
 20
-936.3919820377762
 30
0.0
  0
VERTEX
  5
420
330
41D
100
AcDbEntity
  8
WINDOW
  6
Continuous
 62
     7
370
     9
100
AcDbVertex
100
AcDb2dVertex
 10
-1247.585658810189
 20
-936.3919820377762
 30
0.0
  0
VERTEX
  5
421
330
41D
100
AcDbEntity
  8
WINDOW
  6
Continuous
 62
     7
370
     9
100
AcDbVertex
100
AcDb2dVertex
 10
-1247.585658810189
 20
-942.391982037776
 30
0.0
  0
SEQEND
  5
422
330
41D
100
AcDbEntity
  8
WINDOW
  6
Continuous
 62
     7
370
     9
  0
POLYLINE
  5
423
330
87
100
AcDbEntity
  8
WINDOW
  6
Continuous
 62
     7
370
     9
100
AcDb2dPolyline
 66
     1
 10
0.0
 20
0.0
 30
0.0
 70
     1
  0
VERTEX
  5
424
330
423
100
AcDbEntity
  8
WINDOW
  6
Continuous
 62
     7
370
     9
100
AcDbVertex
100
AcDb2dVertex
 10
-1127.585658810189
 20
-942.391982037776
 30
0.0
  0
VERTEX
  5
425
330
423
100
AcDbEntity
  8
WINDOW
  6
Continuous
 62
     7
370
     9
100
AcDbVertex
100
AcDb2dVertex
 10
-1127.585658810189
 20
-936.3919820377762
 30
0.0
  0
VERTEX
  5
426
330
423
100
AcDbEntity
  8
WINDOW
  6
Continuous
 62
     7
370
     9
100
AcDbVertex
100
AcDb2dVertex
 10
-1052.585658810189
 20
-936.3919820377762
 30
0.0
  0
VERTEX
  5
427
330
423
100
AcDbEntity
  8
WINDOW
  6
Continuous
 62
     7
370
     9
100
AcDbVertex
100
AcDb2dVertex
 10
-1052.585658810189
 20
-942.391982037776
 30
0.0
  0
SEQEND
  5
428
330
423
100
AcDbEntity
  8
WINDOW
  6
Continuous
 62
     7
370
     9
  0
LWPOLYLINE
  5
429
330
87
100
AcDbEntity
  8
Layer0
  6
Continuous
 62
    19
370
     9
100
AcDbPolyline
 90
        4
 70
     1
 43
0.0
 10
-953.5801588101888
 20
-944.1321084025509
 10
-980.5801588101883
 20
-944.1321084025509
 10
-980.5801588101883
 20
-934.1321084025509
 10
-953.5801588101888
 20
-934.1321084025509
  0
LWPOLYLINE
  5
42A
330
87
100
AcDbEntity
  8
Layer0
  6
Continuous
 62
    19
370
     9
100
AcDbPolyline
 90
        4
 70
     1
 43
0.0
 10
-999.5801588101885
 20
-944.1321084025509
 10
-1026.580158810188
 20
-944.1321084025509
 10
-1026.580158810188
 20
-934.1321084025509
 10
-999.5801588101885
 20
-934.1321084025509
  0
INSERT
  5
42B
330
87
100
AcDbEntity
  8
WINDOW
 62
     7
100
AcDbBlockReference
  2
Group-19-1
 10
0.0
 20
0.0
 30
0.0
  0
INSERT
  5
42C
330
87
100
AcDbEntity
  8
WINDOW
 62
     7
100
AcDbBlockReference
  2
Group-20-1
 10
0.0
 20
0.0
 30
0.0
  0
LINE
  5
42D
330
87
100
AcDbEntity
  8
WINDOW
  6
Dash Style-8
 62
     7
370
    15
100
AcDbLine
 10
-158.5705588101882
 20
-787.790708402551
 30
0.0
 11
-263.5705588101882
 21
-787.790708402551
 31
0.0
  0
LINE
  5
42E
330
87
100
AcDbEntity
  8
WINDOW
  6
Dash Style-8
 62
     7
370
    15
100
AcDbLine
 10
-158.5705588101882
 20
-849.7907084025518
 30
0.0
 11
-263.5705588101882
 21
-849.7907084025518
 31
0.0
  0
LINE
  5
42F
330
87
100
AcDbEntity
  8
WINDOW
  6
Dash Style-8
 62
     7
370
    15
100
AcDbLine
 10
-158.5705588101882
 20
-911.7907084025513
 30
0.0
 11
-263.5705588101882
 21
-911.7907084025513
 31
0.0
  0
INSERT
  5
430
330
87
100
AcDbEntity
  8
WINDOW
 62
     7
100
AcDbBlockReference
  2
Group-21-1
 10
0.0
 20
0.0
 30
0.0
  0
INSERT
  5
431
330
87
100
AcDbEntity
  8
WINDOW
 62
     7
100
AcDbBlockReference
  2
Group-22-1
 10
0.0
 20
0.0
 30
0.0
  0
ENDBLK
  5
89
330
87
100
AcDbEntity
  8
0
100
AcDbBlockEnd
  0
BLOCK
  5
A2
330
A1
100
AcDbEntity
  8
0
100
AcDbBlockBegin
  2
VW_SLASH
 70
     0
 10
0.0
 20
0.0
 30
0.0
  3
VW_SLASH
  1

  0
INSERT
  5
A4
330
A1
100
AcDbEntity
  8
None
  6
ByBlock
 62
     0
370
    -2
100
AcDbBlockReference
  2

 10
0.0
 20
0.0
 30
0.0
  0
LINE
  5
A5
330
A1
100
AcDbEntity
  8
None
  6
ByBlock
 62
     0
370
    -2
100
AcDbLine
 10
0.0
 20
0.0
 30
0.0
 11
-1.0
 21
0.0
 31
0.0
  0
POLYLINE
  5
A6
330
A1
100
AcDbEntity
  8
None
  6
Continuous
 62
     0
370
    20
100
AcDb2dPolyline
 66
     1
 10
0.0
 20
0.0
 30
0.0
  0
VERTEX
  5
A7
330
A6
100
AcDbEntity
  8
None
  6
Continuous
 62
     0
370
    20
100
AcDbVertex
100
AcDb2dVertex
 10
0.3523881145256446
 20
0.3523881145256446
 30
0.0
  0
VERTEX
  5
A8
330
A6
100
AcDbEntity
  8
None
  6
Continuous
 62
     0
370
    20
100
AcDbVertex
100
AcDb2dVertex
 10
-0.3523881145256446
 20
-0.3523881145256446
 30
0.0
  0
SEQEND
  5
A9
330
A6
100
AcDbEntity
  8
None
  6
Continuous
 62
     0
370
    20
  0
ENDBLK
  5
A3
330
A1
100
AcDbEntity
  8
0
100
AcDbBlockEnd
  0
BLOCK
  5
AB
330
AA
100
AcDbEntity
  8
0
100
AcDbBlockBegin
  2
VW_FILLEDARROW
 70
     0
 10
0.0
 20
0.0
 30
0.0
  3
VW_FILLEDARROW
  1

  0
INSERT
  5
AD
330
AA
100
AcDbEntity
  8
None
  6
ByBlock
 62
     0
370
    -2
100
AcDbBlockReference
  2

 10
0.0
 20
0.0
 30
0.0
  0
POLYLINE
  5
AE
102
{ACAD_REACTORS
330
B3
102
}
330
AA
100
AcDbEntity
  8
None
  6
Continuous
 62
     0
370
     5
100
AcDb2dPolyline
 66
     1
 10
0.0
 20
0.0
 30
0.0
 70
     1
  0
VERTEX
  5
AF
330
AE
100
AcDbEntity
  8
None
  6
Continuous
 62
     0
370
     5
100
AcDbVertex
100
AcDb2dVertex
 10
-0.9967041015625001
 20
0.2670660591064596
 30
0.0
  0
VERTEX
  5
B0
330
AE
100
AcDbEntity
  8
None
  6
Continuous
 62
     0
370
     5
100
AcDbVertex
100
AcDb2dVertex
 10
0.0
 20
0.0
 30
0.0
  0
VERTEX
  5
B1
330
AE
100
AcDbEntity
  8
None
  6
Continuous
 62
     0
370
     5
100
AcDbVertex
100
AcDb2dVertex
 10
-0.9967041015624999
 20
-0.2670660591064599
 30
0.0
  0
SEQEND
  5
B2
330
AE
100
AcDbEntity
  8
None
  6
Continuous
 62
     0
370
     5
  0
HATCH
  5
B3
330
AA
100
AcDbEntity
  8
None
  6
Continuous
 62
     0
370
     0
100
AcDbHatch
 10
0.0
 20
0.0
 30
0.0
210
0.0
220
0.0
230
1.0
  2
SOLID
 70
     1
 71
     1
 91
        1
 92
        1
 93
        3
 72
     1
 10
-0.9967041015625001
 20
0.2670660591064596
 11
0.0
 21
0.0
 72
     1
 10
0.0
 20
0.0
 11
-0.9967041015624999
 21
-0.2670660591064599
 72
     1
 10
-0.9967041015624999
 20
-0.2670660591064599
 11
-0.9967041015625001
 21
0.2670660591064596
 97
        1
330
AE
 75
     0
 76
     1
 98
        1
 10
0.0
 20
0.0
  0
ENDBLK
  5
AC
330
AA
100
AcDbEntity
  8
0
100
AcDbBlockEnd
  0
ENDSEC
  0
SECTION
  2
ENTITIES
  0
POLYLINE
  5
432
330
1F
100
AcDbEntity
  8
None
  6
Continuous
 62
     7
370
    60
100
AcDb2dPolyline
 66
     1
 10
0.0
 20
0.0
 30
0.0
 70
     1
  0
VERTEX
  5
433
330
432
100
AcDbEntity
  8
None
  6
Continuous
 62
     7
370
    60
100
AcDbVertex
100
AcDb2dVertex
 10
-1844.527559055118
 20
1152.263779527559
 30
0.0
  0
VERTEX
  5
434
330
432
100
AcDbEntity
  8
None
  6
Continuous
 62
     7
370
    60
100
AcDbVertex
100
AcDb2dVertex
 10
1835.472440944882
 20
1152.263779527559
 30
0.0
  0
VERTEX
  5
435
330
432
100
AcDbEntity
  8
None
  6
Continuous
 62
     7
370
    60
100
AcDbVertex
100
AcDb2dVertex
 10
1835.472440944882
 20
-1147.736220472441
 30
0.0
  0
VERTEX
  5
436
330
432
100
AcDbEntity
  8
None
  6
Continuous
 62
     7
370
    60
100
AcDbVertex
100
AcDb2dVertex
 10
-1844.527559055118
 20
-1147.736220472441
 30
0.0
  0
SEQEND
  5
437
330
432
100
AcDbEntity
  8
None
  6
Continuous
 62
     7
370
    60
  0
POLYLINE
  5
438
330
1F
100
AcDbEntity
  8
None
  6
Continuous
 62
     7
370
    60
100
AcDb2dPolyline
 66
     1
 10
0.0
 20
0.0
 30
0.0
 70
     1
  0
VERTEX
  5
439
330
438
100
AcDbEntity
  8
None
  6
Continuous
 62
     7
370
    60
100
AcDbVertex
100
AcDb2dVertex
 10
-1844.527559055118
 20
1152.263779527559
 30
0.0
  0
VERTEX
  5
43A
330
438
100
AcDbEntity
  8
None
  6
Continuous
 62
     7
370
    60
100
AcDbVertex
100
AcDb2dVertex
 10
1030.472440944882
 20
1152.263779527559
 30
0.0
  0
VERTEX
  5
43B
330
438
100
AcDbEntity
  8
None
  6
Continuous
 62
     7
370
    60
100
AcDbVertex
100
AcDb2dVertex
 10
1030.472440944882
 20
-1147.736220472441
 30
0.0
  0
VERTEX
  5
43C
330
438
100
AcDbEntity
  8
None
  6
Continuous
 62
     7
370
    60
100
AcDbVertex
100
AcDb2dVertex
 10
-1844.527559055118
 20
-1147.736220472441
 30
0.0
  0
SEQEND
  5
43D
330
438
100
AcDbEntity
  8
None
  6
Continuous
 62
     7
370
    60
  0
WIPEOUT
  5
43E
330
1F
100
AcDbEntity
  8
None
  6
Continuous
 62
     7
370
     5
 92
      152
310
98000000040000000C0000000E000000B20000000C00000016000000000000C20C00000014000000010000006C00000007000000040000004C89837F06DF91400A69C32699BC7640000000000000000030C2110321F29A400A69C32699BC7640000000000000000030C2110321F29A40AC3134BB49FD874000000000000000
310
004C89837F06DF9140AC3134BB49FD87400000000000000000
100
AcDbWipeout
 90
        0
 10
1143.756345801597
 20
363.7873904832091
 30
0.0
 11
580.7758924696182
 21
0.0
 31
0.0
 12
0.0
 22
580.7758924696182
 32
0.0
 13
1.0
 23
1.0
340
0
 70
     4
280
     1
281
    50
282
    50
283
     0
360
0
 71
     2
 91
        5
 14
-0.4999999999999998
 24
0.4999999999999998
 14
0.5
 24
0.4999999999999998
 14
0.5
 24
-0.1954035392098146
 14
-0.4999999999999998
 24
-0.1954035392098146
 14
-0.4999999999999998
 24
0.4999999999999998
  0
MTEXT
  5
43F
330
1F
100
AcDbEntity
  8
None
 62
     7
100
AcDbMText
 10
1434.144292036406
 20
754.0534871993173
 30
0.0
 40
43.44526338277483
 41
0.0
 71
     2
 72
     1
  1
2400 BOUNDARY ROAD\PBURNABY, B.C. V5M 3Z3\PCANADA\P\P{\H0.8947x;\lT: 604•482•2000\P}{\H0.8947x;\lF: 604•482•2007\P}
  7
Arial Narrow
 73
     1
 44
0.9301738196474555
  0
WIPEOUT
  5
440
330
1F
100
AcDbEntity
  8
None
  6
Continuous
 62
     7
370
     5
 92
      152
310
98000000040000000C0000000E000000B20000000C00000016000000000000C20C00000014000000010000006C000000070000000400000044EFF99EF60E91404E64B212D87167400000000000000000EF99A449C02E9A404E64B212D87167400000000000000000EF99A449C02E9A40540ADC36C4B3724000000000000000
310
0044EFF99EF60E9140540ADC36C4B372400000000000000000
100
AcDbWipeout
 90
        0
 10
1091.740840821484
 20
187.5576261028495
 30
0.0
 11
583.9469401041667
 21
0.0
 31
0.0
 12
0.0
 22
583.9469401041667
 32
0.0
 13
1.0
 23
1.0
340
0
 70
     4
280
     1
281
    50
282
    50
283
     0
360
0
 71
     2
 91
        5
 14
-0.4999999999999993
 24
0.5000000000000001
 14
0.5000000000000004
 24
0.5000000000000001
 14
0.5000000000000004
 24
0.3087535525781568
 14
-0.4999999999999993
 24
0.3087535525781568
 14
-0.4999999999999993
 24
0.5000000000000001
  0
MTEXT
  5
441
330
1F
100
AcDbEntity
  8
None
 62
     7
100
AcDbMText
 10
1383.714310873567
 20
277.4633808486226
 30
0.0
 40
69.51242141243972
 41
0.0
 71
     2
 72
     1
  1
SOUND STAGE
  7
Arial Narrow (bold)
 73
     1
 44
1.446475657041058
  0
POLYLINE
  5
442
330
1F
100
AcDbEntity
  8
None
  6
Continuous
 62
     7
370
    60
100
AcDb2dPolyline
 66
     1
 10
0.0
 20
0.0
 30
0.0
 70
     1
  0
VERTEX
  5
443
330
442
100
AcDbEntity
  8
None
  6
Continuous
 62
     7
370
    60
100
AcDbVertex
100
AcDb2dVertex
 10
1030.472440944882
 20
-603.75
 30
0.0
  0
VERTEX
  5
444
330
442
100
AcDbEntity
  8
None
  6
Continuous
 62
     7
370
    60
100
AcDbVertex
100
AcDb2dVertex
 10
1835.472440944882
 20
-603.75
 30
0.0
  0
VERTEX
  5
445
330
442
100
AcDbEntity
  8
None
  6
Continuous
 62
     7
370
    60
100
AcDbVertex
100
AcDb2dVertex
 10
1835.472440944882
 20
-1147.736220472441
 30
0.0
  0
VERTEX
  5
446
330
442
100
AcDbEntity
  8
None
  6
Continuous
 62
     7
370
    60
100
AcDbVertex
100
AcDb2dVertex
 10
1030.472440944882
 20
-1147.736220472441
 30
0.0
  0
SEQEND
  5
447
330
442
100
AcDbEntity
  8
None
  6
Continuous
 62
     7
370
    60
  0
MTEXT
  5
448
330
1F
100
AcDbEntity
  8
None
 62
     7
100
AcDbMText
 10
1102.558309794299
 20
116.7283547744048
 30
0.0
 40
52.13431605932978
 41
0.0
 71
     1
 72
     1
  1
FEATURES\P{\H0.7083x;\l•15,000 sq. ft.\P•SOUNDPROOF\P•2 ELEPHANT DOORS\P•600 amps 120/208V \P•GRID = 2,000 pounds per any one \Ppoint on truss\P•Interior is entirely Flat Black\P•12,000cfm exhaust fans}
  7
Arial Narrow
 73
     1
 44
0.8489681687258522
  0
INSERT
  5
449
330
1F
100
AcDbEntity
  8
elements-ojects
 62
     7
100
AcDbBlockReference
  2
Group-1
 10
0.0
 20
0.0
 30
0.0
 41
230.0
 42
230.0
 43
230.0
  0
WIPEOUT
  5
44A
330
1F
100
AcDbEntity
  8
None
  6
Continuous
 62
     7
370
     5
 92
      152
310
98000000040000000C0000000E000000B20000000C00000016000000000000C20C00000014000000010000006C0000000700000004000000A4363FDC72739A40B3D9445241435F400000000000000000DCC4E25C0A029C40B3D9445241435F400000000000000000DCC4E25C0A029C40D49CF7BA3685774000000000000000
310
00A4363FDC72739A40D49CF7BA368577400000000000000000
100
AcDbWipeout
 90
        0
 10
1692.862168300352
 20
125.0508618996017
 30
0.0
 11
251.275
 21
0.0
 31
0.0
 12
0.0
 22
251.275
 32
0.0
 13
1.0
 23
1.0
340
0
 70
     4
280
     1
281
    50
282
    50
283
     0
360
0
 71
     2
 91
        5
 14
-0.5
 24
0.4999999999999999
 14
-0.1034306968225351
 24
0.4999999999999999
 14
-0.1034306968225351
 24
-0.5
 14
-0.5
 24
-0.5
 14
-0.5
 24
0.4999999999999999
  0
MTEXT
  5
44B
330
1F
100
AcDbEntity
  8
None
 62
     7
100
AcDbMText
 10
1742.686144128311
 20
327.3388100775909
 30
0.0
 40
156.4029481779894
 41
0.0
 71
     2
 72
     1
  1
4
  7
Arial Narrow (bold)
 73
     1
 44
0.6428780697960255
  0
LINE
  5
44C
330
1F
100
AcDbEntity
  8
None
  6
Continuous
 62
     7
370
    40
100
AcDbLine
 10
1669.874852011698
 20
179.3130532074692
 30
0.0
 11
1101.228602011698
 21
179.3130532074692
 31
0.0
  0
MTEXT
  5
44D
330
1F
100
AcDbEntity
  8
None
 62
     7
100
AcDbMText
 10
1084.699692402738
 20
-645.6174252168249
 30
0.0
 40
45.73185619239455
 41
0.0
 71
     1
 72
     1
  1
SITE LEGEND\P
  7
Arial Narrow
 73
     1
 44
1.178220171553443
  0
INSERT
  5
44E
330
1F
100
AcDbEntity
  8
None
 62
     7
100
AcDbBlockReference
  2
Group-4-1
 10
0.0
 20
0.0
 30
0.0
 41
230.0
 42
230.0
 43
230.0
  0
INSERT
  5
44F
330
1F
100
AcDbEntity
  8
None
 62
     7
100
AcDbBlockReference
  2
Group-7-1
 10
0.0
 20
0.0
 30
0.0
  0
DIMENSION
  5
450
330
1F
100
AcDbEntity
  8
Dimension
  6
Continuous
 62
     1
370
     9
100
AcDbDimension
  2
*D8
 10
-1415.570458810188
 20
1069.822080892358
 30
0.0
 11
-815.5705088101885
 21
1069.822080892358
 31
0.0
 70
    32
 71
     5
 42
1199.999899999999
  3
ASME
100
AcDbAlignedDimension
 13
-215.5705588101889
 23
838.8220808923578
 33
0.0
 14
-1415.570458810188
 24
835.8220808923578
 34
0.0
100
AcDbRotatedDimension
1001
ACAD
1000
DSTYLE
1002
{
1070
   147
1040
3.59375
1070
   140
1040
27.4976093104641
1070
   340
1005
8D
1002
}
  0
DIMENSION
  5
451
330
1F
100
AcDbEntity
  8
Dimension
  6
Continuous
 62
     1
370
     9
100
AcDbDimension
  2
*D9
 10
-1631.570558810189
 20
856.209291597449
 30
0.0
 11
-1631.570558810189
 21
-43.96140840255089
 31
0.0
 70
    32
 71
     5
 42
1800.3414
  3
ASME
100
AcDbAlignedDimension
 13
-1400.070558810189
 23
-944.1321084025509
 33
0.0
 14
-1378.070558810189
 24
856.209291597449
 34
0.0
 50
-90.0
100
AcDbRotatedDimension
1001
ACAD
1000
DSTYLE
1002
{
1070
   147
1040
3.59375
1070
   140
1040
27.4976093104641
1070
   340
1005
8D
1070
   271
1070
     0
1002
}
  0
WIPEOUT
  5
452
330
1F
100
AcDbEntity
  8
None
  6
Continuous
 62
     1
370
     9
 92
      152
310
98000000040000000C0000000E000000B20000000C00000016000000000000C20C00000014000000010000006C0000000700000004000000CD65A2F48D7290C072ABB203FC8B7A40000000000000000098CB44E9915C80C072ABB203FC8B7A40000000000000000098CB44E9915C80C0C700085951F17C4000000000000000
310
00CD65A2F48D7290C0C700085951F17C400000000000000000
100
AcDbWipeout
 90
        0
 10
-1052.638628518547
 20
424.7490269641195
 30
0.0
 11
529.0673828125001
 21
0.0
 31
0.0
 12
0.0
 22
529.0673828125001
 32
0.0
 13
1.0
 23
1.0
340
0
 70
     4
280
     1
281
    50
282
    50
283
     0
360
0
 71
     2
 91
        5
 14
-0.4999999999999998
 24
0.5000000000000001
 14
0.5000000000000002
 24
0.5000000000000001
 14
0.5000000000000002
 24
0.4275454609778534
 14
-0.4999999999999998
 24
0.4275454609778534
 14
-0.4999999999999998
 24
0.5000000000000001
  0
MTEXT
  5
453
330
1F
100
AcDbEntity
  8
None
 62
     1
100
AcDbMText
 10
-1052.638628518547
 20
461.0633029412503
 30
0.0
 40
27.4976093104641
 41
0.0
 71
     1
 72
     1
  1
Height to U.S. of Truss = 40'-0"
  7
Helvetica
 73
     1
 44
0.8397955333929319
  0
LINE
  5
454
330
1F
100
AcDbEntity
  8
None
  6
Continuous
 62
     1
370
     9
100
AcDbLine
 10
-515.7967269076364
 20
449.9110404461791
 30
0.0
 11
-397.1779191076417
 21
449.9110404461791
 31
0.0
  0
POLYLINE
  5
455
102
{ACAD_REACTORS
330
45A
102
}
330
1F
100
AcDbEntity
  8
None
  6
Continuous
 62
     1
370
     5
100
AcDb2dPolyline
 66
     1
 10
0.0
 20
0.0
 30
0.0
 70
     1
  0
VERTEX
  5
456
330
455
100
AcDbEntity
  8
None
  6
Continuous
 62
     1
370
     5
100
AcDbVertex
100
AcDb2dVertex
 10
-425.9279191076417
 20
457.6145797285739
 30
0.0
  0
VERTEX
  5
457
330
455
100
AcDbEntity
  8
None
  6
Continuous
 62
     1
370
     5
100
AcDbVertex
100
AcDb2dVertex
 10
-397.1779191076417
 20
449.9110404461791
 30
0.0
  0
VERTEX
  5
458
330
455
100
AcDbEntity
  8
None
  6
Continuous
 62
     1
370
     5
100
AcDbVertex
100
AcDb2dVertex
 10
-425.9279191076417
 20
442.2075011637843
 30
0.0
  0
SEQEND
  5
459
330
455
100
AcDbEntity
  8
None
  6
Continuous
 62
     1
370
     5
  0
HATCH
  5
45A
330
1F
100
AcDbEntity
  8
None
  6
Continuous
 62
     1
370
     0
100
AcDbHatch
 10
0.0
 20
0.0
 30
0.0
210
0.0
220
0.0
230
1.0
  2
SOLID
 70
     1
 71
     1
 91
        1
 92
        1
 93
        3
 72
     1
 10
-425.9279191076417
 20
457.6145797285739
 11
-397.1779191076417
 21
449.9110404461791
 72
     1
 10
-397.1779191076417
 20
449.9110404461791
 11
-425.9279191076417
 21
442.2075011637843
 72
     1
 10
-425.9279191076417
 20
442.2075011637843
 11
-425.9279191076417
 21
457.6145797285739
 97
        1
330
455
 75
     0
 76
     1
 98
        1
 10
0.0
 20
0.0
  0
LINE
  5
45B
330
1F
100
AcDbEntity
  8
None
  6
Continuous
 62
     1
370
     9
100
AcDbLine
 10
-1059.311808114133
 20
449.9110404461791
 30
0.0
 11
-1207.177919107642
 21
449.9110404461791
 31
0.0
  0
POLYLINE
  5
45C
102
{ACAD_REACTORS
330
461
102
}
330
1F
100
AcDbEntity
  8
None
  6
Continuous
 62
     1
370
     5
100
AcDb2dPolyline
 66
     1
 10
0.0
 20
0.0
 30
0.0
 70
     1
  0
VERTEX
  5
45D
330
45C
100
AcDbEntity
  8
None
  6
Continuous
 62
     1
370
     5
100
AcDbVertex
100
AcDb2dVertex
 10
-1178.427919107642
 20
442.2075011637843
 30
0.0
  0
VERTEX
  5
45E
330
45C
100
AcDbEntity
  8
None
  6
Continuous
 62
     1
370
     5
100
AcDbVertex
100
AcDb2dVertex
 10
-1207.177919107642
 20
449.9110404461791
 30
0.0
  0
VERTEX
  5
45F
330
45C
100
AcDbEntity
  8
None
  6
Continuous
 62
     1
370
     5
100
AcDbVertex
100
AcDb2dVertex
 10
-1178.427919107642
 20
457.6145797285739
 30
0.0
  0
SEQEND
  5
460
330
45C
100
AcDbEntity
  8
None
  6
Continuous
 62
     1
370
     5
  0
HATCH
  5
461
330
1F
100
AcDbEntity
  8
None
  6
Continuous
 62
     1
370
     0
100
AcDbHatch
 10
0.0
 20
0.0
 30
0.0
210
0.0
220
0.0
230
1.0
  2
SOLID
 70
     1
 71
     1
 91
        1
 92
        1
 93
        3
 72
     1
 10
-1178.427919107642
 20
442.2075011637843
 11
-1207.177919107642
 21
449.9110404461791
 72
     1
 10
-1207.177919107642
 20
449.9110404461791
 11
-1178.427919107642
 21
457.6145797285739
 72
     1
 10
-1178.427919107642
 20
457.6145797285739
 11
-1178.427919107642
 21
442.2075011637843
 97
        1
330
45C
 75
     0
 76
     1
 98
        1
 10
0.0
 20
0.0
  0
INSERT
  5
462
330
1F
100
AcDbEntity
  8
None
 62
     7
100
AcDbBlockReference
  2
Group-23-1
 10
0.0
 20
0.0
 30
0.0
  0
WIPEOUT
  5
463
330
1F
100
AcDbEntity
  8
None
  6
Continuous
 62
     1
370
     9
 92
      152
310
98000000040000000C0000000E000000B20000000C00000016000000000000C20C00000014000000010000006C0000000700000004000000000000806D7371C0FFFFFFFFDA6661400000000000000000000000806D7371C01CC7711CEC9A6D400000000000000000721CC7F1897273C01CC7711CEC9A6D4000000000000000
310
00721CC7F1897273C0FFFFFFFFDA6661400000000000000000
100
AcDbWipeout
 90
        0
 10
-311.158677842882
 20
139.2142333984375
 30
0.0
 11
97.62708875868054
 21
0.0
 31
0.0
 12
0.0
 22
97.62708875868054
 32
0.0
 13
1.0
 23
1.0
340
0
 70
     4
280
     1
281
    50
282
    50
283
     0
360
0
 71
     2
 91
        5
 14
-0.1727911806997922
 24
0.5000000000000002
 14
-0.1727911806997922
 24
-0.5
 14
-0.5
 24
-0.5
 14
-0.5
 24
0.5000000000000002
 14
-0.1727911806997922
 24
0.5000000000000002
  0
MTEXT
  5
464
330
1F
100
AcDbEntity
  8
None
 62
     1
100
AcDbMText
 10
-309.4761300460465
 20
139.2142333984375
 30
0.0
 40
22.91467442538675
 41
0.0
 71
     1
 72
     1
  1
HVAC 
  7
Helvetica
 11
0.0
 21
1.0
 31
0.0
 73
     1
 44
0.8397955333929318
  0
WIPEOUT
  5
465
330
1F
100
AcDbEntity
  8
None
  6
Continuous
 62
     1
370
     9
 92
      152
310
98000000040000000C0000000E000000B20000000C00000016000000000000C20C00000014000000010000006C0000000700000004000000FFFFFF5FDBC094C089567BB3AFF077C00000000000000000FFFFFF5FDBC094C0FB724225A7D671C000000000000000001CC7717CA24095C0FB724225A7D671C000000000000000
310
001CC7717CA24095C089567BB3AFF077C00000000000000000
100
AcDbWipeout
 90
        0
 10
-1360.158677842882
 20
-383.0428957765477
 30
0.0
 11
97.6270887586806
 21
0.0
 31
0.0
 12
0.0
 22
97.6270887586806
 32
0.0
 13
1.0
 23
1.0
340
0
 70
     4
280
     1
281
    50
282
    50
283
     0
360
0
 71
     2
 91
        5
 14
-0.1727911806997895
 24
0.4999999999999987
 14
-0.1727911806997895
 24
-0.5000000000000009
 14
-0.4999999999999982
 24
-0.5000000000000009
 14
-0.4999999999999982
 24
0.4999999999999987
 14
-0.1727911806997895
 24
0.4999999999999987
  0
MTEXT
  5
466
330
1F
100
AcDbEntity
  8
None
 62
     1
100
AcDbMText
 10
-1358.476130046046
 20
-383.0428957765477
 30
0.0
 40
22.91467442538675
 41
0.0
 71
     1
 72
     1
  1
HVAC 
  7
Helvetica
 11
0.0
 21
1.0
 31
0.0
 73
     1
 44
0.8397955333929318
  0
WIPEOUT
  5
467
330
1F
100
AcDbEntity
  8
None
  6
Continuous
 62
     1
370
     9
 92
      152
310
98000000040000000C0000000E000000B20000000C00000016000000000000C20C00000014000000010000006C0000000700000004000000A2D5DE4C07ED93C0C7711CC771208F4000000000000000004D8089B73B5C91C0C7711CC771208F4000000000000000004D8089B73B5C91C0010000000010904000000000000000
310
00A2D5DE4C07ED93C001000000001090400000000000000000
100
AcDbWipeout
 90
        0
 10
-1275.257129174985
 20
996.0555555555554
 30
0.0
 11
164.1988118489583
 21
0.0
 31
0.0
 12
0.0
 22
164.1988118489583
 32
0.0
 13
1.0
 23
1.0
340
0
 70
     4
280
     1
281
    50
282
    50
283
     0
360
0
 71
     2
 91
        5
 14
-0.5000000000000018
 24
0.5
 14
0.4999999999999982
 24
0.5
 14
0.4999999999999982
 24
0.3054526455780362
 14
-0.5000000000000018
 24
0.3054526455780362
 14
-0.5000000000000018
 24
0.5
  0
MTEXT
  5
468
330
1F
100
AcDbEntity
  8
None
 62
     1
100
AcDbMText
 10
-1275.257129174985
 20
1026.317452203165
 30
0.0
 40
22.91467442538675
 41
0.0
 71
     1
 72
     1
  1
12' Loading
  7
Helvetica
 73
     1
 44
0.8397955333929318
  0
VIEWPORT
  5
469
330
1B
100
AcDbEntity
 67
     1
  8
0
100
AcDbViewport
 10
5.25
 20
4.0
 30
0.0
 40
11.638
 41
8.993
 68
     1
 69
     1
 12
5.25
 22
4.0
 13
0.0
 23
0.0
 14
0.5
 24
0.5
 15
0.5
 25
0.5
 16
0.0
 26
0.0
 36
1.0
 17
0.0
 27
0.0
 37
0.0
 42
50.0
 43
0.0
 44
0.0
 45
8.993
 50
0.0
 51
0.0
 72
   100
 90
   557152
  1

281
     0
 71
     1
 74
     0
110
0.0
120
0.0
130
0.0
111
1.0
121
0.0
131
0.0
112
0.0
122
1.0
132
0.0
 79
     0
146
0.0
  0
ENDSEC
  0
SECTION
  2
OBJECTS
  0
DICTIONARY
  5
C
330
0
100
AcDbDictionary
281
     1
  3
ACAD_GROUP
350
D
  3
ACAD_LAYOUT
350
1A
  3
ACAD_MATERIAL
350
3B
  3
ACAD_MLEADERSTYLE
350
46C
  3
ACAD_MLINESTYLE
350
17
  3
ACAD_PLOTSETTINGS
350
19
  3
ACAD_PLOTSTYLENAME
350
E
  3
ACAD_SCALELIST
350
1D5
  3
ACAD_VISUALSTYLE
350
2A
  3
ACAD_WIPEOUT_VARS
350
8A
  3
AcDbVariableDictionary
350
46A
  0
DICTIONARY
  5
D
102
{ACAD_REACTORS
330
C
102
}
330
C
100
AcDbDictionary
281
     1
  0
DICTIONARY
  5
1A
102
{ACAD_REACTORS
330
C
102
}
330
C
100
AcDbDictionary
281
     1
  3
Layout1
350
1E
  3
Model
350
22
  0
DICTIONARY
  5
3B
102
{ACAD_REACTORS
330
C
102
}
330
C
100
AcDbDictionary
281
     1
  3
ByBlock
350
3D
  3
ByLayer
350
3C
  3
Global
350
3E
  0
DICTIONARY
  5
46C
102
{ACAD_REACTORS
330
C
102
}
330
C
100
AcDbDictionary
281
     1
  0
DICTIONARY
  5
17
102
{ACAD_REACTORS
330
C
102
}
330
C
100
AcDbDictionary
281
     1
  3
Standard
350
18
  0
DICTIONARY
  5
19
102
{ACAD_REACTORS
330
C
102
}
330
C
100
AcDbDictionary
281
     1
  0
ACDBDICTIONARYWDFLT
  5
E
102
{ACAD_REACTORS
330
C
102
}
330
C
100
AcDbDictionary
281
     1
  3
Normal
350
F
100
AcDbDictionaryWithDefault
340
F
  0
DICTIONARY
  5
1D5
102
{ACAD_REACTORS
330
C
102
}
330
C
100
AcDbDictionary
281
     1
  3
A0
350
1D6
  3
A1
350
1D7
  3
A2
350
1D8
  3
A3
350
1D9
  3
A4
350
1DA
  3
A5
350
1DB
  3
A6
350
1DC
  3
A7
350
1DD
  3
A8
350
1DE
  3
A9
350
1DF
  3
B0
350
1E0
  3
B1
350
1E1
  3
B2
350
1E2
  3
B3
350
1E3
  3
B4
350
1E4
  3
B5
350
1E5
  3
B6
350
1E6
  3
B7
350
1E7
  3
B8
350
1E8
  3
B9
350
1E9
  3
C0
350
1EA
  3
C1
350
1EB
  3
C2
350
1EC
  3
C3
350
1ED
  3
C4
350
1EE
  3
C5
350
1EF
  3
C6
350
1F0
  3
C7
350
1F1
  3
C8
350
1F2
  3
C9
350
1F3
  3
D0
350
1F4
  3
D1
350
1F5
  3
D2
350
1F6
  0
DICTIONARY
  5
2A
102
{ACAD_REACTORS
330
C
102
}
330
C
100
AcDbDictionary
281
     1
  3
2dWireframe
350
2F
  3
3D Hidden
350
31
  3
3dWireframe
350
30
  3
Basic
350
32
  3
Brighten
350
36
  3
ColorChange
350
3A
  3
Conceptual
350
34
  3
Dim
350
35
  3
Facepattern
350
39
  3
Flat
350
2B
  3
FlatWithEdges
350
2C
  3
Gouraud
350
2D
  3
GouraudWithEdges
350
2E
  3
Linepattern
350
38
  3
Realistic
350
33
  3
Thicken
350
37
  0
WIPEOUTVARIABLES
  5
8A
102
{ACAD_REACTORS
330
C
102
}
330
C
100
AcDbWipeoutVariables
 70
     0
  0
DICTIONARY
  5
46A
102
{ACAD_REACTORS
330
C
102
}
330
C
100
AcDbDictionary
281
     1
  3
CANNOSCALE
350
46D
  3
DIMASSOC
350
46E
  3
HIDETEXT
350
46F
  0
LAYOUT
  5
1E
102
{ACAD_REACTORS
330
1A
102
}
330
1A
100
AcDbPlotSettings
  1

  2
none_device
  4
Letter_(8.50_x_11.00_Inches)
  6

 40
6.35
 41
6.35
 42
6.35001
 43
6.35001
 44
215.9
 45
279.4
 46
0.0
 47
0.0
 48
0.0
 49
0.0
140
0.0
141
0.0
142
1.0
143
1.0
 70
   688
 72
     0
 73
     1
 74
     5
  7

 75
    16
147
1.0
148
0.0
149
0.0
100
AcDbLayout
  1
Layout1
 70
     1
 71
     1
 10
-0.25
 20
-0.25
 11
10.75
 21
8.25
 12
0.0
 22
0.0
 32
0.0
 14
1.000000000000000E+20
 24
1.000000000000000E+20
 34
1.000000000000000E+20
 15
-1.000000000000000E+20
 25
-1.000000000000000E+20
 35
-1.000000000000000E+20
146
0.0
 13
0.0
 23
0.0
 33
0.0
 16
1.0
 26
0.0
 36
0.0
 17
0.0
 27
1.0
 37
0.0
 76
     0
330
1B
331
469
  0
LAYOUT
  5
22
102
{ACAD_REACTORS
330
1A
102
}
330
1A
100
AcDbPlotSettings
  1

  2
none_device
  4

  6

 40
0.0
 41
0.0
 42
0.0
 43
0.0
 44
0.0
 45
0.0
 46
0.0
 47
0.0
 48
0.0
 49
0.0
140
0.0
141
0.0
142
1.0
143
1.0
 70
  1712
 72
     0
 73
     0
 74
     0
  7

 75
     0
147
1.0
148
0.0
149
0.0
100
AcDbLayout
  1
Model
 70
     1
 71
     0
 10
0.0
 20
0.0
 11
12.0
 21
9.0
 12
0.0
 22
0.0
 32
0.0
 14
-1844.527559055118
 24
-1147.736220472441
 34
-18.975
 15
1835.472440944882
 25
1152.263779527559
 35
18.975
146
0.0
 13
0.0
 23
0.0
 33
0.0
 16
1.0
 26
0.0
 36
0.0
 17
0.0
 27
1.0
 37
0.0
 76
     0
330
1F
331
29
  0
MATERIAL
  5
3D
102
{ACAD_REACTORS
330
3B
102
}
102
{ACAD_XDICTIONARY
360
492
102
}
330
3B
100
AcDbMaterial
  1
ByBlock
  0
MATERIAL
  5
3C
102
{ACAD_REACTORS
330
3B
102
}
102
{ACAD_XDICTIONARY
360
490
102
}
330
3B
100
AcDbMaterial
  1
ByLayer
  0
MATERIAL
  5
3E
102
{ACAD_REACTORS
330
3B
102
}
102
{ACAD_XDICTIONARY
360
494
102
}
330
3B
100
AcDbMaterial
  1
Global
  0
MLINESTYLE
  5
18
102
{ACAD_REACTORS
330
17
102
}
330
17
100
AcDbMlineStyle
  2
Standard
 70
     0
  3

 62
   256
 51
90.0
 52
90.0
 71
     2
 49
0.5
 62
   256
  6
BYLAYER
 49
-0.5
 62
   256
  6
BYLAYER
  0
ACDBPLACEHOLDER
  5
F
102
{ACAD_REACTORS
330
E
102
}
330
E
  0
SCALE
  5
1D6
102
{ACAD_REACTORS
330
1D5
102
}
330
1D5
100
AcDbScale
 70
     0
300
1:1
140
1.0
141
1.0
290
     1
  0
SCALE
  5
1D7
102
{ACAD_REACTORS
330
1D5
102
}
330
1D5
100
AcDbScale
 70
     0
300
1:2
140
1.0
141
2.0
290
     0
  0
SCALE
  5
1D8
102
{ACAD_REACTORS
330
1D5
102
}
330
1D5
100
AcDbScale
 70
     0
300
1:4
140
1.0
141
4.0
290
     0
  0
SCALE
  5
1D9
102
{ACAD_REACTORS
330
1D5
102
}
330
1D5
100
AcDbScale
 70
     0
300
1:5
140
1.0
141
5.0
290
     0
  0
SCALE
  5
1DA
102
{ACAD_REACTORS
330
1D5
102
}
330
1D5
100
AcDbScale
 70
     0
300
1:8
140
1.0
141
8.0
290
     0
  0
SCALE
  5
1DB
102
{ACAD_REACTORS
330
1D5
102
}
330
1D5
100
AcDbScale
 70
     0
300
1:10
140
1.0
141
10.0
290
     0
  0
SCALE
  5
1DC
102
{ACAD_REACTORS
330
1D5
102
}
330
1D5
100
AcDbScale
 70
     0
300
1:16
140
1.0
141
16.0
290
     0
  0
SCALE
  5
1DD
102
{ACAD_REACTORS
330
1D5
102
}
330
1D5
100
AcDbScale
 70
     0
300
1:20
140
1.0
141
20.0
290
     0
  0
SCALE
  5
1DE
102
{ACAD_REACTORS
330
1D5
102
}
330
1D5
100
AcDbScale
 70
     0
300
1:30
140
1.0
141
30.0
290
     0
  0
SCALE
  5
1DF
102
{ACAD_REACTORS
330
1D5
102
}
330
1D5
100
AcDbScale
 70
     0
300
1:40
140
1.0
141
40.0
290
     0
  0
SCALE
  5
1E0
102
{ACAD_REACTORS
330
1D5
102
}
330
1D5
100
AcDbScale
 70
     0
300
1:50
140
1.0
141
50.0
290
     0
  0
SCALE
  5
1E1
102
{ACAD_REACTORS
330
1D5
102
}
330
1D5
100
AcDbScale
 70
     0
300
1:100
140
1.0
141
100.0
290
     0
  0
SCALE
  5
1E2
102
{ACAD_REACTORS
330
1D5
102
}
330
1D5
100
AcDbScale
 70
     0
300
2:1
140
2.0
141
1.0
290
     0
  0
SCALE
  5
1E3
102
{ACAD_REACTORS
330
1D5
102
}
330
1D5
100
AcDbScale
 70
     0
300
4:1
140
4.0
141
1.0
290
     0
  0
SCALE
  5
1E4
102
{ACAD_REACTORS
330
1D5
102
}
330
1D5
100
AcDbScale
 70
     0
300
8:1
140
8.0
141
1.0
290
     0
  0
SCALE
  5
1E5
102
{ACAD_REACTORS
330
1D5
102
}
330
1D5
100
AcDbScale
 70
     0
300
10:1
140
10.0
141
1.0
290
     0
  0
SCALE
  5
1E6
102
{ACAD_REACTORS
330
1D5
102
}
330
1D5
100
AcDbScale
 70
     0
300
100:1
140
100.0
141
1.0
290
     0
  0
SCALE
  5
1E7
102
{ACAD_REACTORS
330
1D5
102
}
330
1D5
100
AcDbScale
 70
     0
300
1/128" = 1'-0"
140
0.0078125
141
12.0
290
     0
  0
SCALE
  5
1E8
102
{ACAD_REACTORS
330
1D5
102
}
330
1D5
100
AcDbScale
 70
     0
300
1/64" = 1'-0"
140
0.015625
141
12.0
290
     0
  0
SCALE
  5
1E9
102
{ACAD_REACTORS
330
1D5
102
}
330
1D5
100
AcDbScale
 70
     0
300
1/32" = 1'-0"
140
0.03125
141
12.0
290
     0
  0
SCALE
  5
1EA
102
{ACAD_REACTORS
330
1D5
102
}
330
1D5
100
AcDbScale
 70
     0
300
1/16" = 1'-0"
140
0.0625
141
12.0
290
     0
  0
SCALE
  5
1EB
102
{ACAD_REACTORS
330
1D5
102
}
330
1D5
100
AcDbScale
 70
     0
300
3/32" = 1'-0"
140
0.09375
141
12.0
290
     0
  0
SCALE
  5
1EC
102
{ACAD_REACTORS
330
1D5
102
}
330
1D5
100
AcDbScale
 70
     0
300
1/8" = 1'-0"
140
0.125
141
12.0
290
     0
  0
SCALE
  5
1ED
102
{ACAD_REACTORS
330
1D5
102
}
330
1D5
100
AcDbScale
 70
     0
300
3/16" = 1'-0"
140
0.1875
141
12.0
290
     0
  0
SCALE
  5
1EE
102
{ACAD_REACTORS
330
1D5
102
}
330
1D5
100
AcDbScale
 70
     0
300
1/4" = 1'-0"
140
0.25
141
12.0
290
     0
  0
SCALE
  5
1EF
102
{ACAD_REACTORS
330
1D5
102
}
330
1D5
100
AcDbScale
 70
     0
300
3/8" = 1'-0"
140
0.375
141
12.0
290
     0
  0
SCALE
  5
1F0
102
{ACAD_REACTORS
330
1D5
102
}
330
1D5
100
AcDbScale
 70
     0
300
1/2" = 1'-0"
140
0.5
141
12.0
290
     0
  0
SCALE
  5
1F1
102
{ACAD_REACTORS
330
1D5
102
}
330
1D5
100
AcDbScale
 70
     0
300
3/4" = 1'-0"
140
0.75
141
12.0
290
     0
  0
SCALE
  5
1F2
102
{ACAD_REACTORS
330
1D5
102
}
330
1D5
100
AcDbScale
 70
     0
300
1" = 1'-0"
140
1.0
141
12.0
290
     0
  0
SCALE
  5
1F3
102
{ACAD_REACTORS
330
1D5
102
}
330
1D5
100
AcDbScale
 70
     0
300
1-1/2" = 1'-0"
140
1.5
141
12.0
290
     0
  0
SCALE
  5
1F4
102
{ACAD_REACTORS
330
1D5
102
}
330
1D5
100
AcDbScale
 70
     0
300
3" = 1'-0"
140
3.0
141
12.0
290
     0
  0
SCALE
  5
1F5
102
{ACAD_REACTORS
330
1D5
102
}
330
1D5
100
AcDbScale
 70
     0
300
6" = 1'-0"
140
6.0
141
12.0
290
     0
  0
SCALE
  5
1F6
102
{ACAD_REACTORS
330
1D5
102
}
330
1D5
100
AcDbScale
 70
     0
300
1'-0" = 1'-0"
140
12.0
141
12.0
290
     0
  0
VISUALSTYLE
  5
2F
102
{ACAD_REACTORS
330
2A
102
}
102
{ACAD_XDICTIONARY
360
478
102
}
330
2A
100
AcDbVisualStyle
  2
2dWireframe
 70
     4
 71
     0
 72
     2
 73
     0
 90
        0
 40
-0.6
 41
-30.0
 62
     5
 63
     7
 74
     1
 91
        4
 64
     7
 65
   257
 75
     1
175
     1
 42
1.0
 92
        0
 66
   257
 43
1.0
 76
     1
 77
     6
 78
     2
 67
     7
 79
     5
170
     0
171
     0
290
     0
174
     0
 93
        1
 44
0.0
173
     0
291
     0
 45
0.0
1001
ACAD
1000
AcDbSavedByObjectVersion
1070
     0
  0
VISUALSTYLE
  5
31
102
{ACAD_REACTORS
330
2A
102
}
102
{ACAD_XDICTIONARY
360
47C
102
}
330
2A
100
AcDbVisualStyle
  2
3D Hidden
 70
     6
 71
     1
 72
     2
 73
     2
 90
        0
 40
-0.6
 41
-30.0
 62
     5
 63
     7
 74
     2
 91
        2
 64
     7
 65
   257
 75
     2
175
     1
 42
40.0
 92
        0
 66
   257
 43
1.0
 76
     1
 77
     6
 78
     2
 67
     7
 79
     3
170
     0
171
     0
290
     0
174
     0
 93
        1
 44
0.0
173
     0
291
     0
 45
0.0
1001
ACAD
1000
AcDbSavedByObjectVersion
1070
     0
  0
VISUALSTYLE
  5
30
102
{ACAD_REACTORS
330
2A
102
}
102
{ACAD_XDICTIONARY
360
47A
102
}
330
2A
100
AcDbVisualStyle
  2
3dWireframe
 70
     5
 71
     0
 72
     2
 73
     0
 90
        0
 40
-0.6
 41
-30.0
 62
     5
 63
     7
 74
     1
 91
        4
 64
     7
 65
   257
 75
     1
175
     1
 42
1.0
 92
        0
 66
   257
 43
1.0
 76
     1
 77
     6
 78
     2
 67
     7
 79
     5
170
     0
171
     0
290
     0
174
     0
 93
        1
 44
0.0
173
     0
291
     0
 45
0.0
1001
ACAD
1000
AcDbSavedByObjectVersion
1070
     0
  0
VISUALSTYLE
  5
32
102
{ACAD_REACTORS
330
2A
102
}
102
{ACAD_XDICTIONARY
360
47E
102
}
330
2A
100
AcDbVisualStyle
  2
Basic
 70
     7
 71
     1
 72
     0
 73
     1
 90
        0
 40
-0.6
 41
-30.0
 62
     5
 63
     7
 74
     0
 91
        4
 64
     7
 65
   257
 75
     1
175
     1
 42
1.0
 92
        8
 66
     7
 43
1.0
 76
     1
 77
     6
 78
     2
 67
     7
 79
     5
170
     0
171
     0
290
     0
174
     0
 93
        1
 44
0.0
173
     0
291
     1
 45
0.0
1001
ACAD
1000
AcDbSavedByObjectVersion
1070
     0
  0
VISUALSTYLE
  5
36
102
{ACAD_REACTORS
330
2A
102
}
102
{ACAD_XDICTIONARY
360
486
102
}
330
2A
100
AcDbVisualStyle
  2
Brighten
 70
    12
 71
     2
 72
     2
 73
     0
 90
        0
 40
-0.6
 41
-30.0
 62
     5
 63
     7
 74
     1
 91
        4
 64
     7
 65
   257
 75
     1
175
     1
 42
1.0
 92
        8
 66
     7
 43
1.0
 76
     1
 77
     6
 78
     2
 67
     7
 79
     5
170
     0
171
     0
290
     0
174
     0
 93
        1
 44
50.0
173
     0
291
     1
 45
0.0
1001
ACAD
1000
AcDbSavedByObjectVersion
1070
     0
  0
VISUALSTYLE
  5
3A
102
{ACAD_REACTORS
330
2A
102
}
102
{ACAD_XDICTIONARY
360
48E
102
}
330
2A
100
AcDbVisualStyle
  2
ColorChange
 70
    16
 71
     2
 72
     2
 73
     3
 90
        0
 40
-0.6
 41
-30.0
 62
     5
 63
     8
 74
     1
 91
        4
 64
     7
 65
   257
 75
     1
175
     1
 42
1.0
 92
        8
 66
     8
 43
1.0
 76
     1
 77
     6
 78
     2
 67
     7
 79
     5
170
     0
171
     0
290
     0
174
     0
 93
        1
 44
0.0
173
     0
291
     1
 45
0.0
1001
ACAD
1000
AcDbSavedByObjectVersion
1070
     0
  0
VISUALSTYLE
  5
34
102
{ACAD_REACTORS
330
2A
102
}
102
{ACAD_XDICTIONARY
360
482
102
}
330
2A
100
AcDbVisualStyle
  2
Conceptual
 70
     9
 71
     3
 72
     2
 73
     0
 90
        0
 40
-0.6
 41
-30.0
 62
     5
 63
     7
 74
     2
 91
        2
 64
     7
 65
   257
 75
     1
175
     1
 42
40.0
 92
        8
 66
     7
 43
1.0
 76
     1
 77
     6
 78
     2
 67
     7
 79
     3
170
     0
171
     0
290
     0
174
     0
 93
        1
 44
0.0
173
     0
291
     0
 45
0.0
1001
ACAD
1000
AcDbSavedByObjectVersion
1070
     0
  0
VISUALSTYLE
  5
35
102
{ACAD_REACTORS
330
2A
102
}
102
{ACAD_XDICTIONARY
360
484
102
}
330
2A
100
AcDbVisualStyle
  2
Dim
 70
    11
 71
     2
 72
     2
 73
     0
 90
        0
 40
-0.6
 41
-30.0
 62
     5
 63
     7
 74
     1
 91
        4
 64
     7
 65
   257
 75
     1
175
     1
 42
1.0
 92
        8
 66
     7
 43
1.0
 76
     1
 77
     6
 78
     2
 67
     7
 79
     5
170
     0
171
     0
290
     0
174
     0
 93
        1
 44
-50.0
173
     0
291
     1
 45
0.0
1001
ACAD
1000
AcDbSavedByObjectVersion
1070
     0
  0
VISUALSTYLE
  5
39
102
{ACAD_REACTORS
330
2A
102
}
102
{ACAD_XDICTIONARY
360
48C
102
}
330
2A
100
AcDbVisualStyle
  2
Facepattern
 70
    15
 71
     2
 72
     2
 73
     0
 90
        0
 40
-0.6
 41
-30.0
 62
     5
 63
     7
 74
     1
 91
        4
 64
     7
 65
   257
 75
     1
175
     1
 42
1.0
 92
        8
 66
     7
 43
1.0
 76
     1
 77
     6
 78
     2
 67
     7
 79
     5
170
     0
171
     0
290
     0
174
     0
 93
        1
 44
0.0
173
     0
291
     1
 45
0.0
1001
ACAD
1000
AcDbSavedByObjectVersion
1070
     0
  0
VISUALSTYLE
  5
2B
102
{ACAD_REACTORS
330
2A
102
}
102
{ACAD_XDICTIONARY
360
470
102
}
330
2A
100
AcDbVisualStyle
  2
Flat
 70
     0
 71
     2
 72
     1
 73
     1
 90
        2
 40
-0.6
 41
30.0
 62
     5
 63
     7
 74
     0
 91
        4
 64
     7
 65
   257
 75
     1
175
     1
 42
1.0
 92
        8
 66
     7
 43
1.0
 76
     1
 77
     6
 78
     2
 67
     7
 79
     5
170
     0
171
     0
290
     0
174
     0
 93
       13
 44
0.0
173
     0
291
     1
 45
0.0
1001
ACAD
1000
AcDbSavedByObjectVersion
1070
     0
  0
VISUALSTYLE
  5
2C
102
{ACAD_REACTORS
330
2A
102
}
102
{ACAD_XDICTIONARY
360
472
102
}
330
2A
100
AcDbVisualStyle
  2
FlatWithEdges
 70
     1
 71
     2
 72
     1
 73
     1
 90
        2
 40
-0.6
 41
30.0
 62
     5
 63
     7
 74
     1
 91
        4
 64
     7
 65
   257
 75
     1
175
     1
 42
1.0
 92
        0
 66
   257
 43
1.0
 76
     1
 77
     6
 78
     2
 67
     7
 79
     5
170
     0
171
     0
290
     0
174
     0
 93
       13
 44
0.0
173
     0
291
     1
 45
0.0
1001
ACAD
1000
AcDbSavedByObjectVersion
1070
     0
  0
VISUALSTYLE
  5
2D
102
{ACAD_REACTORS
330
2A
102
}
102
{ACAD_XDICTIONARY
360
474
102
}
330
2A
100
AcDbVisualStyle
  2
Gouraud
 70
     2
 71
     2
 72
     2
 73
     1
 90
        2
 40
-0.6
 41
30.0
 62
     5
 63
     7
 74
     0
 91
        4
 64
     7
 65
   257
 75
     1
175
     1
 42
1.0
 92
        0
 66
     7
 43
1.0
 76
     1
 77
     6
 78
     2
 67
     7
 79
     5
170
     0
171
     0
290
     0
174
     0
 93
       13
 44
0.0
173
     0
291
     1
 45
0.0
1001
ACAD
1000
AcDbSavedByObjectVersion
1070
     0
  0
VISUALSTYLE
  5
2E
102
{ACAD_REACTORS
330
2A
102
}
102
{ACAD_XDICTIONARY
360
476
102
}
330
2A
100
AcDbVisualStyle
  2
GouraudWithEdges
 70
     3
 71
     2
 72
     2
 73
     1
 90
        2
 40
-0.6
 41
30.0
 62
     5
 63
     7
 74
     1
 91
        4
 64
     7
 65
   257
 75
     1
175
     1
 42
1.0
 92
        0
 66
   257
 43
1.0
 76
     1
 77
     6
 78
     2
 67
     7
 79
     5
170
     0
171
     0
290
     0
174
     0
 93
       13
 44
0.0
173
     0
291
     1
 45
0.0
1001
ACAD
1000
AcDbSavedByObjectVersion
1070
     0
  0
VISUALSTYLE
  5
38
102
{ACAD_REACTORS
330
2A
102
}
102
{ACAD_XDICTIONARY
360
48A
102
}
330
2A
100
AcDbVisualStyle
  2
Linepattern
 70
    14
 71
     2
 72
     2
 73
     0
 90
        0
 40
-0.6
 41
-30.0
 62
     5
 63
     7
 74
     1
 91
        4
 64
     7
 65
   257
 75
     7
175
     7
 42
1.0
 92
        8
 66
     7
 43
1.0
 76
     1
 77
     6
 78
     2
 67
     7
 79
     5
170
     0
171
     0
290
     0
174
     0
 93
        1
 44
0.0
173
     0
291
     1
 45
0.0
1001
ACAD
1000
AcDbSavedByObjectVersion
1070
     0
  0
VISUALSTYLE
  5
33
102
{ACAD_REACTORS
330
2A
102
}
102
{ACAD_XDICTIONARY
360
480
102
}
330
2A
100
AcDbVisualStyle
  2
Realistic
 70
     8
 71
     2
 72
     2
 73
     0
 90
        0
 40
-0.6
 41
-30.0
 62
     5
 63
     7
 74
     1
 91
        0
 64
     7
 65
   257
 75
     1
175
     1
 42
1.0
 92
        8
 66
     8
 43
1.0
 76
     1
 77
     6
 78
     2
 67
     7
 79
     5
170
     0
171
     0
290
     0
174
     0
 93
       13
 44
0.0
173
     0
291
     0
 45
0.0
1001
ACAD
1000
AcDbSavedByObjectVersion
1070
     0
  0
VISUALSTYLE
  5
37
102
{ACAD_REACTORS
330
2A
102
}
102
{ACAD_XDICTIONARY
360
488
102
}
330
2A
100
AcDbVisualStyle
  2
Thicken
 70
    13
 71
     2
 72
     2
 73
     0
 90
        0
 40
-0.6
 41
-30.0
 62
     5
 63
     7
 74
     1
 91
        4
 64
     7
 65
   257
 75
     1
175
     1
 42
1.0
 92
       12
 66
     7
 43
1.0
 76
     1
 77
     6
 78
     2
 67
     7
 79
     5
170
     0
171
     0
290
     0
174
     0
 93
        1
 44
0.0
173
     0
291
     1
 45
0.0
1001
ACAD
1000
AcDbSavedByObjectVersion
1070
     0
  0
DICTIONARYVAR
  5
46D
102
{ACAD_REACTORS
330
46A
102
}
330
46A
100
DictionaryVariables
280
     0
  1
1:1
  0
DICTIONARYVAR
  5
46E
102
{ACAD_REACTORS
330
46A
102
}
330
46A
100
DictionaryVariables
280
     0
  1
2
  0
DICTIONARYVAR
  5
46F
102
{ACAD_REACTORS
330
46A
102
}
330
46A
100
DictionaryVariables
280
     0
  1
1
  0
DICTIONARY
  5
492
330
3D
100
AcDbDictionary
280
     1
281
     1
  3
ACAD_XREC_ROUNDTRIP
360
493
  0
DICTIONARY
  5
490
330
3C
100
AcDbDictionary
280
     1
281
     1
  3
ACAD_XREC_ROUNDTRIP
360
491
  0
DICTIONARY
  5
494
330
3E
100
AcDbDictionary
280
     1
281
     1
  3
ACAD_XREC_ROUNDTRIP
360
495
  0
DICTIONARY
  5
478
330
2F
100
AcDbDictionary
280
     1
281
     1
  3
ACAD_XREC_ROUNDTRIP
360
479
  0
DICTIONARY
  5
47C
330
31
100
AcDbDictionary
280
     1
281
     1
  3
ACAD_XREC_ROUNDTRIP
360
47D
  0
DICTIONARY
  5
47A
330
30
100
AcDbDictionary
280
     1
281
     1
  3
ACAD_XREC_ROUNDTRIP
360
47B
  0
DICTIONARY
  5
47E
330
32
100
AcDbDictionary
280
     1
281
     1
  3
ACAD_XREC_ROUNDTRIP
360
47F
  0
DICTIONARY
  5
486
330
36
100
AcDbDictionary
280
     1
281
     1
  3
ACAD_XREC_ROUNDTRIP
360
487
  0
DICTIONARY
  5
48E
330
3A
100
AcDbDictionary
280
     1
281
     1
  3
ACAD_XREC_ROUNDTRIP
360
48F
  0
DICTIONARY
  5
482
330
34
100
AcDbDictionary
280
     1
281
     1
  3
ACAD_XREC_ROUNDTRIP
360
483
  0
DICTIONARY
  5
484
330
35
100
AcDbDictionary
280
     1
281
     1
  3
ACAD_XREC_ROUNDTRIP
360
485
  0
DICTIONARY
  5
48C
330
39
100
AcDbDictionary
280
     1
281
     1
  3
ACAD_XREC_ROUNDTRIP
360
48D
  0
DICTIONARY
  5
470
330
2B
100
AcDbDictionary
280
     1
281
     1
  3
ACAD_XREC_ROUNDTRIP
360
471
  0
DICTIONARY
  5
472
330
2C
100
AcDbDictionary
280
     1
281
     1
  3
ACAD_XREC_ROUNDTRIP
360
473
  0
DICTIONARY
  5
474
330
2D
100
AcDbDictionary
280
     1
281
     1
  3
ACAD_XREC_ROUNDTRIP
360
475
  0
DICTIONARY
  5
476
330
2E
100
AcDbDictionary
280
     1
281
     1
  3
ACAD_XREC_ROUNDTRIP
360
477
  0
DICTIONARY
  5
48A
330
38
100
AcDbDictionary
280
     1
281
     1
  3
ACAD_XREC_ROUNDTRIP
360
48B
  0
DICTIONARY
  5
480
330
33
100
AcDbDictionary
280
     1
281
     1
  3
ACAD_XREC_ROUNDTRIP
360
481
  0
DICTIONARY
  5
488
330
37
100
AcDbDictionary
280
     1
281
     1
  3
ACAD_XREC_ROUNDTRIP
360
489
  0
XRECORD
  5
493
102
{ACAD_REACTORS
330
492
102
}
330
492
100
AcDbXrecord
280
     1
102
MATERIAL
148
0.0
149
0.0
149
0.0
 93
        0
 94
      127
282
     0
 72
     1
 77
     1
171
     1
175
     1
179
     1
273
     0
  0
XRECORD
  5
491
102
{ACAD_REACTORS
330
490
102
}
330
490
100
AcDbXrecord
280
     1
102
MATERIAL
148
0.0
149
0.0
149
0.0
 93
        0
 94
      127
282
     0
 72
     1
 77
     1
171
     1
175
     1
179
     1
273
     0
  0
XRECORD
  5
495
102
{ACAD_REACTORS
330
494
102
}
330
494
100
AcDbXrecord
280
     1
102
MATERIAL
148
0.0
149
0.0
149
0.0
 93
        0
 94
      127
282
     0
 72
     1
 77
     1
171
     1
175
     1
179
     1
273
     0
  0
XRECORD
  5
479
102
{ACAD_REACTORS
330
478
102
}
330
478
100
AcDbXrecord
280
     1
102
RTVSPropertyOp0
 70
     1
102
RTVSPropertyOp1
 70
     1
102
RTVSPropertyOp2
 70
     1
102
RTVSPropertyOp3
 70
     1
102
RTVSPropertyOp4
 70
     1
102
RTVSPropertyOp5
 70
     1
102
RTVSPropertyOp6
 70
     1
102
RTVSPropertyOp7
 70
     1
102
RTVSPropertyOp8
 70
     1
102
RTVSPropertyOp9
 70
     1
102
RTVSPropertyOp10
 70
     1
102
RTVSPropertyOp11
 70
     1
102
RTVSPropertyOp12
 70
     1
102
RTVSPropertyOp13
 70
     1
102
RTVSPropertyOp14
 70
     1
102
RTVSPropertyOp15
 70
     1
102
RTVSPropertyOp16
 70
     1
102
RTVSPropertyOp17
 70
     1
102
RTVSPropertyOp18
 70
     1
102
RTVSPropertyOp19
 70
     1
102
RTVSPropertyOp20
 70
     1
102
RTVSPropertyOp21
 70
     1
102
RTVSPropertyOp22
 70
     1
102
RTVSPropertyOp23
 70
     1
102
RTVSPropertyOp24
 70
     1
102
RTVSPropertyOp25
 70
     1
102
RTVSPropertyOp26
 70
     1
102
RTVSPropertyOp27
 70
     1
  0
XRECORD
  5
47D
102
{ACAD_REACTORS
330
47C
102
}
330
47C
100
AcDbXrecord
280
     1
102
RTVSPropertyOp0
 70
     1
102
RTVSPropertyOp1
 70
     1
102
RTVSPropertyOp2
 70
     1
102
RTVSPropertyOp3
 70
     1
102
RTVSPropertyOp4
 70
     1
102
RTVSPropertyOp5
 70
     1
102
RTVSPropertyOp6
 70
     1
102
RTVSPropertyOp7
 70
     1
102
RTVSPropertyOp8
 70
     1
102
RTVSPropertyOp9
 70
     1
102
RTVSPropertyOp10
 70
     1
102
RTVSPropertyOp11
 70
     1
102
RTVSPropertyOp12
 70
     1
102
RTVSPropertyOp13
 70
     1
102
RTVSPropertyOp14
 70
     1
102
RTVSPropertyOp15
 70
     1
102
RTVSPropertyOp16
 70
     1
102
RTVSPropertyOp17
 70
     1
102
RTVSPropertyOp18
 70
     1
102
RTVSPropertyOp19
 70
     1
102
RTVSPropertyOp20
 70
     1
102
RTVSPropertyOp21
 70
     1
102
RTVSPropertyOp22
 70
     1
102
RTVSPropertyOp23
 70
     1
102
RTVSPropertyOp24
 70
     1
102
RTVSPropertyOp25
 70
     1
102
RTVSPropertyOp26
 70
     1
102
RTVSPropertyOp27
 70
     1
  0
XRECORD
  5
47B
102
{ACAD_REACTORS
330
47A
102
}
330
47A
100
AcDbXrecord
280
     1
102
RTVSPropertyOp0
 70
     1
102
RTVSPropertyOp1
 70
     1
102
RTVSPropertyOp2
 70
     1
102
RTVSPropertyOp3
 70
     1
102
RTVSPropertyOp4
 70
     1
102
RTVSPropertyOp5
 70
     1
102
RTVSPropertyOp6
 70
     1
102
RTVSPropertyOp7
 70
     1
102
RTVSPropertyOp8
 70
     1
102
RTVSPropertyOp9
 70
     1
102
RTVSPropertyOp10
 70
     1
102
RTVSPropertyOp11
 70
     1
102
RTVSPropertyOp12
 70
     1
102
RTVSPropertyOp13
 70
     1
102
RTVSPropertyOp14
 70
     1
102
RTVSPropertyOp15
 70
     1
102
RTVSPropertyOp16
 70
     1
102
RTVSPropertyOp17
 70
     1
102
RTVSPropertyOp18
 70
     1
102
RTVSPropertyOp19
 70
     1
102
RTVSPropertyOp20
 70
     1
102
RTVSPropertyOp21
 70
     1
102
RTVSPropertyOp22
 70
     1
102
RTVSPropertyOp23
 70
     1
102
RTVSPropertyOp24
 70
     1
102
RTVSPropertyOp25
 70
     1
102
RTVSPropertyOp26
 70
     1
102
RTVSPropertyOp27
 70
     1
  0
XRECORD
  5
47F
102
{ACAD_REACTORS
330
47E
102
}
330
47E
100
AcDbXrecord
280
     1
102
RTVSPropertyOp0
 70
     1
102
RTVSPropertyOp1
 70
     1
102
RTVSPropertyOp2
 70
     1
102
RTVSPropertyOp3
 70
     1
102
RTVSPropertyOp4
 70
     1
102
RTVSPropertyOp5
 70
     1
102
RTVSPropertyOp6
 70
     1
102
RTVSPropertyOp7
 70
     1
102
RTVSPropertyOp8
 70
     1
102
RTVSPropertyOp9
 70
     1
102
RTVSPropertyOp10
 70
     1
102
RTVSPropertyOp11
 70
     1
102
RTVSPropertyOp12
 70
     1
102
RTVSPropertyOp13
 70
     1
102
RTVSPropertyOp14
 70
     1
102
RTVSPropertyOp15
 70
     1
102
RTVSPropertyOp16
 70
     1
102
RTVSPropertyOp17
 70
     1
102
RTVSPropertyOp18
 70
     1
102
RTVSPropertyOp19
 70
     1
102
RTVSPropertyOp20
 70
     1
102
RTVSPropertyOp21
 70
     1
102
RTVSPropertyOp22
 70
     1
102
RTVSPropertyOp23
 70
     1
102
RTVSPropertyOp24
 70
     1
102
RTVSPropertyOp25
 70
     1
102
RTVSPropertyOp26
 70
     1
102
RTVSPropertyOp27
 70
     1
  0
XRECORD
  5
487
102
{ACAD_REACTORS
330
486
102
}
330
486
100
AcDbXrecord
280
     1
102
RTVSPropertyOp0
 70
     1
102
RTVSPropertyOp1
 70
     1
102
RTVSPropertyOp2
 70
     1
102
RTVSPropertyOp3
 70
     1
102
RTVSPropertyOp4
 70
     1
102
RTVSPropertyOp5
 70
     1
102
RTVSPropertyOp6
 70
     1
102
RTVSPropertyOp7
 70
     1
102
RTVSPropertyOp8
 70
     1
102
RTVSPropertyOp9
 70
     1
102
RTVSPropertyOp10
 70
     1
102
RTVSPropertyOp11
 70
     1
102
RTVSPropertyOp12
 70
     1
102
RTVSPropertyOp13
 70
     1
102
RTVSPropertyOp14
 70
     1
102
RTVSPropertyOp15
 70
     1
102
RTVSPropertyOp16
 70
     1
102
RTVSPropertyOp17
 70
     1
102
RTVSPropertyOp18
 70
     1
102
RTVSPropertyOp19
 70
     1
102
RTVSPropertyOp20
 70
     1
102
RTVSPropertyOp21
 70
     1
102
RTVSPropertyOp22
 70
     1
102
RTVSPropertyOp23
 70
     1
102
RTVSPropertyOp24
 70
     1
102
RTVSPropertyOp25
 70
     1
102
RTVSPropertyOp26
 70
     1
102
RTVSPropertyOp27
 70
     1
  0
XRECORD
  5
48F
102
{ACAD_REACTORS
330
48E
102
}
330
48E
100
AcDbXrecord
280
     1
102
RTVSPropertyOp0
 70
     1
102
RTVSPropertyOp1
 70
     1
102
RTVSPropertyOp2
 70
     1
102
RTVSPropertyOp3
 70
     1
102
RTVSPropertyOp4
 70
     1
102
RTVSPropertyOp5
 70
     1
102
RTVSPropertyOp6
 70
     1
102
RTVSPropertyOp7
 70
     1
102
RTVSPropertyOp8
 70
     1
102
RTVSPropertyOp9
 70
     1
102
RTVSPropertyOp10
 70
     1
102
RTVSPropertyOp11
 70
     1
102
RTVSPropertyOp12
 70
     1
102
RTVSPropertyOp13
 70
     1
102
RTVSPropertyOp14
 70
     1
102
RTVSPropertyOp15
 70
     1
102
RTVSPropertyOp16
 70
     1
102
RTVSPropertyOp17
 70
     1
102
RTVSPropertyOp18
 70
     1
102
RTVSPropertyOp19
 70
     1
102
RTVSPropertyOp20
 70
     1
102
RTVSPropertyOp21
 70
     1
102
RTVSPropertyOp22
 70
     1
102
RTVSPropertyOp23
 70
     1
102
RTVSPropertyOp24
 70
     1
102
RTVSPropertyOp25
 70
     1
102
RTVSPropertyOp26
 70
     1
102
RTVSPropertyOp27
 70
     1
  0
XRECORD
  5
483
102
{ACAD_REACTORS
330
482
102
}
330
482
100
AcDbXrecord
280
     1
102
RTVSPropertyOp0
 70
     1
102
RTVSPropertyOp1
 70
     1
102
RTVSPropertyOp2
 70
     1
102
RTVSPropertyOp3
 70
     1
102
RTVSPropertyOp4
 70
     1
102
RTVSPropertyOp5
 70
     1
102
RTVSPropertyOp6
 70
     1
102
RTVSPropertyOp7
 70
     1
102
RTVSPropertyOp8
 70
     1
102
RTVSPropertyOp9
 70
     1
102
RTVSPropertyOp10
 70
     1
102
RTVSPropertyOp11
 70
     1
102
RTVSPropertyOp12
 70
     1
102
RTVSPropertyOp13
 70
     1
102
RTVSPropertyOp14
 70
     1
102
RTVSPropertyOp15
 70
     1
102
RTVSPropertyOp16
 70
     1
102
RTVSPropertyOp17
 70
     1
102
RTVSPropertyOp18
 70
     1
102
RTVSPropertyOp19
 70
     1
102
RTVSPropertyOp20
 70
     1
102
RTVSPropertyOp21
 70
     1
102
RTVSPropertyOp22
 70
     1
102
RTVSPropertyOp23
 70
     1
102
RTVSPropertyOp24
 70
     1
102
RTVSPropertyOp25
 70
     1
102
RTVSPropertyOp26
 70
     1
102
RTVSPropertyOp27
 70
     1
  0
XRECORD
  5
485
102
{ACAD_REACTORS
330
484
102
}
330
484
100
AcDbXrecord
280
     1
102
RTVSPropertyOp0
 70
     1
102
RTVSPropertyOp1
 70
     1
102
RTVSPropertyOp2
 70
     1
102
RTVSPropertyOp3
 70
     1
102
RTVSPropertyOp4
 70
     1
102
RTVSPropertyOp5
 70
     1
102
RTVSPropertyOp6
 70
     1
102
RTVSPropertyOp7
 70
     1
102
RTVSPropertyOp8
 70
     1
102
RTVSPropertyOp9
 70
     1
102
RTVSPropertyOp10
 70
     1
102
RTVSPropertyOp11
 70
     1
102
RTVSPropertyOp12
 70
     1
102
RTVSPropertyOp13
 70
     1
102
RTVSPropertyOp14
 70
     1
102
RTVSPropertyOp15
 70
     1
102
RTVSPropertyOp16
 70
     1
102
RTVSPropertyOp17
 70
     1
102
RTVSPropertyOp18
 70
     1
102
RTVSPropertyOp19
 70
     1
102
RTVSPropertyOp20
 70
     1
102
RTVSPropertyOp21
 70
     1
102
RTVSPropertyOp22
 70
     1
102
RTVSPropertyOp23
 70
     1
102
RTVSPropertyOp24
 70
     1
102
RTVSPropertyOp25
 70
     1
102
RTVSPropertyOp26
 70
     1
102
RTVSPropertyOp27
 70
     1
  0
XRECORD
  5
48D
102
{ACAD_REACTORS
330
48C
102
}
330
48C
100
AcDbXrecord
280
     1
102
RTVSPropertyOp0
 70
     1
102
RTVSPropertyOp1
 70
     1
102
RTVSPropertyOp2
 70
     1
102
RTVSPropertyOp3
 70
     1
102
RTVSPropertyOp4
 70
     1
102
RTVSPropertyOp5
 70
     1
102
RTVSPropertyOp6
 70
     1
102
RTVSPropertyOp7
 70
     1
102
RTVSPropertyOp8
 70
     1
102
RTVSPropertyOp9
 70
     1
102
RTVSPropertyOp10
 70
     1
102
RTVSPropertyOp11
 70
     1
102
RTVSPropertyOp12
 70
     1
102
RTVSPropertyOp13
 70
     1
102
RTVSPropertyOp14
 70
     1
102
RTVSPropertyOp15
 70
     1
102
RTVSPropertyOp16
 70
     1
102
RTVSPropertyOp17
 70
     1
102
RTVSPropertyOp18
 70
     1
102
RTVSPropertyOp19
 70
     1
102
RTVSPropertyOp20
 70
     1
102
RTVSPropertyOp21
 70
     1
102
RTVSPropertyOp22
 70
     1
102
RTVSPropertyOp23
 70
     1
102
RTVSPropertyOp24
 70
     1
102
RTVSPropertyOp25
 70
     1
102
RTVSPropertyOp26
 70
     1
102
RTVSPropertyOp27
 70
     1
  0
XRECORD
  5
471
102
{ACAD_REACTORS
330
470
102
}
330
470
100
AcDbXrecord
280
     1
102
RTVSPropertyOp0
 70
     1
102
RTVSPropertyOp1
 70
     1
102
RTVSPropertyOp2
 70
     1
102
RTVSPropertyOp3
 70
     1
102
RTVSPropertyOp4
 70
     1
102
RTVSPropertyOp5
 70
     1
102
RTVSPropertyOp6
 70
     1
102
RTVSPropertyOp7
 70
     1
102
RTVSPropertyOp8
 70
     1
102
RTVSPropertyOp9
 70
     1
102
RTVSPropertyOp10
 70
     1
102
RTVSPropertyOp11
 70
     1
102
RTVSPropertyOp12
 70
     1
102
RTVSPropertyOp13
 70
     1
102
RTVSPropertyOp14
 70
     1
102
RTVSPropertyOp15
 70
     1
102
RTVSPropertyOp16
 70
     1
102
RTVSPropertyOp17
 70
     1
102
RTVSPropertyOp18
 70
     1
102
RTVSPropertyOp19
 70
     1
102
RTVSPropertyOp20
 70
     1
102
RTVSPropertyOp21
 70
     1
102
RTVSPropertyOp22
 70
     1
102
RTVSPropertyOp23
 70
     1
102
RTVSPropertyOp24
 70
     1
102
RTVSPropertyOp25
 70
     1
102
RTVSPropertyOp26
 70
     1
102
RTVSPropertyOp27
 70
     1
  0
XRECORD
  5
473
102
{ACAD_REACTORS
330
472
102
}
330
472
100
AcDbXrecord
280
     1
102
RTVSPropertyOp0
 70
     1
102
RTVSPropertyOp1
 70
     1
102
RTVSPropertyOp2
 70
     1
102
RTVSPropertyOp3
 70
     1
102
RTVSPropertyOp4
 70
     1
102
RTVSPropertyOp5
 70
     1
102
RTVSPropertyOp6
 70
     1
102
RTVSPropertyOp7
 70
     1
102
RTVSPropertyOp8
 70
     1
102
RTVSPropertyOp9
 70
     1
102
RTVSPropertyOp10
 70
     1
102
RTVSPropertyOp11
 70
     1
102
RTVSPropertyOp12
 70
     1
102
RTVSPropertyOp13
 70
     1
102
RTVSPropertyOp14
 70
     1
102
RTVSPropertyOp15
 70
     1
102
RTVSPropertyOp16
 70
     1
102
RTVSPropertyOp17
 70
     1
102
RTVSPropertyOp18
 70
     1
102
RTVSPropertyOp19
 70
     1
102
RTVSPropertyOp20
 70
     1
102
RTVSPropertyOp21
 70
     1
102
RTVSPropertyOp22
 70
     1
102
RTVSPropertyOp23
 70
     1
102
RTVSPropertyOp24
 70
     1
102
RTVSPropertyOp25
 70
     1
102
RTVSPropertyOp26
 70
     1
102
RTVSPropertyOp27
 70
     1
  0
XRECORD
  5
475
102
{ACAD_REACTORS
330
474
102
}
330
474
100
AcDbXrecord
280
     1
102
RTVSPropertyOp0
 70
     1
102
RTVSPropertyOp1
 70
     1
102
RTVSPropertyOp2
 70
     1
102
RTVSPropertyOp3
 70
     1
102
RTVSPropertyOp4
 70
     1
102
RTVSPropertyOp5
 70
     1
102
RTVSPropertyOp6
 70
     1
102
RTVSPropertyOp7
 70
     1
102
RTVSPropertyOp8
 70
     1
102
RTVSPropertyOp9
 70
     1
102
RTVSPropertyOp10
 70
     1
102
RTVSPropertyOp11
 70
     1
102
RTVSPropertyOp12
 70
     1
102
RTVSPropertyOp13
 70
     1
102
RTVSPropertyOp14
 70
     1
102
RTVSPropertyOp15
 70
     1
102
RTVSPropertyOp16
 70
     1
102
RTVSPropertyOp17
 70
     1
102
RTVSPropertyOp18
 70
     1
102
RTVSPropertyOp19
 70
     1
102
RTVSPropertyOp20
 70
     1
102
RTVSPropertyOp21
 70
     1
102
RTVSPropertyOp22
 70
     1
102
RTVSPropertyOp23
 70
     1
102
RTVSPropertyOp24
 70
     1
102
RTVSPropertyOp25
 70
     1
102
RTVSPropertyOp26
 70
     1
102
RTVSPropertyOp27
 70
     1
  0
XRECORD
  5
477
102
{ACAD_REACTORS
330
476
102
}
330
476
100
AcDbXrecord
280
     1
102
RTVSPropertyOp0
 70
     1
102
RTVSPropertyOp1
 70
     1
102
RTVSPropertyOp2
 70
     1
102
RTVSPropertyOp3
 70
     1
102
RTVSPropertyOp4
 70
     1
102
RTVSPropertyOp5
 70
     1
102
RTVSPropertyOp6
 70
     1
102
RTVSPropertyOp7
 70
     1
102
RTVSPropertyOp8
 70
     1
102
RTVSPropertyOp9
 70
     1
102
RTVSPropertyOp10
 70
     1
102
RTVSPropertyOp11
 70
     1
102
RTVSPropertyOp12
 70
     1
102
RTVSPropertyOp13
 70
     1
102
RTVSPropertyOp14
 70
     1
102
RTVSPropertyOp15
 70
     1
102
RTVSPropertyOp16
 70
     1
102
RTVSPropertyOp17
 70
     1
102
RTVSPropertyOp18
 70
     1
102
RTVSPropertyOp19
 70
     1
102
RTVSPropertyOp20
 70
     1
102
RTVSPropertyOp21
 70
     1
102
RTVSPropertyOp22
 70
     1
102
RTVSPropertyOp23
 70
     1
102
RTVSPropertyOp24
 70
     1
102
RTVSPropertyOp25
 70
     1
102
RTVSPropertyOp26
 70
     1
102
RTVSPropertyOp27
 70
     1
  0
XRECORD
  5
48B
102
{ACAD_REACTORS
330
48A
102
}
330
48A
100
AcDbXrecord
280
     1
102
RTVSPropertyOp0
 70
     1
102
RTVSPropertyOp1
 70
     1
102
RTVSPropertyOp2
 70
     1
102
RTVSPropertyOp3
 70
     1
102
RTVSPropertyOp4
 70
     1
102
RTVSPropertyOp5
 70
     1
102
RTVSPropertyOp6
 70
     1
102
RTVSPropertyOp7
 70
     1
102
RTVSPropertyOp8
 70
     1
102
RTVSPropertyOp9
 70
     1
102
RTVSPropertyOp10
 70
     1
102
RTVSPropertyOp11
 70
     1
102
RTVSPropertyOp12
 70
     1
102
RTVSPropertyOp13
 70
     1
102
RTVSPropertyOp14
 70
     1
102
RTVSPropertyOp15
 70
     1
102
RTVSPropertyOp16
 70
     1
102
RTVSPropertyOp17
 70
     1
102
RTVSPropertyOp18
 70
     1
102
RTVSPropertyOp19
 70
     1
102
RTVSPropertyOp20
 70
     1
102
RTVSPropertyOp21
 70
     1
102
RTVSPropertyOp22
 70
     1
102
RTVSPropertyOp23
 70
     1
102
RTVSPropertyOp24
 70
     1
102
RTVSPropertyOp25
 70
     1
102
RTVSPropertyOp26
 70
     1
102
RTVSPropertyOp27
 70
     1
  0
XRECORD
  5
481
102
{ACAD_REACTORS
330
480
102
}
330
480
100
AcDbXrecord
280
     1
102
RTVSPropertyOp0
 70
     1
102
RTVSPropertyOp1
 70
     1
102
RTVSPropertyOp2
 70
     1
102
RTVSPropertyOp3
 70
     1
102
RTVSPropertyOp4
 70
     1
102
RTVSPropertyOp5
 70
     1
102
RTVSPropertyOp6
 70
     1
102
RTVSPropertyOp7
 70
     1
102
RTVSPropertyOp8
 70
     1
102
RTVSPropertyOp9
 70
     1
102
RTVSPropertyOp10
 70
     1
102
RTVSPropertyOp11
 70
     1
102
RTVSPropertyOp12
 70
     1
102
RTVSPropertyOp13
 70
     1
102
RTVSPropertyOp14
 70
     1
102
RTVSPropertyOp15
 70
     1
102
RTVSPropertyOp16
 70
     1
102
RTVSPropertyOp17
 70
     1
102
RTVSPropertyOp18
 70
     1
102
RTVSPropertyOp19
 70
     1
102
RTVSPropertyOp20
 70
     1
102
RTVSPropertyOp21
 70
     1
102
RTVSPropertyOp22
 70
     1
102
RTVSPropertyOp23
 70
     1
102
RTVSPropertyOp24
 70
     1
102
RTVSPropertyOp25
 70
     1
102
RTVSPropertyOp26
 70
     1
102
RTVSPropertyOp27
 70
     1
  0
XRECORD
  5
489
102
{ACAD_REACTORS
330
488
102
}
330
488
100
AcDbXrecord
280
     1
102
RTVSPropertyOp0
 70
     1
102
RTVSPropertyOp1
 70
     1
102
RTVSPropertyOp2
 70
     1
102
RTVSPropertyOp3
 70
     1
102
RTVSPropertyOp4
 70
     1
102
RTVSPropertyOp5
 70
     1
102
RTVSPropertyOp6
 70
     1
102
RTVSPropertyOp7
 70
     1
102
RTVSPropertyOp8
 70
     1
102
RTVSPropertyOp9
 70
     1
102
RTVSPropertyOp10
 70
     1
102
RTVSPropertyOp11
 70
     1
102
RTVSPropertyOp12
 70
     1
102
RTVSPropertyOp13
 70
     1
102
RTVSPropertyOp14
 70
     1
102
RTVSPropertyOp15
 70
     1
102
RTVSPropertyOp16
 70
     1
102
RTVSPropertyOp17
 70
     1
102
RTVSPropertyOp18
 70
     1
102
RTVSPropertyOp19
 70
     1
102
RTVSPropertyOp20
 70
     1
102
RTVSPropertyOp21
 70
     1
102
RTVSPropertyOp22
 70
     1
102
RTVSPropertyOp23
 70
     1
102
RTVSPropertyOp24
 70
     1
102
RTVSPropertyOp25
 70
     1
102
RTVSPropertyOp26
 70
     1
102
RTVSPropertyOp27
 70
     1
  0
ENDSEC
  0
EOF
