  0
SECTION
  2
HEADER
  9
$ACADVER
  1
AC1015
  9
$ACADMAINTVER
 70
     6
  9
$DWGCODEPAGE
  3
ANSI_1252
  9
$INSBASE
 10
0.0
 20
0.0
 30
0.0
  9
$EXTMIN
 10
-1483.641732283465
 20
-923.1791338582677
 30
-15.2625
  9
$EXTMAX
 10
1476.358267716535
 20
926.8208661417324
 30
15.2625
  9
$LIMMIN
 10
0.0
 20
0.0
  9
$LIMMAX
 10
12.0
 20
9.0
  9
$ORTHOMODE
 70
     0
  9
$REGENMODE
 70
     1
  9
$FILLMODE
 70
     1
  9
$QTEXTMODE
 70
     0
  9
$MIRRTEXT
 70
     1
  9
$LTSCALE
 40
37.0
  9
$ATTMODE
 70
     1
  9
$TEXTSIZE
 40
0.2
  9
$TRACEWID
 40
1.0
  9
$TEXTSTYLE
  7
STANDARD
  9
$CLAYER
  8
None
  9
$CELTYPE
  6
ByLayer
  9
$CECOLOR
 62
   256
  9
$CELTSCALE
 40
1.0
  9
$DISPSILH
 70
     0
  9
$DIMSCALE
 40
1.0
  9
$DIMASZ
 40
23.125
  9
$DIMEXO
 40
11.5625
  9
$DIMDLI
 40
0.4
  9
$DIMRND
 40
0.0
  9
$DIMDLE
 40
11.5625
  9
$DIMEXE
 40
23.125
  9
$DIMTP
 40
0.0
  9
$DIMTM
 40
0.0
  9
$DIMTXT
 40
22.11764227146026
  9
$DIMCEN
 40
0.0
  9
$DIMTSZ
 40
0.0
  9
$DIMTOL
 70
     0
  9
$DIMLIM
 70
     0
  9
$DIMTIH
 70
     0
  9
$DIMTOH
 70
     0
  9
$DIMSE1
 70
     0
  9
$DIMSE2
 70
     0
  9
$DIMTAD
 70
     1
  9
$DIMZIN
 70
     8
  9
$DIMBLK
  1
VW_SLASH
  9
$DIMASO
 70
     1
  9
$DIMSHO
 70
     1
  9
$DIMPOST
  1
<>
  9
$DIMAPOST
  1
[]
  9
$DIMALT
 70
     0
  9
$DIMALTD
 70
     3
  9
$DIMALTF
 40
1.0
  9
$DIMLFAC
 40
1.0
  9
$DIMTOFL
 70
     1
  9
$DIMTVP
 40
0.0
  9
$DIMTIX
 70
     1
  9
$DIMSOXD
 70
     0
  9
$DIMSAH
 70
     0
  9
$DIMBLK1
  1
VW_SLASH
  9
$DIMBLK2
  1
VW_SLASH
  9
$DIMSTYLE
  2
Arch
  9
$DIMCLRD
 70
     0
  9
$DIMCLRE
 70
     0
  9
$DIMCLRT
 70
     0
  9
$DIMTFAC
 40
1.0
  9
$DIMGAP
 40
0.0625
  9
$DIMJUST
 70
     0
  9
$DIMSD1
 70
     0
  9
$DIMSD2
 70
     0
  9
$DIMTOLJ
 70
     1
  9
$DIMTZIN
 70
     8
  9
$DIMALTZ
 70
     8
  9
$DIMALTTZ
 70
     8
  9
$DIMUPT
 70
     0
  9
$DIMDEC
 70
     3
  9
$DIMTDEC
 70
     3
  9
$DIMALTU
 70
     4
  9
$DIMALTTD
 70
     2
  9
$DIMTXSTY
  7
Helvetica
  9
$DIMAUNIT
 70
     0
  9
$DIMADEC
 70
     2
  9
$DIMALTRND
 40
0.0
  9
$DIMAZIN
 70
     0
  9
$DIMDSEP
 70
    46
  9
$DIMATFIT
 70
     0
  9
$DIMFRAC
 70
     2
  9
$DIMLDRBLK
  1
VW_FILLEDARROW
  9
$DIMLUNIT
 70
     4
  9
$DIMLWD
 70
    -2
  9
$DIMLWE
 70
    -2
  9
$DIMTMOVE
 70
     0
  9
$LUNITS
 70
     4
  9
$LUPREC
 70
     4
  9
$SKETCHINC
 40
0.1
  9
$FILLETRAD
 40
0.5
  9
$AUNITS
 70
     0
  9
$AUPREC
 70
     0
  9
$MENU
  1
.
  9
$ELEVATION
 40
0.0
  9
$PELEVATION
 40
0.0
  9
$THICKNESS
 40
0.0
  9
$LIMCHECK
 70
     0
  9
$CHAMFERA
 40
0.5
  9
$CHAMFERB
 40
0.5
  9
$CHAMFERC
 40
1.0
  9
$CHAMFERD
 40
0.0
  9
$SKPOLY
 70
     0
  9
$TDCREATE
 40
2455711.787615717
  9
$TDUCREATE
 40
2455712.120949063
  9
$TDUPDATE
 40
2455711.787615729
  9
$TDUUPDATE
 40
2455712.120949074
  9
$TDINDWG
 40
0.0000000116
  9
$TDUSRTIMER
 40
0.0000000116
  9
$USRTIMER
 70
     1
  9
$ANGBASE
 50
0.0
  9
$ANGDIR
 70
     0
  9
$PDMODE
 70
     1
  9
$PDSIZE
 40
-2.0
  9
$PLINEWID
 40
0.0
  9
$SPLFRAME
 70
     0
  9
$SPLINETYPE
 70
     6
  9
$SPLINESEGS
 70
     8
  9
$HANDSEED
  5
412
  9
$SURFTAB1
 70
     6
  9
$SURFTAB2
 70
     6
  9
$SURFTYPE
 70
     6
  9
$SURFU
 70
     6
  9
$SURFV
 70
     6
  9
$UCSBASE
  2

  9
$UCSNAME
  2

  9
$UCSORG
 10
0.0
 20
0.0
 30
0.0
  9
$UCSXDIR
 10
1.0
 20
0.0
 30
0.0
  9
$UCSYDIR
 10
0.0
 20
1.0
 30
0.0
  9
$UCSORTHOREF
  2

  9
$UCSORTHOVIEW
 70
     0
  9
$UCSORGTOP
 10
0.0
 20
0.0
 30
0.0
  9
$UCSORGBOTTOM
 10
0.0
 20
0.0
 30
0.0
  9
$UCSORGLEFT
 10
0.0
 20
0.0
 30
0.0
  9
$UCSORGRIGHT
 10
0.0
 20
0.0
 30
0.0
  9
$UCSORGFRONT
 10
0.0
 20
0.0
 30
0.0
  9
$UCSORGBACK
 10
0.0
 20
0.0
 30
0.0
  9
$PUCSBASE
  2

  9
$PUCSNAME
  2

  9
$PUCSORG
 10
0.0
 20
0.0
 30
0.0
  9
$PUCSXDIR
 10
1.0
 20
0.0
 30
0.0
  9
$PUCSYDIR
 10
0.0
 20
1.0
 30
0.0
  9
$PUCSORTHOREF
  2

  9
$PUCSORTHOVIEW
 70
     0
  9
$PUCSORGTOP
 10
0.0
 20
0.0
 30
0.0
  9
$PUCSORGBOTTOM
 10
0.0
 20
0.0
 30
0.0
  9
$PUCSORGLEFT
 10
0.0
 20
0.0
 30
0.0
  9
$PUCSORGRIGHT
 10
0.0
 20
0.0
 30
0.0
  9
$PUCSORGFRONT
 10
0.0
 20
0.0
 30
0.0
  9
$PUCSORGBACK
 10
0.0
 20
0.0
 30
0.0
  9
$USERI1
 70
     0
  9
$USERI2
 70
     0
  9
$USERI3
 70
     0
  9
$USERI4
 70
     0
  9
$USERI5
 70
     0
  9
$USERR1
 40
0.0
  9
$USERR2
 40
0.0
  9
$USERR3
 40
0.0
  9
$USERR4
 40
0.0
  9
$USERR5
 40
0.0
  9
$WORLDVIEW
 70
     1
  9
$SHADEDGE
 70
     3
  9
$SHADEDIF
 70
    70
  9
$TILEMODE
 70
     1
  9
$MAXACTVP
 70
    64
  9
$PINSBASE
 10
0.0
 20
0.0
 30
0.0
  9
$PLIMCHECK
 70
     0
  9
$PEXTMIN
 10
1.000000000000000E+20
 20
1.000000000000000E+20
 30
1.000000000000000E+20
  9
$PEXTMAX
 10
-1.000000000000000E+20
 20
-1.000000000000000E+20
 30
-1.000000000000000E+20
  9
$PLIMMIN
 10
-0.25
 20
-0.25
  9
$PLIMMAX
 10
10.75
 20
8.25
  9
$UNITMODE
 70
     0
  9
$VISRETAIN
 70
     1
  9
$PLINEGEN
 70
     0
  9
$PSLTSCALE
 70
     1
  9
$TREEDEPTH
 70
  3020
  9
$CMLSTYLE
  2
Standard
  9
$CMLJUST
 70
     0
  9
$CMLSCALE
 40
1.0
  9
$PROXYGRAPHICS
 70
     1
  9
$MEASUREMENT
 70
     0
  9
$CELWEIGHT
370
    -1
  9
$ENDCAPS
280
     0
  9
$JOINSTYLE
280
     0
  9
$LWDISPLAY
290
     1
  9
$INSUNITS
 70
     1
  9
$HYPERLINKBASE
  1

  9
$STYLESHEET
  1

  9
$XEDIT
290
     1
  9
$CEPSNTYPE
380
     0
  9
$PSTYLEMODE
290
     1
  9
$FINGERPRINTGUID
  2
{4FC35E78-5FA8-7647-C2F4-58147EDAF0E8}
  9
$VERSIONGUID
  2
{FAEB1C32-E019-11D5-929B-00C0DF256EC4}
  9
$EXTNAMES
290
     1
  9
$PSVPSCALE
 40
0.0
  9
$OLESTARTUP
290
     0
  0
ENDSEC
  0
SECTION
  2
CLASSES
  0
CLASS
  1
ACDBDICTIONARYWDFLT
  2
AcDbDictionaryWithDefault
  3
ObjectDBX Classes
 90
        0
280
     0
281
     0
  0
CLASS
  1
VISUALSTYLE
  2
AcDbVisualStyle
  3
ObjectDBX Classes
 90
     4095
280
     0
281
     0
  0
CLASS
  1
MATERIAL
  2
AcDbMaterial
  3
ObjectDBX Classes
 90
     1153
280
     0
281
     0
  0
CLASS
  1
WIPEOUTVARIABLES
  2
AcDbWipeoutVariables
  3
WipeOut|AutoCAD Express Tool|expresstools@autodesk.com
 90
        0
280
     0
281
     0
  0
CLASS
  1
WIPEOUT
  2
AcDbWipeout
  3
WipeOut|AutoCAD Express Tool|expresstools@autodesk.com
 90
      127
280
     0
281
     1
  0
CLASS
  1
SCALE
  2
AcDbScale
  3
ObjectDBX Classes
 90
     1153
280
     0
281
     0
  0
CLASS
  1
DICTIONARYVAR
  2
AcDbDictionaryVar
  3
ObjectDBX Classes
 90
        0
280
     0
281
     0
  0
CLASS
  1
ACDBPLACEHOLDER
  2
AcDbPlaceHolder
  3
ObjectDBX Classes
 90
        0
280
     0
281
     0
  0
CLASS
  1
LAYOUT
  2
AcDbLayout
  3
ObjectDBX Classes
 90
        0
280
     0
281
     0
  0
ENDSEC
  0
SECTION
  2
TABLES
  0
TABLE
  2
VPORT
  5
8
330
0
100
AcDbSymbolTable
 70
     1
  0
VPORT
  5
29
330
8
100
AcDbSymbolTableRecord
100
AcDbViewportTableRecord
  2
*Active
 70
     0
 10
0.0
 20
0.0
 11
1.0
 21
1.0
 12
-3.641732283464762
 22
1.820866141732267
 13
0.0
 23
0.0
 14
0.5
 24
0.5
 15
0.5
 25
0.5
 16
0.0
 26
0.0
 36
1.0
 17
0.0
 27
0.0
 37
0.0
 40
1850.0
 41
0.0095982468949475
 42
2000.0
 43
0.0
 44
0.0
 50
0.0
 51
0.0
 71
     0
 72
   100
 73
     1
 74
     3
 75
     0
 76
     0
 77
     0
 78
     0
281
     0
 65
     1
110
0.0
120
0.0
130
0.0
111
1.0
121
0.0
131
0.0
112
0.0
122
1.0
132
0.0
 79
     0
146
0.0
  0
ENDTAB
  0
TABLE
  2
LTYPE
  5
5
330
0
100
AcDbSymbolTable
 70
    11
  0
LTYPE
  5
14
330
5
100
AcDbSymbolTableRecord
100
AcDbLinetypeTableRecord
  2
ByBlock
 70
     0
  3

 72
    65
 73
     0
 40
0.0
  0
LTYPE
  5
15
330
5
100
AcDbSymbolTableRecord
100
AcDbLinetypeTableRecord
  2
ByLayer
 70
     0
  3

 72
    65
 73
     0
 40
0.0
  0
LTYPE
  5
16
330
5
100
AcDbSymbolTableRecord
100
AcDbLinetypeTableRecord
  2
Continuous
 70
     0
  3
Solid line
 72
    65
 73
     0
 40
0.0
  0
LTYPE
  5
82
330
5
100
AcDbSymbolTableRecord
100
AcDbLinetypeTableRecord
  2
Dash Style-1
 70
     0
  3

 72
    65
 73
     2
 40
0.20828
 49
0.20828
 74
     0
 49
-0.20836
 74
     0
  0
LTYPE
  5
83
330
5
100
AcDbSymbolTableRecord
100
AcDbLinetypeTableRecord
  2
Dash Style-2
 70
     0
  3

 72
    65
 73
     2
 40
0.48607
 49
0.48607
 74
     0
 49
-0.2083550000000001
 74
     0
  0
LTYPE
  5
84
330
5
100
AcDbSymbolTableRecord
100
AcDbLinetypeTableRecord
  2
Dash Style-3
 70
     0
  3

 72
    65
 73
     2
 40
1.04164
 49
1.04164
 74
     0
 49
-0.2083599999999999
 74
     0
  0
LTYPE
  5
85
330
5
100
AcDbSymbolTableRecord
100
AcDbLinetypeTableRecord
  2
Dash Style-4
 70
     0
  3

 72
    65
 73
     2
 40
1.319425
 49
1.319425
 74
     0
 49
-0.208285
 74
     0
  0
LTYPE
  5
86
330
5
100
AcDbSymbolTableRecord
100
AcDbLinetypeTableRecord
  2
Dash Style-5
 70
     0
  3

 72
    65
 73
     2
 40
0.069425
 49
0.069425
 74
     0
 49
-0.138855
 74
     0
  0
LTYPE
  5
87
330
5
100
AcDbSymbolTableRecord
100
AcDbLinetypeTableRecord
  2
Dash Style-6
 70
     0
  3

 72
    65
 73
     4
 40
0.625
 49
0.625
 74
     0
 49
-0.20828
 74
     0
 49
0.06943
 74
     0
 49
-0.13893
 74
     0
  0
LTYPE
  5
88
330
5
100
AcDbSymbolTableRecord
100
AcDbLinetypeTableRecord
  2
Dash Style-7
 70
     0
  3

 72
    65
 73
     6
 40
0.625
 49
0.625
 74
     0
 49
-0.20828
 74
     0
 49
0.6250000000000001
 74
     0
 49
-0.2083599999999999
 74
     0
 49
0.06943
 74
     0
 49
-0.1389299999999999
 74
     0
  0
LTYPE
  5
89
330
5
100
AcDbSymbolTableRecord
100
AcDbLinetypeTableRecord
  2
Dash Style-8
 70
     0
  3

 72
    65
 73
     6
 40
0.625
 49
0.625
 74
     0
 49
-0.20828
 74
     0
 49
0.06943
 74
     0
 49
-0.13893
 74
     0
 49
0.0694299999999999
 74
     0
 49
-0.13893
 74
     0
  0
LTYPE
  5
8A
330
5
100
AcDbSymbolTableRecord
100
AcDbLinetypeTableRecord
  2
Dash Style-9
 70
     0
  3

 72
    65
 73
     4
 40
3.75
 49
3.75
 74
     0
 49
-0.2777849999999998
 74
     0
 49
0.6944300000000003
 74
     0
 49
-0.2777849999999998
 74
     0
  0
LTYPE
  5
8B
330
5
100
AcDbSymbolTableRecord
100
AcDbLinetypeTableRecord
  2
Dash Style-10
 70
     0
  3

 72
    65
 73
     6
 40
3.75
 49
3.75
 74
     0
 49
-0.2777849999999998
 74
     0
 49
0.6944300000000003
 74
     0
 49
-0.2777849999999998
 74
     0
 49
0.625
 74
     0
 49
-0.3125
 74
     0
  0
ENDTAB
  0
TABLE
  2
LAYER
  5
2
330
0
100
AcDbSymbolTable
 70
    10
  0
LAYER
  5
10
330
2
100
AcDbSymbolTableRecord
100
AcDbLayerTableRecord
  2
0
 70
     0
 62
   251
  6
Continuous
370
    15
390
F
  0
LAYER
  5
8C
330
2
100
AcDbSymbolTableRecord
100
AcDbLayerTableRecord
  2
None
 70
     0
 62
     7
  6
Continuous
370
     5
390
F
  0
LAYER
  5
8D
330
2
100
AcDbSymbolTableRecord
100
AcDbLayerTableRecord
  2
Dimension
 70
     0
 62
     7
  6
Continuous
370
     5
390
F
  0
LAYER
  5
8E
330
2
100
AcDbSymbolTableRecord
100
AcDbLayerTableRecord
  2
elements-ojects
 70
     0
 62
     7
  6
Continuous
370
    15
390
F
  0
LAYER
  5
8F
330
2
100
AcDbSymbolTableRecord
100
AcDbLayerTableRecord
  2
Layer0
 70
     0
 62
     1
  6
Continuous
370
    15
390
F
  0
LAYER
  5
90
330
2
100
AcDbSymbolTableRecord
100
AcDbLayerTableRecord
  2
FIXT
 70
     0
 62
     7
  6
Continuous
370
    15
390
F
  0
LAYER
  5
91
330
2
100
AcDbSymbolTableRecord
100
AcDbLayerTableRecord
  2
studio
 70
     0
 62
     7
  6
Continuous
370
    15
390
F
  0
LAYER
  5
92
330
2
100
AcDbSymbolTableRecord
100
AcDbLayerTableRecord
  2
WINDOW
 70
     0
 62
     2
  6
Continuous
370
    15
390
F
  0
LAYER
  5
93
330
2
100
AcDbSymbolTableRecord
100
AcDbLayerTableRecord
  2
A-ARCH
 70
     0
 62
   251
  6
Continuous
370
    15
390
F
  0
LAYER
  5
94
330
2
100
AcDbSymbolTableRecord
100
AcDbLayerTableRecord
  2
Defpoints
 70
     0
 62
     7
  6
Continuous
290
     0
370
    -3
390
F
  0
ENDTAB
  0
TABLE
  2
STYLE
  5
3
330
0
100
AcDbSymbolTable
 70
     4
  0
STYLE
  5
11
330
3
100
AcDbSymbolTableRecord
100
AcDbTextStyleTableRecord
  2
STANDARD
 70
     0
 40
0.0
 41
1.0
 50
0.0
 71
     0
 42
0.2
  3
txt
  4

  0
STYLE
  5
7F
330
3
100
AcDbSymbolTableRecord
100
AcDbTextStyleTableRecord
  2
Arial Narrow
 70
     0
 40
0.0
 41
1.0
 50
0.0
 71
     0
 42
0.0
  3
Arial Narrow
  4

1001
ACAD
1000
Arial Narrow
1071
        0
  0
STYLE
  5
80
330
3
100
AcDbSymbolTableRecord
100
AcDbTextStyleTableRecord
  2
Arial Narrow (bold)
 70
     0
 40
0.0
 41
1.0
 50
0.0
 71
     0
 42
0.0
  3
Arial Narrow
  4

1001
ACAD
1000
Arial Narrow
1071
 33554432
  0
STYLE
  5
81
330
3
100
AcDbSymbolTableRecord
100
AcDbTextStyleTableRecord
  2
Helvetica
 70
     0
 40
0.0
 41
1.0
 50
0.0
 71
     0
 42
0.0
  3
Helvetica
  4

1001
ACAD
1000
Helvetica
1071
        0
  0
ENDTAB
  0
TABLE
  2
VIEW
  5
6
330
0
100
AcDbSymbolTable
 70
     0
  0
ENDTAB
  0
TABLE
  2
UCS
  5
7
330
0
100
AcDbSymbolTable
 70
     0
  0
ENDTAB
  0
TABLE
  2
APPID
  5
9
330
0
100
AcDbSymbolTable
 70
     1
  0
APPID
  5
12
330
9
100
AcDbSymbolTableRecord
100
AcDbRegAppTableRecord
  2
ACAD
 70
     0
  0
ENDTAB
  0
TABLE
  2
DIMSTYLE
  5
A
330
0
100
AcDbSymbolTable
 70
     3
100
AcDbDimStyleTable
  0
DIMSTYLE
105
27
330
A
100
AcDbSymbolTableRecord
100
AcDbDimStyleTableRecord
  2
Standard
 70
     0
340
11
  0
DIMSTYLE
105
95
330
A
100
AcDbSymbolTableRecord
100
AcDbDimStyleTableRecord
  2
Arch
 70
     0
  3
<>
  4
[]
 41
23.125
 42
11.5625
 43
0.4
 44
23.125
 46
11.5625
 73
     0
 74
     0
 77
     1
 78
     8
140
22.11764227146026
141
0.0
143
1.0
147
0.0625
171
     3
172
     1
174
     1
179
     2
271
     3
272
     3
273
     4
276
     2
277
     4
284
     8
285
     8
286
     8
289
     0
340
81
341
9F
342
96
343
96
344
96
  0
DIMSTYLE
105
A9
102
{ACAD_REACTORS
330
3CF
330
3D0
102
}
330
A
100
AcDbSymbolTableRecord
100
AcDbDimStyleTableRecord
  2
ASME
 70
     0
  3
<>
  4
[]
 41
23.125
 42
11.5625
 43
0.4
 44
23.125
 78
     8
140
22.11764227146026
141
0.0
143
1.0
147
0.0
171
     3
174
     1
179
     2
271
     3
272
     3
273
     4
276
     2
277
     4
284
     8
285
     8
286
     8
289
     0
340
81
341
9F
342
9F
343
9F
344
9F
  0
ENDTAB
  0
TABLE
  2
BLOCK_RECORD
  5
1
330
0
100
AcDbSymbolTable
 70
    24
  0
BLOCK_RECORD
  5
1F
330
1
100
AcDbSymbolTableRecord
100
AcDbBlockTableRecord
  2
*Model_Space
340
22
  0
BLOCK_RECORD
  5
1B
330
1
100
AcDbSymbolTableRecord
100
AcDbBlockTableRecord
  2
*Paper_Space
340
1E
  0
BLOCK_RECORD
  5
3F
330
1
100
AcDbSymbolTableRecord
100
AcDbBlockTableRecord
  2
Group-1
340
0
102
{BLKREFS
331
3C5
102
}
  0
BLOCK_RECORD
  5
42
330
1
100
AcDbSymbolTableRecord
100
AcDbBlockTableRecord
  2
Group-2-1
340
0
102
{BLKREFS
331
1C9
102
}
  0
BLOCK_RECORD
  5
45
330
1
100
AcDbSymbolTableRecord
100
AcDbBlockTableRecord
  2
Group-3-1
340
0
102
{BLKREFS
331
24D
102
}
  0
BLOCK_RECORD
  5
48
330
1
100
AcDbSymbolTableRecord
100
AcDbBlockTableRecord
  2
Group-4-1
340
0
102
{BLKREFS
331
3CA
102
}
  0
BLOCK_RECORD
  5
4B
330
1
100
AcDbSymbolTableRecord
100
AcDbBlockTableRecord
  2
*D5
340
0
  0
BLOCK_RECORD
  5
4E
330
1
100
AcDbSymbolTableRecord
100
AcDbBlockTableRecord
  2
*D6
340
0
  0
BLOCK_RECORD
  5
51
330
1
100
AcDbSymbolTableRecord
100
AcDbBlockTableRecord
  2
Group-5-1
340
0
102
{BLKREFS
331
2D3
102
}
  0
BLOCK_RECORD
  5
54
330
1
100
AcDbSymbolTableRecord
100
AcDbBlockTableRecord
  2
Group-6-1
340
0
102
{BLKREFS
331
2E0
102
}
  0
BLOCK_RECORD
  5
57
330
1
100
AcDbSymbolTableRecord
100
AcDbBlockTableRecord
  2
Group-7-1
340
0
102
{BLKREFS
331
2E3
102
}
  0
BLOCK_RECORD
  5
5A
330
1
100
AcDbSymbolTableRecord
100
AcDbBlockTableRecord
  2
Group-8-1
340
0
102
{BLKREFS
331
3D1
102
}
  0
BLOCK_RECORD
  5
5D
330
1
100
AcDbSymbolTableRecord
100
AcDbBlockTableRecord
  2
Group-9-1
340
0
102
{BLKREFS
331
34D
102
}
  0
BLOCK_RECORD
  5
60
330
1
100
AcDbSymbolTableRecord
100
AcDbBlockTableRecord
  2
Group-10-1
340
0
102
{BLKREFS
331
34E
102
}
  0
BLOCK_RECORD
  5
63
330
1
100
AcDbSymbolTableRecord
100
AcDbBlockTableRecord
  2
Group-11-1
340
0
102
{BLKREFS
331
385
102
}
  0
BLOCK_RECORD
  5
66
330
1
100
AcDbSymbolTableRecord
100
AcDbBlockTableRecord
  2
Group-12-1
340
0
102
{BLKREFS
331
386
102
}
  0
BLOCK_RECORD
  5
69
330
1
100
AcDbSymbolTableRecord
100
AcDbBlockTableRecord
  2
Group-13-1
340
0
102
{BLKREFS
331
387
102
}
  0
BLOCK_RECORD
  5
6C
330
1
100
AcDbSymbolTableRecord
100
AcDbBlockTableRecord
  2
Group-14-1
340
0
102
{BLKREFS
331
388
102
}
  0
BLOCK_RECORD
  5
6F
330
1
100
AcDbSymbolTableRecord
100
AcDbBlockTableRecord
  2
Group-15-1
340
0
102
{BLKREFS
331
389
102
}
  0
BLOCK_RECORD
  5
72
330
1
100
AcDbSymbolTableRecord
100
AcDbBlockTableRecord
  2
Group-16-1
340
0
102
{BLKREFS
331
38A
102
}
  0
BLOCK_RECORD
  5
75
330
1
100
AcDbSymbolTableRecord
100
AcDbBlockTableRecord
  2
Group-17-1
340
0
102
{BLKREFS
331
327
102
}
  0
BLOCK_RECORD
  5
78
330
1
100
AcDbSymbolTableRecord
100
AcDbBlockTableRecord
  2
Group-18-1
340
0
102
{BLKREFS
331
3AD
102
}
  0
BLOCK_RECORD
  5
7B
330
1
100
AcDbSymbolTableRecord
100
AcDbBlockTableRecord
  2
Group-19-1
340
0
102
{BLKREFS
331
3E2
102
}
  0
BLOCK_RECORD
  5
96
330
1
100
AcDbSymbolTableRecord
100
AcDbBlockTableRecord
  2
VW_SLASH
340
0
  0
BLOCK_RECORD
  5
9F
330
1
100
AcDbSymbolTableRecord
100
AcDbBlockTableRecord
  2
VW_FILLEDARROW
340
0
102
{BLKREFS
331
273
331
272
331
287
331
286
102
}
  0
ENDTAB
  0
ENDSEC
  0
SECTION
  2
BLOCKS
  0
BLOCK
  5
20
330
1F
100
AcDbEntity
  8
0
100
AcDbBlockBegin
  2
*Model_Space
 70
     0
 10
0.0
 20
0.0
 30
0.0
  3
*Model_Space
  1

  0
ENDBLK
  5
21
330
1F
100
AcDbEntity
  8
0
100
AcDbBlockEnd
  0
BLOCK
  5
1C
330
1B
100
AcDbEntity
 67
     1
  8
0
100
AcDbBlockBegin
  2
*Paper_Space
 70
     0
 10
0.0
 20
0.0
 30
0.0
  3
*Paper_Space
  1

  0
ENDBLK
  5
1D
330
1B
100
AcDbEntity
 67
     1
  8
0
100
AcDbBlockEnd
  0
BLOCK
  5
40
330
3F
100
AcDbEntity
  8
0
100
AcDbBlockBegin
  2
Group-1
 70
     0
 10
0.0
 20
0.0
 30
0.0
  3
Group-1
  1

  0
ELLIPSE
  5
AA
330
3F
100
AcDbEntity
  8
None
  6
Continuous
 62
     7
370
    20
100
AcDbEllipse
 10
-7.452929080540777
 20
4.461161964625585
 30
0.0
 11
0.3453220542379974
 21
0.0
 31
0.0
210
0.0
220
0.0
230
1.0
 40
1.0
 41
0.0
 42
6.283185307179586
  0
POLYLINE
  5
AB
102
{ACAD_REACTORS
330
B6
102
}
330
3F
100
AcDbEntity
  8
None
  6
Continuous
 62
     7
370
    20
100
AcDb2dPolyline
 66
     1
 10
0.0
 20
0.0
 30
0.0
 70
     1
  0
VERTEX
  5
AC
330
AB
100
AcDbEntity
  8
None
  6
Continuous
 62
     7
370
    20
100
AcDbVertex
100
AcDb2dVertex
 10
-7.483269766870236
 20
4.180979528895537
 30
0.0
  0
VERTEX
  5
AD
330
AB
100
AcDbEntity
  8
None
  6
Continuous
 62
     7
370
    20
100
AcDbVertex
100
AcDb2dVertex
 10
-7.413147841763736
 20
4.180979528895537
 30
0.0
  0
VERTEX
  5
AE
330
AB
100
AcDbEntity
  8
None
  6
Continuous
 62
     7
370
    20
100
AcDbVertex
100
AcDb2dVertex
 10
-7.413147841763736
 20
4.617134820022656
 30
0.0
  0
VERTEX
  5
AF
330
AB
100
AcDbEntity
  8
None
  6
Continuous
 62
     7
370
    20
100
AcDbVertex
100
AcDb2dVertex
 10
-7.170642528469851
 20
4.374629368599948
 30
0.0
  0
VERTEX
  5
B0
330
AB
100
AcDbEntity
  8
None
  6
Continuous
 62
     7
370
    20
100
AcDbVertex
100
AcDb2dVertex
 10
-7.170642528469851
 20
4.464115158833429
 30
0.0
  0
VERTEX
  5
B1
330
AB
100
AcDbEntity
  8
None
  6
Continuous
 62
     7
370
    20
100
AcDbVertex
100
AcDb2dVertex
 10
-7.448208804316989
 20
4.74168143468057
 30
0.0
  0
VERTEX
  5
B2
330
AB
100
AcDbEntity
  8
None
  6
Continuous
 62
     7
370
    20
100
AcDbVertex
100
AcDb2dVertex
 10
-7.73161820557948
 20
4.458272033418078
 30
0.0
  0
VERTEX
  5
B3
330
AB
100
AcDbEntity
  8
None
  6
Continuous
 62
     7
370
    20
100
AcDbVertex
100
AcDb2dVertex
 10
-7.73161820557948
 20
4.368785276282842
 30
0.0
  0
VERTEX
  5
B4
330
AB
100
AcDbEntity
  8
None
  6
Continuous
 62
     7
370
    20
100
AcDbVertex
100
AcDb2dVertex
 10
-7.483269766870236
 20
4.617134820022656
 30
0.0
  0
SEQEND
  5
B5
330
AB
100
AcDbEntity
  8
None
  6
Continuous
 62
     7
370
    20
  0
HATCH
  5
B6
330
3F
100
AcDbEntity
  8
None
  6
Continuous
 62
     7
370
     0
100
AcDbHatch
 10
0.0
 20
0.0
 30
0.0
210
0.0
220
0.0
230
1.0
  2
SOLID
 70
     1
 71
     1
 91
        1
 92
        1
 93
        9
 72
     1
 10
-7.483269766870236
 20
4.180979528895537
 11
-7.413147841763736
 21
4.180979528895537
 72
     1
 10
-7.413147841763736
 20
4.180979528895537
 11
-7.413147841763736
 21
4.617134820022656
 72
     1
 10
-7.413147841763736
 20
4.617134820022656
 11
-7.170642528469851
 21
4.374629368599948
 72
     1
 10
-7.170642528469851
 20
4.374629368599948
 11
-7.170642528469851
 21
4.464115158833429
 72
     1
 10
-7.170642528469851
 20
4.464115158833429
 11
-7.448208804316989
 21
4.74168143468057
 72
     1
 10
-7.448208804316989
 20
4.74168143468057
 11
-7.73161820557948
 21
4.458272033418078
 72
     1
 10
-7.73161820557948
 20
4.458272033418078
 11
-7.73161820557948
 21
4.368785276282842
 72
     1
 10
-7.73161820557948
 20
4.368785276282842
 11
-7.483269766870236
 21
4.617134820022656
 72
     1
 10
-7.483269766870236
 20
4.617134820022656
 11
-7.483269766870236
 21
4.180979528895537
 97
        1
330
AB
 75
     0
 76
     1
 98
        1
 10
0.0
 20
0.0
  0
ENDBLK
  5
41
330
3F
100
AcDbEntity
  8
0
100
AcDbBlockEnd
  0
BLOCK
  5
43
330
42
100
AcDbEntity
  8
0
100
AcDbBlockBegin
  2
Group-2-1
 70
     0
 10
0.0
 20
0.0
 30
0.0
  3
Group-2-1
  1

  0
LINE
  5
B7
330
42
100
AcDbEntity
  8
A-ARCH
  6
Continuous
 62
   250
370
     9
100
AcDbLine
 10
7.863555103975447
 20
-3.424102189536526
 30
0.0
 11
7.863555103975447
 21
-4.701284458089557
 31
0.0
  0
POLYLINE
  5
B8
330
42
100
AcDbEntity
  8
WINDOW
  6
Continuous
 62
   250
370
     9
100
AcDb2dPolyline
 66
     1
 10
0.0
 20
0.0
 30
0.0
 70
     1
  0
VERTEX
  5
B9
330
B8
100
AcDbEntity
  8
WINDOW
  6
Continuous
 62
   250
370
     9
100
AcDbVertex
100
AcDb2dVertex
 10
5.440053378592385
 20
-3.678295151429747
 30
0.0
  0
VERTEX
  5
BA
330
B8
100
AcDbEntity
  8
WINDOW
  6
Continuous
 62
   250
370
     9
100
AcDbVertex
100
AcDb2dVertex
 10
5.547409834694519
 20
-3.661923859915148
 30
0.0
  0
VERTEX
  5
BB
330
B8
100
AcDbEntity
  8
WINDOW
  6
Continuous
 62
   250
370
     9
100
AcDbVertex
100
AcDb2dVertex
 10
5.649637126465617
 20
-3.625881138295007
 30
0.0
  0
VERTEX
  5
BC
330
B8
100
AcDbEntity
  8
WINDOW
  6
Continuous
 62
   250
370
     9
100
AcDbVertex
100
AcDb2dVertex
 10
5.754114163761181
 20
-3.573900338677198
 30
0.0
  0
VERTEX
  5
BD
330
B8
100
AcDbEntity
  8
WINDOW
  6
Continuous
 62
   250
370
     9
100
AcDbVertex
100
AcDb2dVertex
 10
5.923262810258285
 20
-3.643564729196933
 30
0.0
  0
VERTEX
  5
BE
330
B8
100
AcDbEntity
  8
WINDOW
  6
Continuous
 62
   250
370
     9
100
AcDbVertex
100
AcDb2dVertex
 10
5.923262810258285
 20
-3.726262697998546
 30
0.0
  0
VERTEX
  5
BF
330
B8
100
AcDbEntity
  8
WINDOW
  6
Continuous
 62
   250
370
     9
100
AcDbVertex
100
AcDb2dVertex
 10
5.3514519375272
 20
-3.726262697998546
 30
0.0
  0
VERTEX
  5
C0
330
B8
100
AcDbEntity
  8
WINDOW
  6
Continuous
 62
   250
370
     9
100
AcDbVertex
100
AcDb2dVertex
 10
5.3514519375272
 20
-3.702450924143875
 30
0.0
  0
VERTEX
  5
C1
330
B8
100
AcDbEntity
  8
WINDOW
  6
Continuous
 62
   250
370
     9
100
AcDbVertex
100
AcDb2dVertex
 10
5.351204396922495
 20
-3.678893934491183
 30
0.0
  0
SEQEND
  5
C2
330
B8
100
AcDbEntity
  8
WINDOW
  6
Continuous
 62
   250
370
     9
  0
POLYLINE
  5
C3
330
42
100
AcDbEntity
  8
None
  6
Continuous
 62
   250
370
     9
100
AcDb2dPolyline
 66
     1
 10
0.0
 20
0.0
 30
0.0
 70
     1
  0
VERTEX
  5
C4
330
C3
100
AcDbEntity
  8
None
  6
Continuous
 62
   250
370
     9
100
AcDbVertex
100
AcDb2dVertex
 10
6.008229334465643
 20
-3.844487077747153
 30
0.0
  0
VERTEX
  5
C5
330
C3
100
AcDbEntity
  8
None
  6
Continuous
 62
   250
370
     9
100
AcDbVertex
100
AcDb2dVertex
 10
6.008229334465643
 20
-3.927601057945823
 30
0.0
  0
VERTEX
  5
C6
330
C3
100
AcDbEntity
  8
None
  6
Continuous
 62
   250
370
     9
100
AcDbVertex
100
AcDb2dVertex
 10
5.955510926651987
 20
-3.927601057945823
 30
0.0
  0
VERTEX
  5
C7
330
C3
100
AcDbEntity
  8
None
  6
Continuous
 62
   250
370
     9
100
AcDbVertex
100
AcDb2dVertex
 10
5.955510926651987
 20
-3.844487077747153
 30
0.0
  0
SEQEND
  5
C8
330
C3
100
AcDbEntity
  8
None
  6
Continuous
 62
   250
370
     9
  0
POLYLINE
  5
C9
330
42
100
AcDbEntity
  8
WINDOW
  6
Continuous
 62
   250
370
     9
100
AcDb2dPolyline
 66
     1
 10
0.0
 20
0.0
 30
0.0
 70
     1
  0
VERTEX
  5
CA
330
C9
100
AcDbEntity
  8
WINDOW
  6
Continuous
 62
   250
370
     9
100
AcDbVertex
100
AcDb2dVertex
 10
5.979663384592793
 20
-3.44825464747733
 30
0.0
  0
VERTEX
  5
CB
330
C9
100
AcDbEntity
  8
WINDOW
  6
Continuous
 62
   250
370
     9
100
AcDbVertex
100
AcDb2dVertex
 10
5.979203884080467
 20
-3.440725319984767
 30
0.0
  0
VERTEX
  5
CC
330
C9
100
AcDbEntity
  8
WINDOW
  6
Continuous
 62
   250
370
     9
100
AcDbVertex
100
AcDb2dVertex
 10
6.07684401944534
 20
-3.387585484564378
 30
0.0
  0
VERTEX
  5
CD
330
C9
100
AcDbEntity
  8
WINDOW
  6
Continuous
 62
   250
370
     9
100
AcDbVertex
100
AcDb2dVertex
 10
6.102405773306988
 20
-3.376074221839308
 30
0.0
  0
VERTEX
  5
CE
330
C9
100
AcDbEntity
  8
WINDOW
  6
Continuous
 62
   250
370
     9
100
AcDbVertex
100
AcDb2dVertex
 10
6.118434552019402
 20
-3.370905998380941
 30
0.0
  0
VERTEX
  5
CF
330
C9
100
AcDbEntity
  8
WINDOW
  6
Continuous
 62
   250
370
     9
100
AcDbVertex
100
AcDb2dVertex
 10
6.14548953159324
 20
-3.36580117512467
 30
0.0
  0
VERTEX
  5
D0
330
C9
100
AcDbEntity
  8
WINDOW
  6
Continuous
 62
   250
370
     9
100
AcDbVertex
100
AcDb2dVertex
 10
6.18845816316331
 20
-3.36383597013022
 30
0.0
  0
VERTEX
  5
D1
330
C9
100
AcDbEntity
  8
WINDOW
  6
Continuous
 62
   250
370
     9
100
AcDbVertex
100
AcDb2dVertex
 10
7.51063797965105
 20
-3.36383597013022
 30
0.0
  0
VERTEX
  5
D2
330
C9
100
AcDbEntity
  8
WINDOW
  6
Continuous
 62
   250
370
     9
100
AcDbVertex
100
AcDb2dVertex
 10
7.510944313325931
 20
-3.382110726160646
 30
0.0
  0
VERTEX
  5
D3
330
C9
100
AcDbEntity
  8
WINDOW
  6
Continuous
 62
   250
370
     9
100
AcDbVertex
100
AcDb2dVertex
 10
6.119098140801325
 20
-3.382263691727604
 30
0.0
  0
SEQEND
  5
D4
330
C9
100
AcDbEntity
  8
WINDOW
  6
Continuous
 62
   250
370
     9
  0
POLYLINE
  5
D5
330
42
100
AcDbEntity
  8
WINDOW
  6
Continuous
 62
   250
370
     9
100
AcDb2dPolyline
 66
     1
 10
0.0
 20
0.0
 30
0.0
 70
     1
  0
VERTEX
  5
D6
330
D5
100
AcDbEntity
  8
WINDOW
  6
Continuous
 62
   250
370
     9
100
AcDbVertex
100
AcDb2dVertex
 10
7.509771912763388
 20
-3.419652099160933
 30
0.0
  0
VERTEX
  5
D7
330
D5
100
AcDbEntity
  8
WINDOW
  6
Continuous
 62
   250
370
     9
100
AcDbVertex
100
AcDb2dVertex
 10
6.552029137955878
 20
-3.419652099160934
 30
0.0
  0
VERTEX
  5
D8
330
D5
100
AcDbEntity
  8
WINDOW
  6
Continuous
 62
   250
370
     9
100
AcDbVertex
100
AcDb2dVertex
 10
6.552029137955878
 20
-3.404886695269306
 30
0.0
  0
VERTEX
  5
D9
330
D5
100
AcDbEntity
  8
WINDOW
  6
Continuous
 62
   250
370
     9
100
AcDbVertex
100
AcDb2dVertex
 10
7.509771912763388
 20
-3.404874015228887
 30
0.0
  0
SEQEND
  5
DA
330
D5
100
AcDbEntity
  8
WINDOW
  6
Continuous
 62
   250
370
     9
  0
POLYLINE
  5
DB
330
42
100
AcDbEntity
  8
WINDOW
  6
Continuous
 62
   250
370
     9
100
AcDb2dPolyline
 66
     1
 10
0.0
 20
0.0
 30
0.0
 70
     1
  0
VERTEX
  5
DC
330
DB
100
AcDbEntity
  8
WINDOW
  6
Continuous
 62
   250
370
     9
100
AcDbVertex
100
AcDb2dVertex
 10
6.027968300474397
 20
-3.436178418506927
 30
0.0
  0
VERTEX
  5
DD
330
DB
100
AcDbEntity
  8
WINDOW
  6
Continuous
 62
   250
370
     9
100
AcDbVertex
100
AcDb2dVertex
 10
6.030443927413329
 20
-3.441372404587098
 30
0.0
  0
VERTEX
  5
DE
330
DB
100
AcDbEntity
  8
WINDOW
  6
Continuous
 62
   250
370
     9
100
AcDbVertex
100
AcDb2dVertex
 10
6.287529331661174
 20
-3.420047595659713
 30
0.0
  0
VERTEX
  5
DF
330
DB
100
AcDbEntity
  8
WINDOW
  6
Continuous
 62
   250
370
     9
100
AcDbVertex
100
AcDb2dVertex
 10
6.552029137955878
 20
-3.419652099160933
 30
0.0
  0
VERTEX
  5
E0
330
DB
100
AcDbEntity
  8
WINDOW
  6
Continuous
 62
   250
370
     9
100
AcDbVertex
100
AcDb2dVertex
 10
6.552029137955878
 20
-3.404886695269306
 30
0.0
  0
VERTEX
  5
E1
330
DB
100
AcDbEntity
  8
WINDOW
  6
Continuous
 62
   250
370
     9
100
AcDbVertex
100
AcDb2dVertex
 10
7.509771912763388
 20
-3.404874015228887
 30
0.0
  0
VERTEX
  5
E2
330
DB
100
AcDbEntity
  8
WINDOW
  6
Continuous
 62
   250
370
     9
100
AcDbVertex
100
AcDb2dVertex
 10
7.509771912763388
 20
-3.39359260339522
 30
0.0
  0
VERTEX
  5
E3
330
DB
100
AcDbEntity
  8
WINDOW
  6
Continuous
 62
   250
370
     9
100
AcDbVertex
100
AcDb2dVertex
 10
6.119750659706694
 20
-3.39359260339522
 30
0.0
  0
SEQEND
  5
E4
330
DB
100
AcDbEntity
  8
WINDOW
  6
Continuous
 62
   250
370
     9
  0
POLYLINE
  5
E5
330
42
100
AcDbEntity
  8
WINDOW
  6
Continuous
 62
   250
370
     9
100
AcDb2dPolyline
 66
     1
 10
0.0
 20
0.0
 30
0.0
 70
     1
  0
VERTEX
  5
E6
330
E5
100
AcDbEntity
  8
WINDOW
  6
Continuous
 62
   250
370
     9
100
AcDbVertex
100
AcDb2dVertex
 10
6.668008435905684
 20
-3.44825464747733
 30
0.0
  0
VERTEX
  5
E7
330
E5
100
AcDbEntity
  8
WINDOW
  6
Continuous
 62
   250
370
     9
100
AcDbVertex
100
AcDb2dVertex
 10
6.668008435905684
 20
-3.625030311285242
 30
0.0
  0
VERTEX
  5
E8
330
E5
100
AcDbEntity
  8
WINDOW
  6
Continuous
 62
   250
370
     9
100
AcDbVertex
100
AcDb2dVertex
 10
6.619703520024079
 20
-3.590644373461467
 30
0.0
  0
VERTEX
  5
E9
330
E5
100
AcDbEntity
  8
WINDOW
  6
Continuous
 62
   250
370
     9
100
AcDbVertex
100
AcDb2dVertex
 10
6.619703520024079
 20
-3.44825464747733
 30
0.0
  0
SEQEND
  5
EA
330
E5
100
AcDbEntity
  8
WINDOW
  6
Continuous
 62
   250
370
     9
  0
POLYLINE
  5
EB
330
42
100
AcDbEntity
  8
None
  6
Continuous
 62
   250
370
     9
100
AcDb2dPolyline
 66
     1
 10
0.0
 20
0.0
 30
0.0
 70
     1
  0
VERTEX
  5
EC
330
EB
100
AcDbEntity
  8
None
  6
Continuous
 62
   250
370
     9
100
AcDbVertex
100
AcDb2dVertex
 10
6.827772526859668
 20
-3.629398082033353
 30
0.0
  0
VERTEX
  5
ED
330
EB
100
AcDbEntity
  8
None
  6
Continuous
 62
   250
370
     9
100
AcDbVertex
100
AcDb2dVertex
 10
6.827772526859668
 20
-3.581142645201538
 30
0.0
  0
VERTEX
  5
EE
330
EB
100
AcDbEntity
  8
None
  6
Continuous
 62
   250
370
     9
100
AcDbVertex
100
AcDb2dVertex
 10
6.8008469545801
 20
-3.581142645201538
 30
0.0
  0
VERTEX
  5
EF
330
EB
100
AcDbEntity
  8
None
  6
Continuous
 62
   250
370
     9
100
AcDbVertex
100
AcDb2dVertex
 10
6.8008469545801
 20
-3.629398082033353
 30
0.0
  0
VERTEX
  5
F0
330
EB
100
AcDbEntity
  8
None
  6
Continuous
 62
   250
370
     9
100
AcDbVertex
100
AcDb2dVertex
 10
6.668008435905684
 20
-3.629398082033353
 30
0.0
  0
VERTEX
  5
F1
330
EB
100
AcDbEntity
  8
None
  6
Continuous
 62
   250
370
     9
100
AcDbVertex
100
AcDb2dVertex
 10
6.668008435905684
 20
-3.44825464747733
 30
0.0
  0
VERTEX
  5
F2
330
EB
100
AcDbEntity
  8
None
  6
Continuous
 62
   250
370
     9
100
AcDbVertex
100
AcDb2dVertex
 10
6.994066618106531
 20
-3.44825464747733
 30
0.0
  0
VERTEX
  5
F3
330
EB
100
AcDbEntity
  8
None
  6
Continuous
 62
   250
370
     9
100
AcDbVertex
100
AcDb2dVertex
 10
6.994066618106531
 20
-3.608520093577875
 30
0.0
  0
VERTEX
  5
F4
330
EB
100
AcDbEntity
  8
None
  6
Continuous
 62
   250
370
     9
100
AcDbVertex
100
AcDb2dVertex
 10
6.961932577898221
 20
-3.608520093577875
 30
0.0
  0
VERTEX
  5
F5
330
EB
100
AcDbEntity
  8
None
  6
Continuous
 62
   250
370
     9
100
AcDbVertex
100
AcDb2dVertex
 10
6.961932577898221
 20
-3.629398082033353
 30
0.0
  0
SEQEND
  5
F6
330
EB
100
AcDbEntity
  8
None
  6
Continuous
 62
   250
370
     9
  0
POLYLINE
  5
F7
330
42
100
AcDbEntity
  8
FIXT
  6
Continuous
 62
   250
370
     9
100
AcDb2dPolyline
 66
     1
 10
0.0
 20
0.0
 30
0.0
 70
     1
  0
VERTEX
  5
F8
330
F7
100
AcDbEntity
  8
FIXT
  6
Continuous
 62
   250
370
     9
100
AcDbVertex
100
AcDb2dVertex
 10
6.994066618106531
 20
-3.629398082033353
 30
0.0
  0
VERTEX
  5
F9
330
F7
100
AcDbEntity
  8
FIXT
  6
Continuous
 62
   250
370
     9
100
AcDbVertex
100
AcDb2dVertex
 10
6.994066618106531
 20
-3.608520093577875
 30
0.0
  0
VERTEX
  5
FA
330
F7
100
AcDbEntity
  8
FIXT
  6
Continuous
 62
   250
370
     9
100
AcDbVertex
100
AcDb2dVertex
 10
6.961932577898221
 20
-3.608520093577875
 30
0.0
  0
VERTEX
  5
FB
330
F7
100
AcDbEntity
  8
FIXT
  6
Continuous
 62
   250
370
     9
100
AcDbVertex
100
AcDb2dVertex
 10
6.961932577898221
 20
-3.629398082033353
 30
0.0
  0
SEQEND
  5
FC
330
F7
100
AcDbEntity
  8
FIXT
  6
Continuous
 62
   250
370
     9
  0
POLYLINE
  5
FD
330
42
100
AcDbEntity
  8
None
  6
Continuous
 62
   250
370
     9
100
AcDb2dPolyline
 66
     1
 10
0.0
 20
0.0
 30
0.0
 70
     1
  0
VERTEX
  5
FE
330
FD
100
AcDbEntity
  8
None
  6
Continuous
 62
   250
370
     9
100
AcDbVertex
100
AcDb2dVertex
 10
7.138981365751348
 20
-3.460330876447733
 30
0.0
  0
VERTEX
  5
FF
330
FD
100
AcDbEntity
  8
None
  6
Continuous
 62
   250
370
     9
100
AcDbVertex
100
AcDb2dVertex
 10
7.288809727895122
 20
-3.460330876447733
 30
0.0
  0
VERTEX
  5
100
330
FD
100
AcDbEntity
  8
None
  6
Continuous
 62
   250
370
     9
100
AcDbVertex
100
AcDb2dVertex
 10
7.288809727895122
 20
-3.543644377573567
 30
0.0
  0
VERTEX
  5
101
330
FD
100
AcDbEntity
  8
None
  6
Continuous
 62
   250
370
     9
100
AcDbVertex
100
AcDb2dVertex
 10
7.138981365751348
 20
-3.543644377573567
 30
0.0
  0
SEQEND
  5
102
330
FD
100
AcDbEntity
  8
None
  6
Continuous
 62
   250
370
     9
  0
POLYLINE
  5
103
330
42
100
AcDbEntity
  8
None
  6
Continuous
 62
   250
370
     9
100
AcDb2dPolyline
 66
     1
 10
0.0
 20
0.0
 30
0.0
 70
     1
  0
VERTEX
  5
104
330
103
100
AcDbEntity
  8
None
  6
Continuous
 62
   250
370
     9
100
AcDbVertex
100
AcDb2dVertex
 10
7.492533297178625
 20
-3.641474311003756
 30
0.0
  0
VERTEX
  5
105
330
103
100
AcDbEntity
  8
None
  6
Continuous
 62
   250
370
     9
100
AcDbVertex
100
AcDb2dVertex
 10
7.389572219566197
 20
-3.641474311003756
 30
0.0
  0
VERTEX
  5
106
330
103
100
AcDbEntity
  8
None
  6
Continuous
 62
   250
370
     9
100
AcDbVertex
100
AcDb2dVertex
 10
7.389572219566197
 20
-3.626485857158475
 30
0.0
  0
VERTEX
  5
107
330
103
100
AcDbEntity
  8
None
  6
Continuous
 62
   250
370
     9
100
AcDbVertex
100
AcDb2dVertex
 10
7.360209024587863
 20
-3.626485857158475
 30
0.0
  0
VERTEX
  5
108
330
103
100
AcDbEntity
  8
None
  6
Continuous
 62
   250
370
     9
100
AcDbVertex
100
AcDb2dVertex
 10
7.360209024587863
 20
-3.641474311003756
 30
0.0
  0
VERTEX
  5
109
330
103
100
AcDbEntity
  8
None
  6
Continuous
 62
   250
370
     9
100
AcDbVertex
100
AcDb2dVertex
 10
7.307073617118094
 20
-3.641474311003756
 30
0.0
  0
VERTEX
  5
10A
330
103
100
AcDbEntity
  8
None
  6
Continuous
 62
   250
370
     9
100
AcDbVertex
100
AcDb2dVertex
 10
7.307073617118094
 20
-3.569016937181346
 30
0.0
  0
VERTEX
  5
10B
330
103
100
AcDbEntity
  8
None
  6
Continuous
 62
   250
370
     9
100
AcDbVertex
100
AcDb2dVertex
 10
7.492533297178625
 20
-3.569016937181346
 30
0.0
  0
SEQEND
  5
10C
330
103
100
AcDbEntity
  8
None
  6
Continuous
 62
   250
370
     9
  0
POLYLINE
  5
10D
330
42
100
AcDbEntity
  8
None
  6
Continuous
 62
   250
370
     9
100
AcDb2dPolyline
 66
     1
 10
0.0
 20
0.0
 30
0.0
 70
     1
  0
VERTEX
  5
10E
330
10D
100
AcDbEntity
  8
None
  6
Continuous
 62
   250
370
     9
100
AcDbVertex
100
AcDb2dVertex
 10
7.320124800307372
 20
-3.460330876447731
 30
0.0
  0
VERTEX
  5
10F
330
10D
100
AcDbEntity
  8
None
  6
Continuous
 62
   250
370
     9
100
AcDbVertex
100
AcDb2dVertex
 10
7.320124800307372
 20
-3.551009426093465
 30
0.0
  0
VERTEX
  5
110
330
10D
100
AcDbEntity
  8
None
  6
Continuous
 62
   250
370
     9
100
AcDbVertex
100
AcDb2dVertex
 10
7.490632297468201
 20
-3.551009426093465
 30
0.0
  0
VERTEX
  5
111
330
10D
100
AcDbEntity
  8
None
  6
Continuous
 62
   250
370
     9
100
AcDbVertex
100
AcDb2dVertex
 10
7.490632297468201
 20
-3.460330876447731
 30
0.0
  0
SEQEND
  5
112
330
10D
100
AcDbEntity
  8
None
  6
Continuous
 62
   250
370
     9
  0
POLYLINE
  5
113
330
42
100
AcDbEntity
  8
WINDOW
  6
Continuous
 62
   250
370
     9
100
AcDb2dPolyline
 66
     1
 10
0.0
 20
0.0
 30
0.0
 70
     1
  0
VERTEX
  5
114
330
113
100
AcDbEntity
  8
WINDOW
  6
Continuous
 62
   250
370
     9
100
AcDbVertex
100
AcDb2dVertex
 10
6.803675880372306
 20
-4.093014175400041
 30
0.0
  0
VERTEX
  5
115
330
113
100
AcDbEntity
  8
WINDOW
  6
Continuous
 62
   250
370
     9
100
AcDbVertex
100
AcDb2dVertex
 10
6.803675880372306
 20
-4.146231398931253
 30
0.0
  0
VERTEX
  5
116
330
113
100
AcDbEntity
  8
WINDOW
  6
Continuous
 62
   250
370
     9
100
AcDbVertex
100
AcDb2dVertex
 10
6.701452064131368
 20
-4.146231398931253
 30
0.0
  0
VERTEX
  5
117
330
113
100
AcDbEntity
  8
WINDOW
  6
Continuous
 62
   250
370
     9
100
AcDbVertex
100
AcDb2dVertex
 10
6.701452064131368
 20
-4.093014175400041
 30
0.0
  0
SEQEND
  5
118
330
113
100
AcDbEntity
  8
WINDOW
  6
Continuous
 62
   250
370
     9
  0
POLYLINE
  5
119
330
42
100
AcDbEntity
  8
WINDOW
  6
Continuous
 62
   250
370
     9
100
AcDb2dPolyline
 66
     1
 10
0.0
 20
0.0
 30
0.0
 70
     1
  0
VERTEX
  5
11A
330
119
100
AcDbEntity
  8
WINDOW
  6
Continuous
 62
   250
370
     9
100
AcDbVertex
100
AcDb2dVertex
 10
4.818743894202274
 20
-3.726020593836988
 30
0.0
  0
VERTEX
  5
11B
330
119
100
AcDbEntity
  8
WINDOW
  6
Continuous
 62
   250
370
     9
100
AcDbVertex
100
AcDb2dVertex
 10
5.267165875339094
 20
-3.726007913796568
 30
0.0
  0
VERTEX
  5
11C
330
119
100
AcDbEntity
  8
WINDOW
  6
Continuous
 62
   250
370
     9
100
AcDbVertex
100
AcDb2dVertex
 10
5.267165875339094
 20
-3.678827697373072
 30
0.0
  0
VERTEX
  5
11D
330
119
100
AcDbEntity
  8
WINDOW
  6
Continuous
 62
   250
370
     9
100
AcDbVertex
100
AcDb2dVertex
 10
4.82341457702706
 20
-3.678827697373072
 30
0.0
  0
VERTEX
  5
11E
330
119
100
AcDbEntity
  8
WINDOW
  6
Continuous
 62
   250
370
     9
100
AcDbVertex
100
AcDb2dVertex
 10
4.795057981240693
 20
-3.684621469492104
 30
0.0
  0
VERTEX
  5
11F
330
119
100
AcDbEntity
  8
WINDOW
  6
Continuous
 62
   250
370
     9
100
AcDbVertex
100
AcDb2dVertex
 10
4.775277319457658
 20
-3.697115334714399
 30
0.0
  0
VERTEX
  5
120
330
119
100
AcDbEntity
  8
WINDOW
  6
Continuous
 62
   250
370
     9
100
AcDbVertex
100
AcDb2dVertex
 10
4.761265069712818
 20
-3.713782140857414
 30
0.0
  0
VERTEX
  5
121
330
119
100
AcDbEntity
  8
WINDOW
  6
Continuous
 62
   250
370
     9
100
AcDbVertex
100
AcDb2dVertex
 10
4.752676254398586
 20
-3.733779772220953
 30
0.0
  0
VERTEX
  5
122
330
119
100
AcDbEntity
  8
WINDOW
  6
Continuous
 62
   250
370
     9
100
AcDbVertex
100
AcDb2dVertex
 10
4.755011797081461
 20
-4.388750353339796
 30
0.0
  0
VERTEX
  5
123
330
119
100
AcDbEntity
  8
WINDOW
  6
Continuous
 62
   250
370
     9
100
AcDbVertex
100
AcDb2dVertex
 10
4.752050907008402
 20
-4.472416279081084
 30
0.0
  0
VERTEX
  5
124
330
119
100
AcDbEntity
  8
WINDOW
  6
Continuous
 62
   250
370
     9
100
AcDbVertex
100
AcDb2dVertex
 10
4.725927608499632
 20
-4.625276380306496
 30
0.0
  0
VERTEX
  5
125
330
119
100
AcDbEntity
  8
WINDOW
  6
Continuous
 62
   250
370
     9
100
AcDbVertex
100
AcDb2dVertex
 10
4.700519021475422
 20
-4.69956249773599
 30
0.0
  0
VERTEX
  5
126
330
119
100
AcDbEntity
  8
WINDOW
  6
Continuous
 62
   250
370
     9
100
AcDbVertex
100
AcDb2dVertex
 10
4.766990586519199
 20
-4.701092176891843
 30
0.0
  0
VERTEX
  5
127
330
119
100
AcDbEntity
  8
WINDOW
  6
Continuous
 62
   250
370
     9
100
AcDbVertex
100
AcDb2dVertex
 10
4.76985399670947
 20
-4.701092176891843
 30
0.0
  0
VERTEX
  5
128
330
119
100
AcDbEntity
  8
WINDOW
  6
Continuous
 62
   250
370
     9
100
AcDbVertex
100
AcDb2dVertex
 10
4.794190304189169
 20
-4.580112692850575
 30
0.0
  0
VERTEX
  5
129
330
119
100
AcDbEntity
  8
WINDOW
  6
Continuous
 62
   250
370
     9
100
AcDbVertex
100
AcDb2dVertex
 10
4.804144337188506
 20
-4.314477117221203
 30
0.0
  0
VERTEX
  5
12A
330
119
100
AcDbEntity
  8
WINDOW
  6
Continuous
 62
   250
370
     9
100
AcDbVertex
100
AcDb2dVertex
 10
4.804067854405027
 20
-3.740913603214735
 30
0.0
  0
SEQEND
  5
12B
330
119
100
AcDbEntity
  8
WINDOW
  6
Continuous
 62
   250
370
     9
  0
POLYLINE
  5
12C
330
42
100
AcDbEntity
  8
WINDOW
  6
Continuous
 62
   250
370
     9
100
AcDb2dPolyline
 66
     1
 10
0.0
 20
0.0
 30
0.0
 70
     1
  0
VERTEX
  5
12D
330
12C
100
AcDbEntity
  8
WINDOW
  6
Continuous
 62
   250
370
     9
100
AcDbVertex
100
AcDb2dVertex
 10
5.267165875339094
 20
-3.726007913796568
 30
0.0
  0
VERTEX
  5
12E
330
12C
100
AcDbEntity
  8
WINDOW
  6
Continuous
 62
   250
370
     9
100
AcDbVertex
100
AcDb2dVertex
 10
4.818041862758128
 20
-3.726020593836988
 30
0.0
  0
VERTEX
  5
12F
330
12C
100
AcDbEntity
  8
WINDOW
  6
Continuous
 62
   250
370
     9
100
AcDbVertex
100
AcDb2dVertex
 10
4.804284823985529
 20
-3.740913603214735
 30
0.0
  0
VERTEX
  5
130
330
12C
100
AcDbEntity
  8
WINDOW
  6
Continuous
 62
   250
370
     9
100
AcDbVertex
100
AcDb2dVertex
 10
4.803940248918907
 20
-4.325413953988248
 30
0.0
  0
VERTEX
  5
131
330
12C
100
AcDbEntity
  8
WINDOW
  6
Continuous
 62
   250
370
     9
100
AcDbVertex
100
AcDb2dVertex
 10
4.794407273769672
 20
-4.580112692850575
 30
0.0
  0
VERTEX
  5
132
330
12C
100
AcDbEntity
  8
WINDOW
  6
Continuous
 62
   250
370
     9
100
AcDbVertex
100
AcDb2dVertex
 10
4.770070966289972
 20
-4.701092176891843
 30
0.0
  0
VERTEX
  5
133
330
12C
100
AcDbEntity
  8
WINDOW
  6
Continuous
 62
   250
370
     9
100
AcDbVertex
100
AcDb2dVertex
 10
4.831007908533164
 20
-4.701092176891843
 30
0.0
  0
VERTEX
  5
134
330
12C
100
AcDbEntity
  8
WINDOW
  6
Continuous
 62
   250
370
     9
100
AcDbVertex
100
AcDb2dVertex
 10
4.831007908533164
 20
-3.79715441296424
 30
0.0
  0
VERTEX
  5
135
330
12C
100
AcDbEntity
  8
WINDOW
  6
Continuous
 62
   250
370
     9
100
AcDbVertex
100
AcDb2dVertex
 10
4.869012404914465
 20
-3.79715441296424
 30
0.0
  0
VERTEX
  5
136
330
12C
100
AcDbEntity
  8
WINDOW
  6
Continuous
 62
   250
370
     9
100
AcDbVertex
100
AcDb2dVertex
 10
4.869012404914465
 20
-3.750854956173652
 30
0.0
  0
VERTEX
  5
137
330
12C
100
AcDbEntity
  8
WINDOW
  6
Continuous
 62
   250
370
     9
100
AcDbVertex
100
AcDb2dVertex
 10
5.267165875339094
 20
-3.750854956173652
 30
0.0
  0
SEQEND
  5
138
330
12C
100
AcDbEntity
  8
WINDOW
  6
Continuous
 62
   250
370
     9
  0
POLYLINE
  5
139
330
42
100
AcDbEntity
  8
WINDOW
  6
Continuous
 62
   250
370
     9
100
AcDb2dPolyline
 66
     1
 10
0.0
 20
0.0
 30
0.0
 70
     1
  0
VERTEX
  5
13A
330
139
100
AcDbEntity
  8
WINDOW
  6
Continuous
 62
   250
370
     9
100
AcDbVertex
100
AcDb2dVertex
 10
5.883053552829576
 20
-3.508635792329338
 30
0.0
  0
VERTEX
  5
13B
330
139
100
AcDbEntity
  8
WINDOW
  6
Continuous
 62
   250
370
     9
100
AcDbVertex
100
AcDb2dVertex
 10
5.85474787847537
 20
-3.529437298001337
 30
0.0
  0
VERTEX
  5
13C
330
139
100
AcDbEntity
  8
WINDOW
  6
Continuous
 62
   250
370
     9
100
AcDbVertex
100
AcDb2dVertex
 10
5.850830148526891
 20
-3.51776038966889
 30
0.0
  0
VERTEX
  5
13D
330
139
100
AcDbEntity
  8
WINDOW
  6
Continuous
 62
   250
370
     9
100
AcDbVertex
100
AcDb2dVertex
 10
5.869130465908635
 20
-3.504169197774152
 30
0.0
  0
SEQEND
  5
13E
330
139
100
AcDbEntity
  8
WINDOW
  6
Continuous
 62
   250
370
     9
  0
POLYLINE
  5
13F
330
42
100
AcDbEntity
  8
WINDOW
  6
Continuous
 62
   250
370
     9
100
AcDb2dPolyline
 66
     1
 10
0.0
 20
0.0
 30
0.0
 70
     1
  0
VERTEX
  5
140
330
13F
100
AcDbEntity
  8
WINDOW
  6
Continuous
 62
   250
370
     9
100
AcDbVertex
100
AcDb2dVertex
 10
5.895129781799979
 20
-3.520712021299739
 30
0.0
  0
VERTEX
  5
141
330
13F
100
AcDbEntity
  8
WINDOW
  6
Continuous
 62
   250
370
     9
100
AcDbVertex
100
AcDb2dVertex
 10
5.868713030927226
 20
-3.540122546664831
 30
0.0
  0
VERTEX
  5
142
330
13F
100
AcDbEntity
  8
WINDOW
  6
Continuous
 62
   250
370
     9
100
AcDbVertex
100
AcDb2dVertex
 10
5.897656531441553
 20
-3.561013617701695
 30
0.0
  0
VERTEX
  5
143
330
13F
100
AcDbEntity
  8
WINDOW
  6
Continuous
 62
   250
370
     9
100
AcDbVertex
100
AcDb2dVertex
 10
5.992565627624766
 20
-3.603318861760322
 30
0.0
  0
VERTEX
  5
144
330
13F
100
AcDbEntity
  8
WINDOW
  6
Continuous
 62
   250
370
     9
100
AcDbVertex
100
AcDb2dVertex
 10
6.070718553570584
 20
-3.62145333226421
 30
0.0
  0
VERTEX
  5
145
330
13F
100
AcDbEntity
  8
WINDOW
  6
Continuous
 62
   250
370
     9
100
AcDbVertex
100
AcDb2dVertex
 10
6.070718553570584
 20
-3.600855713591327
 30
0.0
  0
VERTEX
  5
146
330
13F
100
AcDbEntity
  8
WINDOW
  6
Continuous
 62
   250
370
     9
100
AcDbVertex
100
AcDb2dVertex
 10
6.04602447676046
 20
-3.600855713591327
 30
0.0
  0
VERTEX
  5
147
330
13F
100
AcDbEntity
  8
WINDOW
  6
Continuous
 62
   250
370
     9
100
AcDbVertex
100
AcDb2dVertex
 10
6.04602447676046
 20
-3.574298677192034
 30
0.0
  0
VERTEX
  5
148
330
13F
100
AcDbEntity
  8
WINDOW
  6
Continuous
 62
   250
370
     9
100
AcDbVertex
100
AcDb2dVertex
 10
6.068421453549931
 20
-3.574298677192034
 30
0.0
  0
VERTEX
  5
149
330
13F
100
AcDbEntity
  8
WINDOW
  6
Continuous
 62
   250
370
     9
100
AcDbVertex
100
AcDb2dVertex
 10
6.068421453549931
 20
-3.561013617701695
 30
0.0
  0
VERTEX
  5
14A
330
13F
100
AcDbEntity
  8
WINDOW
  6
Continuous
 62
   250
370
     9
100
AcDbVertex
100
AcDb2dVertex
 10
6.037218893136209
 20
-3.561013617701695
 30
0.0
  0
VERTEX
  5
14B
330
13F
100
AcDbEntity
  8
WINDOW
  6
Continuous
 62
   250
370
     9
100
AcDbVertex
100
AcDb2dVertex
 10
5.947899682072909
 20
-3.536842844146954
 30
0.0
  0
SEQEND
  5
14C
330
13F
100
AcDbEntity
  8
WINDOW
  6
Continuous
 62
   250
370
     9
  0
LINE
  5
14D
330
42
100
AcDbEntity
  8
A-ARCH
  6
Continuous
 62
   250
370
     9
100
AcDbLine
 10
6.668008435905684
 20
-3.44825464747733
 30
0.0
 11
6.668008435905684
 21
-3.627901635993438
 31
0.0
  0
LINE
  5
14E
330
42
100
AcDbEntity
  8
A-ARCH
  6
Continuous
 62
   250
370
     9
100
AcDbLine
 10
6.668008435905684
 20
-3.44825464747733
 30
0.0
 11
6.668008435905684
 21
-3.624328481111579
 31
0.0
  0
LINE
  5
14F
330
42
100
AcDbEntity
  8
A-ARCH
  6
Continuous
 62
   250
370
     9
100
AcDbLine
 10
6.994066618106531
 20
-3.44825464747733
 30
0.0
 11
6.994066618106531
 21
-3.624328481111579
 31
0.0
  0
POLYLINE
  5
150
330
42
100
AcDbEntity
  8
FIXT
  6
Continuous
 62
   250
370
     9
100
AcDb2dPolyline
 66
     1
 10
0.0
 20
0.0
 30
0.0
 70
     1
  0
VERTEX
  5
151
330
150
100
AcDbEntity
  8
FIXT
  6
Continuous
 62
   250
370
     9
100
AcDbVertex
100
AcDb2dVertex
 10
7.271819884425766
 20
-3.550680926464334
 30
0.0
  0
VERTEX
  5
152
330
150
100
AcDbEntity
  8
FIXT
  6
Continuous
 62
   250
370
     9
100
AcDbVertex
100
AcDb2dVertex
 10
7.271819884425766
 20
-3.617935055764363
 30
0.0
  0
VERTEX
  5
153
330
150
100
AcDbEntity
  8
FIXT
  6
Continuous
 62
   250
370
     9
100
AcDbVertex
100
AcDb2dVertex
 10
7.144131072325293
 20
-3.617935055764363
 30
0.0
  0
VERTEX
  5
154
330
150
100
AcDbEntity
  8
FIXT
  6
Continuous
 62
   250
370
     9
100
AcDbVertex
100
AcDb2dVertex
 10
7.144131072325293
 20
-3.550680926464334
 30
0.0
  0
SEQEND
  5
155
330
150
100
AcDbEntity
  8
FIXT
  6
Continuous
 62
   250
370
     9
  0
POLYLINE
  5
156
330
42
100
AcDbEntity
  8
FIXT
  6
Continuous
 62
   250
370
     9
100
AcDb2dPolyline
 66
     1
 10
0.0
 20
0.0
 30
0.0
 70
     1
  0
VERTEX
  5
157
330
156
100
AcDbEntity
  8
FIXT
  6
Continuous
 62
   250
370
     9
100
AcDbVertex
100
AcDb2dVertex
 10
6.762033149587301
 20
-3.795596501159699
 30
0.0
  0
VERTEX
  5
158
330
156
100
AcDbEntity
  8
FIXT
  6
Continuous
 62
   250
370
     9
100
AcDbVertex
100
AcDb2dVertex
 10
6.762033149587301
 20
-3.756060805834031
 30
0.0
  0
VERTEX
  5
159
330
156
100
AcDbEntity
  8
FIXT
  6
Continuous
 62
   250
370
     9
100
AcDbVertex
100
AcDb2dVertex
 10
6.588537993379198
 20
-3.756060805834031
 30
0.0
  0
VERTEX
  5
15A
330
156
100
AcDbEntity
  8
FIXT
  6
Continuous
 62
   250
370
     9
100
AcDbVertex
100
AcDb2dVertex
 10
6.588537993379198
 20
-3.795596501159699
 30
0.0
  0
SEQEND
  5
15B
330
156
100
AcDbEntity
  8
FIXT
  6
Continuous
 62
   250
370
     9
  0
POLYLINE
  5
15C
330
42
100
AcDbEntity
  8
WINDOW
  6
Continuous
 62
   250
370
     9
100
AcDb2dPolyline
 66
     1
 10
0.0
 20
0.0
 30
0.0
 70
     1
  0
VERTEX
  5
15D
330
15C
100
AcDbEntity
  8
WINDOW
  6
Continuous
 62
   250
370
     9
100
AcDbVertex
100
AcDb2dVertex
 10
7.551058526908366
 20
-3.375797273654919
 30
0.0
  0
VERTEX
  5
15E
330
15C
100
AcDbEntity
  8
WINDOW
  6
Continuous
 62
   250
370
     9
100
AcDbVertex
100
AcDb2dVertex
 10
7.551058526908366
 20
-3.358007378217656
 30
0.0
  0
VERTEX
  5
15F
330
15C
100
AcDbEntity
  8
WINDOW
  6
Continuous
 62
   250
370
     9
100
AcDbVertex
100
AcDb2dVertex
 10
7.860760262050732
 20
-3.358007378217656
 30
0.0
  0
VERTEX
  5
160
330
15C
100
AcDbEntity
  8
WINDOW
  6
Continuous
 62
   250
370
     9
100
AcDbVertex
100
AcDb2dVertex
 10
7.860760262050732
 20
-3.375797273654919
 30
0.0
  0
SEQEND
  5
161
330
15C
100
AcDbEntity
  8
WINDOW
  6
Continuous
 62
   250
370
     9
  0
POLYLINE
  5
162
330
42
100
AcDbEntity
  8
WINDOW
  6
Continuous
 62
   250
370
     9
100
AcDb2dPolyline
 66
     1
 10
0.0
 20
0.0
 30
0.0
 70
     1
  0
VERTEX
  5
163
330
162
100
AcDbEntity
  8
WINDOW
  6
Continuous
 62
   250
370
     9
100
AcDbVertex
100
AcDb2dVertex
 10
7.551058526908366
 20
-3.399949731595723
 30
0.0
  0
VERTEX
  5
164
330
162
100
AcDbEntity
  8
WINDOW
  6
Continuous
 62
   250
370
     9
100
AcDbVertex
100
AcDb2dVertex
 10
7.551058526908366
 20
-3.410350585066964
 30
0.0
  0
VERTEX
  5
165
330
162
100
AcDbEntity
  8
WINDOW
  6
Continuous
 62
   250
370
     9
100
AcDbVertex
100
AcDb2dVertex
 10
7.55384048752218
 20
-3.41280085192506
 30
0.0
  0
VERTEX
  5
166
330
162
100
AcDbEntity
  8
WINDOW
  6
Continuous
 62
   250
370
     9
100
AcDbVertex
100
AcDb2dVertex
 10
7.847692373411375
 20
-3.41280085192506
 30
0.0
  0
VERTEX
  5
167
330
162
100
AcDbEntity
  8
WINDOW
  6
Continuous
 62
   250
370
     9
100
AcDbVertex
100
AcDb2dVertex
 10
7.847692373411375
 20
-3.438694500812911
 30
0.0
  0
VERTEX
  5
168
330
162
100
AcDbEntity
  8
WINDOW
  6
Continuous
 62
   250
370
     9
100
AcDbVertex
100
AcDb2dVertex
 10
7.863555103975447
 20
-3.438694500812911
 30
0.0
  0
VERTEX
  5
169
330
162
100
AcDbEntity
  8
WINDOW
  6
Continuous
 62
   250
370
     9
100
AcDbVertex
100
AcDb2dVertex
 10
7.863963481785129
 20
-3.399949731595723
 30
0.0
  0
SEQEND
  5
16A
330
162
100
AcDbEntity
  8
WINDOW
  6
Continuous
 62
   250
370
     9
  0
POLYLINE
  5
16B
330
42
100
AcDbEntity
  8
WINDOW
  6
Continuous
 62
   250
370
     9
100
AcDb2dPolyline
 66
     1
 10
0.0
 20
0.0
 30
0.0
 70
     1
  0
VERTEX
  5
16C
330
16B
100
AcDbEntity
  8
WINDOW
  6
Continuous
 62
   250
370
     9
100
AcDbVertex
100
AcDb2dVertex
 10
6.038677500325349
 20
-3.745247359251245
 30
0.0
  0
VERTEX
  5
16D
330
16B
100
AcDbEntity
  8
WINDOW
  6
Continuous
 62
   250
370
     9
100
AcDbVertex
100
AcDb2dVertex
 10
5.991739613563194
 20
-3.745247359251245
 30
0.0
  0
VERTEX
  5
16E
330
16B
100
AcDbEntity
  8
WINDOW
  6
Continuous
 62
   250
370
     9
100
AcDbVertex
100
AcDb2dVertex
 10
5.991739613563194
 20
-3.66562676894456
 30
0.0
  0
VERTEX
  5
16F
330
16B
100
AcDbEntity
  8
WINDOW
  6
Continuous
 62
   250
370
     9
100
AcDbVertex
100
AcDb2dVertex
 10
6.026030468265614
 20
-3.67426650569095
 30
0.0
  0
VERTEX
  5
170
330
16B
100
AcDbEntity
  8
WINDOW
  6
Continuous
 62
   250
370
     9
100
AcDbVertex
100
AcDb2dVertex
 10
6.038677500325349
 20
-3.676014942375382
 30
0.0
  0
SEQEND
  5
171
330
16B
100
AcDbEntity
  8
WINDOW
  6
Continuous
 62
   250
370
     9
  0
LWPOLYLINE
  5
172
330
42
100
AcDbEntity
  8
None
  6
Continuous
 62
   250
370
     9
100
AcDbPolyline
 90
       14
 70
     1
 43
0.0
 10
6.139069607002093
 20
-3.763420876228813
 10
6.139069607002093
 20
-3.821110833454767
 10
6.116196024429602
 20
-3.821110833454767
 10
6.116196024429602
 20
-4.042290202190558
 10
6.116196024429602
 20
-4.043579140972522
 10
6.116196024429602
 20
-4.047946248225492
 10
6.097387738118661
 20
-4.047946248225492
 10
6.097387738118661
 20
-4.043509685230926
 10
6.097387738118661
 20
-4.042290202190558
 10
6.097387738118661
 20
-3.790925739984124
 42
-0.4142135623730993
 10
6.136031670823947
 20
-3.752281807278839
 10
6.155715907171128
 20
-3.752281807278839
 10
6.160806819148817
 20
-3.752281807278839
 10
6.160806819148817
 20
-3.763420876228813
  0
LWPOLYLINE
  5
173
330
42
100
AcDbEntity
  8
None
  6
Continuous
 62
   250
370
     9
100
AcDbPolyline
 90
        6
 70
     1
 43
0.0
 10
6.092903526704943
 20
-3.618683399716347
 10
6.137673917902284
 20
-3.618471997158657
 10
6.169348903978042
 20
-3.586797011082899
 10
6.139813671123285
 20
-3.557160775669037
 10
6.090827602180387
 20
-3.557160775669037
 10
6.061005855510403
 20
-3.587078475029144
  0
LINE
  5
174
330
42
100
AcDbEntity
  8
None
  6
Continuous
 62
   250
370
     9
100
AcDbLine
 10
4.766235041745587
 20
-4.70107478989199
 30
0.0
 11
7.863555103975447
 21
-4.701284458089557
 31
0.0
  0
LINE
  5
175
330
42
100
AcDbEntity
  8
None
  6
Continuous
 62
   250
370
     9
100
AcDbLine
 10
6.25853229319841
 20
-4.078056354717027
 30
0.0
 11
6.25853229319841
 21
-4.25736198849424
 31
0.0
  0
LINE
  5
176
330
42
100
AcDbEntity
  8
None
  6
Continuous
 62
   250
370
     9
100
AcDbLine
 10
6.300007900326771
 20
-4.078056354717027
 30
0.0
 11
6.300007900326771
 21
-4.25736198849424
 31
0.0
  0
LINE
  5
177
330
42
100
AcDbEntity
  8
None
  6
Continuous
 62
   250
370
     9
100
AcDbLine
 10
6.519446587363924
 20
-4.078056354717027
 30
0.0
 11
6.519446587363924
 21
-4.25736198849424
 31
0.0
  0
LINE
  5
178
330
42
100
AcDbEntity
  8
None
  6
Continuous
 62
   250
370
     9
100
AcDbLine
 10
6.557910382987067
 20
-4.078056354717027
 30
0.0
 11
6.557910382987067
 21
-4.257612449911134
 31
0.0
  0
LINE
  5
179
330
42
100
AcDbEntity
  8
None
  6
Continuous
 62
   250
370
     9
100
AcDbLine
 10
6.852674707722858
 20
-4.078056354717027
 30
0.0
 11
6.852674707722858
 21
-4.25736198849424
 31
0.0
  0
LINE
  5
17A
330
42
100
AcDbEntity
  8
None
  6
Continuous
 62
   250
370
     9
100
AcDbLine
 10
6.813701583743939
 20
-4.078056354717027
 30
0.0
 11
6.813701583743939
 21
-4.25736198849424
 31
0.0
  0
POLYLINE
  5
17B
330
42
100
AcDbEntity
  8
WINDOW
  6
Continuous
 62
   250
370
     9
100
AcDb2dPolyline
 66
     1
 10
0.0
 20
0.0
 30
0.0
 70
     1
  0
VERTEX
  5
17C
330
17B
100
AcDbEntity
  8
WINDOW
  6
Continuous
 62
   250
370
     9
100
AcDbVertex
100
AcDb2dVertex
 10
6.655932206935282
 20
-3.641474311003756
 30
0.0
  0
VERTEX
  5
17D
330
17B
100
AcDbEntity
  8
WINDOW
  6
Continuous
 62
   250
370
     9
100
AcDbVertex
100
AcDb2dVertex
 10
6.655932206935282
 20
-3.661357016921591
 30
0.0
  0
VERTEX
  5
17E
330
17B
100
AcDbEntity
  8
WINDOW
  6
Continuous
 62
   250
370
     9
100
AcDbVertex
100
AcDb2dVertex
 10
6.602902050693778
 20
-3.661357016921591
 30
0.0
  0
VERTEX
  5
17F
330
17B
100
AcDbEntity
  8
WINDOW
  6
Continuous
 62
   250
370
     9
100
AcDbVertex
100
AcDb2dVertex
 10
6.602902050693778
 20
-3.616537703261808
 30
0.0
  0
VERTEX
  5
180
330
17B
100
AcDbEntity
  8
WINDOW
  6
Continuous
 62
   250
370
     9
100
AcDbVertex
100
AcDb2dVertex
 10
6.343586180189367
 20
-3.616588825964449
 30
0.0
  0
VERTEX
  5
181
330
17B
100
AcDbEntity
  8
WINDOW
  6
Continuous
 62
   250
370
     9
100
AcDbVertex
100
AcDb2dVertex
 10
6.343586180189367
 20
-3.605243812658204
 30
0.0
  0
VERTEX
  5
182
330
17B
100
AcDbEntity
  8
WINDOW
  6
Continuous
 62
   250
370
     9
100
AcDbVertex
100
AcDb2dVertex
 10
6.606800037321012
 20
-3.605243812658204
 30
0.0
  0
SEQEND
  5
183
330
17B
100
AcDbEntity
  8
WINDOW
  6
Continuous
 62
   250
370
     9
  0
POLYLINE
  5
184
330
42
100
AcDbEntity
  8
WINDOW
  6
Continuous
 62
   250
370
     9
100
AcDb2dPolyline
 66
     1
 10
0.0
 20
0.0
 30
0.0
 70
     1
  0
VERTEX
  5
185
330
184
100
AcDbEntity
  8
WINDOW
  6
Continuous
 62
   250
370
     9
100
AcDbVertex
100
AcDb2dVertex
 10
6.302143178879223
 20
-3.433203238229586
 30
0.0
  0
VERTEX
  5
186
330
184
100
AcDbEntity
  8
WINDOW
  6
Continuous
 62
   250
370
     9
100
AcDbVertex
100
AcDb2dVertex
 10
6.564077994140612
 20
-3.433203238229586
 30
0.0
  0
VERTEX
  5
187
330
184
100
AcDbEntity
  8
WINDOW
  6
Continuous
 62
   250
370
     9
100
AcDbVertex
100
AcDb2dVertex
 10
6.564077994140612
 20
-3.461751242245134
 30
0.0
  0
VERTEX
  5
188
330
184
100
AcDbEntity
  8
WINDOW
  6
Continuous
 62
   250
370
     9
100
AcDbVertex
100
AcDb2dVertex
 10
6.247050818504801
 20
-3.461751242245134
 30
0.0
  0
VERTEX
  5
189
330
184
100
AcDbEntity
  8
WINDOW
  6
Continuous
 62
   250
370
     9
100
AcDbVertex
100
AcDb2dVertex
 10
6.219842873364002
 20
-3.461751242245134
 30
0.0
  0
VERTEX
  5
18A
330
184
100
AcDbEntity
  8
WINDOW
  6
Continuous
 62
   250
370
     9
100
AcDbVertex
100
AcDb2dVertex
 10
6.218273164868336
 20
-3.465247914343513
 30
0.0
  0
VERTEX
  5
18B
330
184
100
AcDbEntity
  8
WINDOW
  6
Continuous
 62
   250
370
     9
100
AcDbVertex
100
AcDb2dVertex
 10
6.21773718157253
 20
-3.497228787714378
 30
0.0
  0
VERTEX
  5
18C
330
184
100
AcDbEntity
  8
WINDOW
  6
Continuous
 62
   250
370
     9
100
AcDbVertex
100
AcDb2dVertex
 10
6.029054758540767
 20
-3.497228787714378
 30
0.0
  0
VERTEX
  5
18D
330
184
100
AcDbEntity
  8
WINDOW
  6
Continuous
 62
   250
370
     9
100
AcDbVertex
100
AcDb2dVertex
 10
6.001144983226308
 20
-3.48514350157225
 30
0.0
  0
VERTEX
  5
18E
330
184
100
AcDbEntity
  8
WINDOW
  6
Continuous
 62
   250
370
     9
100
AcDbVertex
100
AcDb2dVertex
 10
5.991739613563194
 20
-3.472407105418132
 30
0.0
  0
VERTEX
  5
18F
330
184
100
AcDbEntity
  8
WINDOW
  6
Continuous
 62
   250
370
     9
100
AcDbVertex
100
AcDb2dVertex
 10
6.0377456179898
 20
-3.449729557575581
 30
0.0
  0
VERTEX
  5
190
330
184
100
AcDbEntity
  8
WINDOW
  6
Continuous
 62
   250
370
     9
100
AcDbVertex
100
AcDb2dVertex
 10
6.040221244928733
 20
-3.454923543655751
 30
0.0
  0
SEQEND
  5
191
330
184
100
AcDbEntity
  8
WINDOW
  6
Continuous
 62
   250
370
     9
  0
POLYLINE
  5
192
330
42
100
AcDbEntity
  8
None
  6
Continuous
 62
   250
370
     9
100
AcDb2dPolyline
 66
     1
 10
0.0
 20
0.0
 30
0.0
 70
     1
  0
VERTEX
  5
193
330
192
100
AcDbEntity
  8
None
  6
Continuous
 62
   250
370
     9
100
AcDbVertex
100
AcDb2dVertex
 10
5.3514519375272
 20
-3.726262697998548
 30
0.0
  0
VERTEX
  5
194
330
192
100
AcDbEntity
  8
None
  6
Continuous
 62
   250
370
     9
100
AcDbVertex
100
AcDb2dVertex
 10
5.923262810258285
 20
-3.726262697998548
 30
0.0
  0
VERTEX
  5
195
330
192
100
AcDbEntity
  8
None
  6
Continuous
 62
   250
370
     9
100
AcDbVertex
100
AcDb2dVertex
 10
5.923262810258285
 20
-3.748904355672249
 30
0.0
  0
VERTEX
  5
196
330
192
100
AcDbEntity
  8
None
  6
Continuous
 62
   250
370
     9
100
AcDbVertex
100
AcDb2dVertex
 10
5.3514519375272
 20
-3.748904355672249
 30
0.0
  0
SEQEND
  5
197
330
192
100
AcDbEntity
  8
None
  6
Continuous
 62
   250
370
     9
  0
POLYLINE
  5
198
330
42
100
AcDbEntity
  8
None
  6
Continuous
 62
   250
370
     9
100
AcDb2dPolyline
 66
     1
 10
0.0
 20
0.0
 30
0.0
 70
     1
  0
VERTEX
  5
199
330
198
100
AcDbEntity
  8
None
  6
Continuous
 62
   250
370
     9
100
AcDbVertex
100
AcDb2dVertex
 10
6.025083370850496
 20
-3.520930522171249
 30
0.0
  0
VERTEX
  5
19A
330
198
100
AcDbEntity
  8
None
  6
Continuous
 62
   250
370
     9
100
AcDbVertex
100
AcDb2dVertex
 10
6.020889335510005
 20
-3.534068167791864
 30
0.0
  0
VERTEX
  5
19B
330
198
100
AcDbEntity
  8
None
  6
Continuous
 62
   250
370
     9
100
AcDbVertex
100
AcDb2dVertex
 10
5.954380004555643
 20
-3.512835863880631
 30
0.0
  0
VERTEX
  5
19C
330
198
100
AcDbEntity
  8
None
  6
Continuous
 62
   250
370
     9
100
AcDbVertex
100
AcDb2dVertex
 10
5.948679998458031
 20
-3.530690901825297
 30
0.0
  0
VERTEX
  5
19D
330
198
100
AcDbEntity
  8
None
  6
Continuous
 62
   250
370
     9
100
AcDbVertex
100
AcDb2dVertex
 10
5.931843936687232
 20
-3.498403224806904
 30
0.0
  0
VERTEX
  5
19E
330
198
100
AcDbEntity
  8
None
  6
Continuous
 62
   250
370
     9
100
AcDbVertex
100
AcDb2dVertex
 10
5.964274045993741
 20
-3.481843180315349
 30
0.0
  0
VERTEX
  5
19F
330
198
100
AcDbEntity
  8
None
  6
Continuous
 62
   250
370
     9
100
AcDbVertex
100
AcDb2dVertex
 10
5.958574039896131
 20
-3.499698218260016
 30
0.0
  0
SEQEND
  5
1A0
330
198
100
AcDbEntity
  8
None
  6
Continuous
 62
   250
370
     9
  0
POLYLINE
  5
1A1
330
42
100
AcDbEntity
  8
None
  6
Continuous
 62
   250
370
     9
100
AcDb2dPolyline
 66
     1
 10
0.0
 20
0.0
 30
0.0
 70
     1
  0
VERTEX
  5
1A2
330
1A1
100
AcDbEntity
  8
None
  6
Continuous
 62
   250
370
     9
100
AcDbVertex
100
AcDb2dVertex
 10
5.839349281195388
 20
-3.580734961900518
 30
0.0
  0
VERTEX
  5
1A3
330
1A1
100
AcDbEntity
  8
None
  6
Continuous
 62
   250
370
     9
100
AcDbVertex
100
AcDb2dVertex
 10
5.844737649231908
 20
-3.568040350650338
 30
0.0
  0
VERTEX
  5
1A4
330
1A1
100
AcDbEntity
  8
None
  6
Continuous
 62
   250
370
     9
100
AcDbVertex
100
AcDb2dVertex
 10
5.909004118685939
 20
-3.595318963835213
 30
0.0
  0
VERTEX
  5
1A5
330
1A1
100
AcDbEntity
  8
None
  6
Continuous
 62
   250
370
     9
100
AcDbVertex
100
AcDb2dVertex
 10
5.916327311785385
 20
-3.578066042565281
 30
0.0
  0
VERTEX
  5
1A6
330
1A1
100
AcDbEntity
  8
None
  6
Continuous
 62
   250
370
     9
100
AcDbVertex
100
AcDb2dVertex
 10
5.930112330761764
 20
-3.611769459528774
 30
0.0
  0
VERTEX
  5
1A7
330
1A1
100
AcDbEntity
  8
None
  6
Continuous
 62
   250
370
     9
100
AcDbVertex
100
AcDb2dVertex
 10
5.896292557549975
 20
-3.625266496355324
 30
0.0
  0
VERTEX
  5
1A8
330
1A1
100
AcDbEntity
  8
None
  6
Continuous
 62
   250
370
     9
100
AcDbVertex
100
AcDb2dVertex
 10
5.903615750649421
 20
-3.608013575085391
 30
0.0
  0
SEQEND
  5
1A9
330
1A1
100
AcDbEntity
  8
None
  6
Continuous
 62
   250
370
     9
  0
ENDBLK
  5
44
330
42
100
AcDbEntity
  8
0
100
AcDbBlockEnd
  0
BLOCK
  5
46
330
45
100
AcDbEntity
  8
0
100
AcDbBlockBegin
  2
Group-3-1
 70
     0
 10
0.0
 20
0.0
 30
0.0
  3
Group-3-1
  1

  0
ELLIPSE
  5
1AA
330
45
100
AcDbEntity
  8
None
  6
Continuous
 62
     7
370
    18
100
AcDbEllipse
 10
4.754836483954028
 20
-3.385863501171561
 30
0.0
 11
0.1226330754869231
 21
0.0
 31
0.0
210
0.0
220
0.0
230
1.0
 40
1.0
 41
0.0
 42
6.283185307179586
  0
POLYLINE
  5
1AB
102
{ACAD_REACTORS
330
1B6
102
}
330
45
100
AcDbEntity
  8
None
  6
Continuous
 62
     7
370
    18
100
AcDb2dPolyline
 66
     1
 10
0.0
 20
0.0
 30
0.0
 70
     1
  0
VERTEX
  5
1AC
330
1AB
100
AcDbEntity
  8
None
  6
Continuous
 62
     7
370
    18
100
AcDbVertex
100
AcDb2dVertex
 10
4.744061696675595
 20
-3.485363760043854
 30
0.0
  0
VERTEX
  5
1AD
330
1AB
100
AcDbEntity
  8
None
  6
Continuous
 62
     7
370
    18
100
AcDbVertex
100
AcDb2dVertex
 10
4.768963863303352
 20
-3.485363760043854
 30
0.0
  0
VERTEX
  5
1AE
330
1AB
100
AcDbEntity
  8
None
  6
Continuous
 62
     7
370
    18
100
AcDbVertex
100
AcDb2dVertex
 10
4.768963863303352
 20
-3.330473378487309
 30
0.0
  0
VERTEX
  5
1AF
330
1AB
100
AcDbEntity
  8
None
  6
Continuous
 62
     7
370
    18
100
AcDbVertex
100
AcDb2dVertex
 10
4.855083970681878
 20
-3.416593534919065
 30
0.0
  0
VERTEX
  5
1B0
330
1AB
100
AcDbEntity
  8
None
  6
Continuous
 62
     7
370
    18
100
AcDbVertex
100
AcDb2dVertex
 10
4.855083970681878
 20
-3.384814743109997
 30
0.0
  0
VERTEX
  5
1B1
330
1AB
100
AcDbEntity
  8
None
  6
Continuous
 62
     7
370
    18
100
AcDbVertex
100
AcDb2dVertex
 10
4.756512779989474
 20
-3.286243552417593
 30
0.0
  0
VERTEX
  5
1B2
330
1AB
100
AcDbEntity
  8
None
  6
Continuous
 62
     7
370
    18
100
AcDbVertex
100
AcDb2dVertex
 10
4.655866539553369
 20
-3.386889792853697
 30
0.0
  0
VERTEX
  5
1B3
330
1AB
100
AcDbEntity
  8
None
  6
Continuous
 62
     7
370
    18
100
AcDbVertex
100
AcDb2dVertex
 10
4.655866539553369
 20
-3.418668928035377
 30
0.0
  0
VERTEX
  5
1B4
330
1AB
100
AcDbEntity
  8
None
  6
Continuous
 62
     7
370
    18
100
AcDbVertex
100
AcDb2dVertex
 10
4.744061696675595
 20
-3.330473378487309
 30
0.0
  0
SEQEND
  5
1B5
330
1AB
100
AcDbEntity
  8
None
  6
Continuous
 62
     7
370
    18
  0
HATCH
  5
1B6
330
45
100
AcDbEntity
  8
None
  6
Continuous
 62
     7
370
     0
100
AcDbHatch
 10
0.0
 20
0.0
 30
0.0
210
0.0
220
0.0
230
1.0
  2
SOLID
 70
     1
 71
     1
 91
        1
 92
        1
 93
        9
 72
     1
 10
4.744061696675595
 20
-3.485363760043854
 11
4.768963863303352
 21
-3.485363760043854
 72
     1
 10
4.768963863303352
 20
-3.485363760043854
 11
4.768963863303352
 21
-3.330473378487309
 72
     1
 10
4.768963863303352
 20
-3.330473378487309
 11
4.855083970681878
 21
-3.416593534919065
 72
     1
 10
4.855083970681878
 20
-3.416593534919065
 11
4.855083970681878
 21
-3.384814743109997
 72
     1
 10
4.855083970681878
 20
-3.384814743109997
 11
4.756512779989474
 21
-3.286243552417593
 72
     1
 10
4.756512779989474
 20
-3.286243552417593
 11
4.655866539553369
 21
-3.386889792853697
 72
     1
 10
4.655866539553369
 20
-3.386889792853697
 11
4.655866539553369
 21
-3.418668928035377
 72
     1
 10
4.655866539553369
 20
-3.418668928035377
 11
4.744061696675595
 21
-3.330473378487309
 72
     1
 10
4.744061696675595
 20
-3.330473378487309
 11
4.744061696675595
 21
-3.485363760043854
 97
        1
330
1AB
 75
     0
 76
     1
 98
        1
 10
0.0
 20
0.0
  0
ENDBLK
  5
47
330
45
100
AcDbEntity
  8
0
100
AcDbBlockEnd
  0
BLOCK
  5
49
330
48
100
AcDbEntity
  8
0
100
AcDbBlockBegin
  2
Group-4-1
 70
     0
 10
0.0
 20
0.0
 30
0.0
  3
Group-4-1
  1

  0
WIPEOUT
  5
1B7
330
48
100
AcDbEntity
  8
None
  6
Continuous
 62
     7
370
    18
 92
      200
310
C8000000040000000C0000000E000000B20000000C00000016000000000000C20C00000014000000010000009C000000070000000600000093B4E651EEA21C4074E966CC42EE0DC0000000000000000093B4E651EEA21C40CEEE6F77FC540EC00000000000000000F782F8F75B3F1C40CEEE6F77FC540EC000000000000000
310
00F782F8F75B3F1C409DD84630965510C00000000000000000C39F3CE0215D1D409DD84630965510C00000000000000000C39F3CE0215D1D4074E966CC42EE0DC00000000000000000
100
AcDbWipeout
 90
        0
 10
7.061874270003266
 20
-4.083580736469369
 30
0.0
 11
0.3422423910460308
 21
0.0
 31
0.0
 12
0.0
 22
0.3422423910460308
 32
0.0
 13
1.0
 23
1.0
340
0
 70
     4
280
     1
281
    50
282
    50
283
     0
360
0
 71
     2
 91
        7
 14
-0.2158798094191923
 24
-0.5
 14
-0.2158798094191923
 24
-0.35344065311258
 14
-0.5000000000000036
 24
-0.35344065311258
 14
-0.5000000000000036
 24
0.5
 14
0.315431624476517
 24
0.5
 14
0.315431624476517
 24
-0.5
 14
-0.2158798094191923
 24
-0.5
  0
POLYLINE
  5
1B8
330
48
100
AcDbEntity
  8
None
  6
Continuous
 62
     7
370
    18
100
AcDb2dPolyline
 66
     1
 10
0.0
 20
0.0
 30
0.0
 70
     1
  0
VERTEX
  5
1B9
330
1B8
100
AcDbEntity
  8
None
  6
Continuous
 62
     7
370
    18
100
AcDbVertex
100
AcDb2dVertex
 10
7.159112243372096
 20
-3.741338345423339
 30
0.0
  0
VERTEX
  5
1BA
330
1B8
100
AcDbEntity
  8
None
  6
Continuous
 62
     7
370
    18
100
AcDbVertex
100
AcDb2dVertex
 10
7.159112243372096
 20
-3.791497166732234
 30
0.0
  0
VERTEX
  5
1BB
330
1B8
100
AcDbEntity
  8
None
  6
Continuous
 62
     7
370
    18
100
AcDbVertex
100
AcDb2dVertex
 10
7.061874270003266
 20
-3.791497166732234
 30
0.0
  0
VERTEX
  5
1BC
330
1B8
100
AcDbEntity
  8
None
  6
Continuous
 62
     7
370
    18
100
AcDbVertex
100
AcDb2dVertex
 10
7.061874270003266
 20
-4.083580736469369
 30
0.0
  0
VERTEX
  5
1BD
330
1B8
100
AcDbEntity
  8
None
  6
Continuous
 62
     7
370
    18
100
AcDbVertex
100
AcDb2dVertex
 10
7.340949538898658
 20
-4.083580736469369
 30
0.0
  0
VERTEX
  5
1BE
330
1B8
100
AcDbEntity
  8
None
  6
Continuous
 62
     7
370
    18
100
AcDbVertex
100
AcDb2dVertex
 10
7.340949538898658
 20
-3.741338345423339
 30
0.0
  0
SEQEND
  5
1BF
330
1B8
100
AcDbEntity
  8
None
  6
Continuous
 62
     7
370
    18
  0
WIPEOUT
  5
1C0
330
48
100
AcDbEntity
  8
None
  6
Continuous
 62
     7
370
    18
 92
      200
310
C8000000040000000C0000000E000000B20000000C00000016000000000000C20C00000014000000010000009C00000007000000060000003071F81D40DC1D403C3B43D5C5FB0DC000000000000000008534C75333DC1D40F25AE9B79D7B10C000000000000000008EADC0D49CDD1E40F25AE9B79D7B10C000000000000000
310
008EADC0D49CDD1E403C3B43D5C5FB0DC00000000000000000B2273C3A08C01E403C3B43D5C5FB0DC000000000000000005E5F6B8932811E403C3B43D5C5FB0DC00000000000000000
100
AcDbWipeout
 90
        0
 10
7.465039547952192
 20
-4.120718835466265
 30
0.0
 11
0.3727829051052427
 21
0.0
 31
0.0
 12
0.0
 22
0.3727829051052427
 32
0.0
 13
1.0
 23
1.0
340
0
 70
     4
280
     1
281
    50
282
    50
283
     0
360
0
 71
     2
 91
        7
 14
-0.4998691214992697
 24
-0.5
 14
-0.5
 24
0.5
 14
0.1743308884075105
 24
0.5
 14
0.1743308884075105
 24
-0.5
 14
0.0968402368986148
 24
-0.5
 14
-0.067765058661724
 24
-0.5
 14
-0.4998691214992697
 24
-0.5
  0
POLYLINE
  5
1C1
330
48
100
AcDbEntity
  8
None
  6
Continuous
 62
     7
370
    18
100
AcDb2dPolyline
 66
     1
 10
0.0
 20
0.0
 30
0.0
 70
     1
  0
VERTEX
  5
1C2
330
1C1
100
AcDbEntity
  8
None
  6
Continuous
 62
     7
370
    18
100
AcDbVertex
100
AcDb2dVertex
 10
7.46508833721991
 20
-3.747935930361022
 30
0.0
  0
VERTEX
  5
1C3
330
1C1
100
AcDbEntity
  8
None
  6
Continuous
 62
     7
370
    18
100
AcDbVertex
100
AcDb2dVertex
 10
7.465039547952192
 20
-4.120718835466265
 30
0.0
  0
VERTEX
  5
1C4
330
1C1
100
AcDbEntity
  8
None
  6
Continuous
 62
     7
370
    18
100
AcDbVertex
100
AcDb2dVertex
 10
7.716418575534943
 20
-4.120718835466265
 30
0.0
  0
VERTEX
  5
1C5
330
1C1
100
AcDbEntity
  8
None
  6
Continuous
 62
     7
370
    18
100
AcDbVertex
100
AcDb2dVertex
 10
7.716418575534943
 20
-3.747935930361022
 30
0.0
  0
VERTEX
  5
1C6
330
1C1
100
AcDbEntity
  8
None
  6
Continuous
 62
     7
370
    18
100
AcDbVertex
100
AcDb2dVertex
 10
7.68753138534696
 20
-3.747935930361022
 30
0.0
  0
VERTEX
  5
1C7
330
1C1
100
AcDbEntity
  8
None
  6
Continuous
 62
     7
370
    18
100
AcDbVertex
100
AcDb2dVertex
 10
7.626169345072269
 20
-3.747935930361022
 30
0.0
  0
SEQEND
  5
1C8
330
1C1
100
AcDbEntity
  8
None
  6
Continuous
 62
     7
370
    18
  0
INSERT
  5
1C9
330
48
100
AcDbEntity
  8
None
 62
   250
100
AcDbBlockReference
  2
Group-2-1
 10
0.0
 20
0.0
 30
0.0
  0
WIPEOUT
  5
1EC
330
48
100
AcDbEntity
  8
None
  6
Continuous
 62
     7
370
    18
 92
      200
310
C8000000040000000C0000000E000000B20000000C00000016000000000000C20C00000014000000010000009C0000000700000006000000BA4146CBA50617407697565FC3EE10C00000000000000000B8CC18F597061740B85D296A3AB80FC000000000000000005C53FEEC24291640B85D296A3AB80FC000000000000000
310
00F1ACDDC12729164074FE83B2A4A40FC000000000000000005FCF87BA2AF0154074FE83B2A4A40FC000000000000000005FCF87BA2AF015407697565FC3EE10C00000000000000000
100
AcDbWipeout
 90
        0
 10
5.484537996806323
 20
-4.233167161617407
 30
0.0
 11
0.2777749013967505
 21
0.0
 31
0.0
 12
0.0
 22
0.2777749013967505
 32
0.0
 13
1.0
 23
1.0
340
0
 70
     4
280
     1
281
    50
282
    50
283
     0
360
0
 71
     2
 91
        7
 14
0.47904393413598
 24
0.5
 14
0.4788539149563036
 24
-0.4655731784354327
 14
-0.2996869911817335
 24
-0.4655731784354327
 14
-0.2996481055901015
 24
-0.5
 14
-0.5
 24
-0.5
 14
-0.5
 24
0.5
 14
0.47904393413598
 24
0.5
  0
POLYLINE
  5
1ED
330
48
100
AcDbEntity
  8
None
  6
Continuous
 62
     7
370
    18
100
AcDb2dPolyline
 66
     1
 10
0.0
 20
0.0
 30
0.0
 70
     1
  0
VERTEX
  5
1EE
330
1ED
100
AcDbEntity
  8
None
  6
Continuous
 62
     7
370
    18
100
AcDbVertex
100
AcDb2dVertex
 10
5.756491829074031
 20
-4.233167161617407
 30
0.0
  0
VERTEX
  5
1EF
330
1ED
100
AcDbEntity
  8
None
  6
Continuous
 62
     7
370
    18
100
AcDbVertex
100
AcDb2dVertex
 10
5.756439046515133
 20
-3.964955167186158
 30
0.0
  0
VERTEX
  5
1F0
330
1ED
100
AcDbEntity
  8
None
  6
Continuous
 62
     7
370
    18
100
AcDbVertex
100
AcDb2dVertex
 10
5.540179923079304
 20
-3.964955167186158
 30
0.0
  0
VERTEX
  5
1F1
330
1ED
100
AcDbEntity
  8
None
  6
Continuous
 62
     7
370
    18
100
AcDbVertex
100
AcDb2dVertex
 10
5.540190724520685
 20
-3.955392260220657
 30
0.0
  0
VERTEX
  5
1F2
330
1ED
100
AcDbEntity
  8
None
  6
Continuous
 62
     7
370
    18
100
AcDbVertex
100
AcDb2dVertex
 10
5.484537996806323
 20
-3.955392260220657
 30
0.0
  0
VERTEX
  5
1F3
330
1ED
100
AcDbEntity
  8
None
  6
Continuous
 62
     7
370
    18
100
AcDbVertex
100
AcDb2dVertex
 10
5.484537996806323
 20
-4.233167161617407
 30
0.0
  0
SEQEND
  5
1F4
330
1ED
100
AcDbEntity
  8
None
  6
Continuous
 62
     7
370
    18
  0
POLYLINE
  5
1F5
102
{ACAD_REACTORS
330
1FF
102
}
330
48
100
AcDbEntity
  8
None
  6
Continuous
 62
     7
370
    18
100
AcDb2dPolyline
 66
     1
 10
0.0
 20
0.0
 30
0.0
 70
     1
  0
VERTEX
  5
1F6
330
1F5
100
AcDbEntity
  8
None
  6
Continuous
 62
     7
370
    18
100
AcDbVertex
100
AcDb2dVertex
 10
5.484537996806323
 20
-4.548133262497385
 30
0.0
  0
VERTEX
  5
1F7
330
1F5
100
AcDbEntity
  8
None
  6
Continuous
 62
     7
370
    18
100
AcDbVertex
100
AcDb2dVertex
 10
5.580212788514799
 20
-4.548133262497385
 30
0.0
  0
VERTEX
  5
1F8
330
1F5
100
AcDbEntity
  8
None
  6
Continuous
 62
     7
370
    18
100
AcDbVertex
100
AcDb2dVertex
 10
5.580202470780893
 20
-4.57287621825562
 30
0.0
  0
VERTEX
  5
1F9
330
1F5
100
AcDbEntity
  8
None
  6
Continuous
 62
     7
370
    18
100
AcDbVertex
100
AcDb2dVertex
 10
5.633362971787934
 20
-4.57287621825562
 30
0.0
  0
VERTEX
  5
1FA
330
1F5
100
AcDbEntity
  8
None
  6
Continuous
 62
     7
370
    18
100
AcDbVertex
100
AcDb2dVertex
 10
5.633362971787934
 20
-4.548133262497385
 30
0.0
  0
VERTEX
  5
1FB
330
1F5
100
AcDbEntity
  8
None
  6
Continuous
 62
     7
370
    18
100
AcDbVertex
100
AcDb2dVertex
 10
5.756439046515133
 20
-4.548133262497385
 30
0.0
  0
VERTEX
  5
1FC
330
1F5
100
AcDbEntity
  8
None
  6
Continuous
 62
     7
370
    18
100
AcDbVertex
100
AcDb2dVertex
 10
5.756491829074031
 20
-4.233167161617407
 30
0.0
  0
VERTEX
  5
1FD
330
1F5
100
AcDbEntity
  8
None
  6
Continuous
 62
     7
370
    18
100
AcDbVertex
100
AcDb2dVertex
 10
5.484537996806323
 20
-4.233167161617407
 30
0.0
  0
SEQEND
  5
1FE
330
1F5
100
AcDbEntity
  8
None
  6
Continuous
 62
     7
370
    18
  0
HATCH
  5
1FF
330
48
100
AcDbEntity
  8
None
  6
Continuous
 62
   161
370
     0
100
AcDbHatch
 10
0.0
 20
0.0
 30
0.0
210
0.0
220
0.0
230
1.0
  2
SOLID
 70
     1
 71
     1
 91
        1
 92
        1
 93
        8
 72
     1
 10
5.484537996806323
 20
-4.548133262497385
 11
5.580212788514799
 21
-4.548133262497385
 72
     1
 10
5.580212788514799
 20
-4.548133262497385
 11
5.580202470780893
 21
-4.57287621825562
 72
     1
 10
5.580202470780893
 20
-4.57287621825562
 11
5.633362971787934
 21
-4.57287621825562
 72
     1
 10
5.633362971787934
 20
-4.57287621825562
 11
5.633362971787934
 21
-4.548133262497385
 72
     1
 10
5.633362971787934
 20
-4.548133262497385
 11
5.756439046515133
 21
-4.548133262497385
 72
     1
 10
5.756439046515133
 20
-4.548133262497385
 11
5.756491829074031
 21
-4.233167161617407
 72
     1
 10
5.756491829074031
 20
-4.233167161617407
 11
5.484537996806323
 21
-4.233167161617407
 72
     1
 10
5.484537996806323
 20
-4.233167161617407
 11
5.484537996806323
 21
-4.548133262497385
 97
        1
330
1F5
 75
     0
 76
     1
 98
        1
 10
0.0
 20
0.0
  0
WIPEOUT
  5
200
330
48
100
AcDbEntity
  8
None
  6
Continuous
 62
     7
370
    18
 92
      248
310
F8000000040000000C0000000E000000B20000000C00000016000000000000C20C0000001400000001000000CC0000000700000008000000F69EC037E8881640B75D296A3AB80FC00000000000000000B94146CBA5061740B75D296A3AB80FC00000000000000000B94146CBA50617404963EBE50D0112C000000000000000
310
0037E3C57C055D17404963EBE50D0112C0000000000000000037E3C57C055D1740D8725A80F7BB0FC000000000000000007B4F7B3579371740D8725A80F7BB0FC000000000000000007B4F7B35793717401131B792CE3E0FC00000000000000000F69EC037E88816401131B792CE3E0FC00000000000000000
100
AcDbWipeout
 90
        0
 10
5.633698340541506
 20
-4.501029579631743
 30
0.0
 11
0.5953621351970364
 21
0.0
 31
0.0
 12
0.0
 22
0.5953621351970364
 32
0.0
 13
1.0
 23
1.0
340
0
 70
     4
280
     1
281
    50
282
    50
283
     0
360
0
 71
     2
 91
        9
 14
-0.5000000000000018
 24
-0.4004173775145619
 14
-0.2937499191279862
 24
-0.4004173775145619
 14
-0.2937499191279862
 24
0.4999999999999982
 14
-0.1520724237210231
 24
0.4999999999999982
 14
-0.1520724237210231
 24
-0.3973511798594815
 14
-0.2136617158053351
 24
-0.3973511798594815
 14
-0.2136617158053351
 24
-0.5000000000000018
 14
-0.5000000000000018
 24
-0.5000000000000018
 14
-0.5000000000000018
 24
-0.4004173775145619
  0
POLYLINE
  5
201
330
48
100
AcDbEntity
  8
None
  6
Continuous
 62
     7
370
    18
100
AcDb2dPolyline
 66
     1
 10
0.0
 20
0.0
 30
0.0
 70
     1
  0
VERTEX
  5
202
330
201
100
AcDbEntity
  8
None
  6
Continuous
 62
     7
370
    18
100
AcDbVertex
100
AcDb2dVertex
 10
5.633698340541506
 20
-3.964955167186158
 30
0.0
  0
VERTEX
  5
203
330
201
100
AcDbEntity
  8
None
  6
Continuous
 62
     7
370
    18
100
AcDbVertex
100
AcDb2dVertex
 10
5.756491829074031
 20
-3.964955167186158
 30
0.0
  0
VERTEX
  5
204
330
201
100
AcDbEntity
  8
None
  6
Continuous
 62
     7
370
    18
100
AcDbVertex
100
AcDb2dVertex
 10
5.756491829074031
 20
-4.501029579631743
 30
0.0
  0
VERTEX
  5
205
330
201
100
AcDbEntity
  8
None
  6
Continuous
 62
     7
370
    18
100
AcDbVertex
100
AcDb2dVertex
 10
5.840841245248889
 20
-4.501029579631743
 30
0.0
  0
VERTEX
  5
206
330
201
100
AcDbEntity
  8
None
  6
Continuous
 62
     7
370
    18
100
AcDbVertex
100
AcDb2dVertex
 10
5.840841245248889
 20
-3.966780665169023
 30
0.0
  0
VERTEX
  5
207
330
201
100
AcDbEntity
  8
None
  6
Continuous
 62
     7
370
    18
100
AcDbVertex
100
AcDb2dVertex
 10
5.804173312808299
 20
-3.966780665169023
 30
0.0
  0
VERTEX
  5
208
330
201
100
AcDbEntity
  8
None
  6
Continuous
 62
     7
370
    18
100
AcDbVertex
100
AcDb2dVertex
 10
5.804173312808299
 20
-3.905667444434706
 30
0.0
  0
VERTEX
  5
209
330
201
100
AcDbEntity
  8
None
  6
Continuous
 62
     7
370
    18
100
AcDbVertex
100
AcDb2dVertex
 10
5.633698340541506
 20
-3.905667444434706
 30
0.0
  0
SEQEND
  5
20A
330
201
100
AcDbEntity
  8
None
  6
Continuous
 62
     7
370
    18
  0
WIPEOUT
  5
20B
330
48
100
AcDbEntity
  8
None
  6
Continuous
 62
     7
370
    18
 92
      200
310
C8000000040000000C0000000E000000B20000000C00000016000000000000C20C00000014000000010000009C00000007000000060000001794B4D1B5FC1A40F75120DD9C5510C000000000000000000A2476C6A7FC1A40A28F2CD48D9D0EC00000000000000000EE6D20DF4E171C40A28F2CD48D9D0EC000000000000000
310
00EE6D20DF4E171C40F75120DD9C5510C00000000000000000459C21BCD3F61B40F75120DD9C5510C00000000000000000F79538C2D4B11B40F75120DD9C5510C00000000000000000
100
AcDbWipeout
 90
        0
 10
6.746733761749973
 20
-4.083606200311343
 30
0.0
 11
0.2760280469833321
 21
0.0
 31
0.0
 12
0.0
 22
0.2760280469833321
 32
0.0
 13
1.0
 23
1.0
340
0
 70
     4
280
     1
281
    50
282
    50
283
     0
360
0
 71
     2
 91
        7
 14
-0.4998059135315032
 24
0.5
 14
-0.5
 24
-0.4298892988929914
 14
0.5
 24
-0.4298892988929914
 14
0.5
 24
0.5
 14
0.3850851223916187
 24
0.5
 14
0.140983453033023
 24
0.5
 14
-0.4998059135315032
 24
0.5
  0
POLYLINE
  5
20C
330
48
100
AcDbEntity
  8
None
  6
Continuous
 62
     7
370
    18
100
AcDb2dPolyline
 66
     1
 10
0.0
 20
0.0
 30
0.0
 70
     1
  0
VERTEX
  5
20D
330
20C
100
AcDbEntity
  8
None
  6
Continuous
 62
     7
370
    18
100
AcDbVertex
100
AcDb2dVertex
 10
6.746787335058818
 20
-4.083606200311343
 30
0.0
  0
VERTEX
  5
20E
330
20C
100
AcDbEntity
  8
None
  6
Continuous
 62
     7
370
    18
100
AcDbVertex
100
AcDb2dVertex
 10
6.746733761749973
 20
-3.826930673227211
 30
0.0
  0
VERTEX
  5
20F
330
20C
100
AcDbEntity
  8
None
  6
Continuous
 62
     7
370
    18
100
AcDbVertex
100
AcDb2dVertex
 10
7.022761808733305
 20
-3.826930673227211
 30
0.0
  0
VERTEX
  5
210
330
20C
100
AcDbEntity
  8
None
  6
Continuous
 62
     7
370
    18
100
AcDbVertex
100
AcDb2dVertex
 10
7.022761808733305
 20
-4.083606200311343
 30
0.0
  0
VERTEX
  5
211
330
20C
100
AcDbEntity
  8
None
  6
Continuous
 62
     7
370
    18
100
AcDbVertex
100
AcDb2dVertex
 10
6.991042079497736
 20
-4.083606200311343
 30
0.0
  0
VERTEX
  5
212
330
20C
100
AcDbEntity
  8
None
  6
Continuous
 62
     7
370
    18
100
AcDbVertex
100
AcDb2dVertex
 10
6.923663172439311
 20
-4.083606200311343
 30
0.0
  0
SEQEND
  5
213
330
20C
100
AcDbEntity
  8
None
  6
Continuous
 62
     7
370
    18
  0
WIPEOUT
  5
214
330
48
100
AcDbEntity
  8
None
  6
Continuous
 62
     7
370
    18
 92
      200
310
C8000000040000000C0000000E000000B20000000C00000016000000000000C20C00000014000000010000009C000000070000000600000051C070DD93FC1A409ED84630965510C000000000000000000A2476C6A7FC1A40F29C797A809D0EC00000000000000000C2863967EF6B1940F29C797A809D0EC000000000000000
310
00C2863967EF6B19409ED84630965510C000000000000000008DD2AFDFFB9919409ED84630965510C000000000000000002089E6E3CCFB19409ED84630965510C00000000000000000
100
AcDbWipeout
 90
        0
 10
6.355405438314564
 20
-4.083580736469369
 30
0.0
 11
0.3913283234354088
 21
0.0
 31
0.0
 12
0.0
 22
0.3913283234354088
 32
0.0
 13
1.0
 23
1.0
340
0
 70
     4
280
     1
281
    50
282
    50
283
     0
360
0
 71
     2
 91
        7
 14
0.4998059135315067
 24
0.5000000000000018
 14
0.5
 24
-0.1559083810515354
 14
-0.5
 24
-0.1559083810515354
 14
-0.5
 24
0.5000000000000018
 14
-0.385085122391633
 24
0.5000000000000018
 14
-0.1409834530330301
 24
0.5000000000000018
 14
0.4998059135315067
 24
0.5000000000000018
  0
POLYLINE
  5
215
330
48
100
AcDbEntity
  8
None
  6
Continuous
 62
     7
370
    18
100
AcDb2dPolyline
 66
     1
 10
0.0
 20
0.0
 30
0.0
 70
     1
  0
VERTEX
  5
216
330
215
100
AcDbEntity
  8
None
  6
Continuous
 62
     7
370
    18
100
AcDbVertex
100
AcDb2dVertex
 10
6.746657810217656
 20
-4.083580736469369
 30
0.0
  0
VERTEX
  5
217
330
215
100
AcDbEntity
  8
None
  6
Continuous
 62
     7
370
    18
100
AcDbVertex
100
AcDb2dVertex
 10
6.746733761749973
 20
-3.826905209385238
 30
0.0
  0
VERTEX
  5
218
330
215
100
AcDbEntity
  8
None
  6
Continuous
 62
     7
370
    18
100
AcDbVertex
100
AcDb2dVertex
 10
6.355405438314564
 20
-3.826905209385238
 30
0.0
  0
VERTEX
  5
219
330
215
100
AcDbEntity
  8
None
  6
Continuous
 62
     7
370
    18
100
AcDbVertex
100
AcDb2dVertex
 10
6.355405438314564
 20
-4.083580736469369
 30
0.0
  0
VERTEX
  5
21A
330
215
100
AcDbEntity
  8
None
  6
Continuous
 62
     7
370
    18
100
AcDbVertex
100
AcDb2dVertex
 10
6.400374884706832
 20
-4.083580736469369
 30
0.0
  0
VERTEX
  5
21B
330
215
100
AcDbEntity
  8
None
  6
Continuous
 62
     7
370
    18
100
AcDbVertex
100
AcDb2dVertex
 10
6.495898781724719
 20
-4.083580736469369
 30
0.0
  0
SEQEND
  5
21C
330
215
100
AcDbEntity
  8
None
  6
Continuous
 62
     7
370
    18
  0
WIPEOUT
  5
21D
330
48
100
AcDbEntity
  8
None
  6
Continuous
 62
     7
370
    18
 92
      200
310
C8000000040000000C0000000E000000B20000000C00000016000000000000C20C00000014000000010000009C0000000700000006000000D15FA35E777B18409DD84630965510C00000000000000000AE3D5D6B6B7B1840F09C797A809D0EC00000000000000000C3863967EF6B1940F09C797A809D0EC000000000000000
310
00C3863967EF6B19409DD84630965510C00000000000000000C59DC1DD4B5019409DD84630965510C000000000000000009C6BCD0A961519409DD84630965510C00000000000000000
100
AcDbWipeout
 90
        0
 10
6.120526959959006
 20
-4.083580736469369
 30
0.0
 11
0.256675527084131
 21
0.0
 31
0.0
 12
0.0
 22
0.256675527084131
 32
0.0
 13
1.0
 23
1.0
340
0
 70
     4
280
     1
281
    50
282
    50
283
     0
360
0
 71
     2
 91
        7
 14
-0.4998223954776329
 24
0.4999999999999982
 14
-0.4999999999999964
 24
-0.5000000000000018
 14
0.4150793650793716
 24
-0.5000000000000018
 14
0.4150793650793716
 24
0.4999999999999982
 14
0.3099231318393372
 24
0.4999999999999982
 14
0.0865507312278417
 24
0.4999999999999982
 14
-0.4998223954776329
 24
0.4999999999999982
  0
POLYLINE
  5
21E
330
48
100
AcDbEntity
  8
None
  6
Continuous
 62
     7
370
    18
100
AcDb2dPolyline
 66
     1
 10
0.0
 20
0.0
 30
0.0
 70
     1
  0
VERTEX
  5
21F
330
21E
100
AcDbEntity
  8
None
  6
Continuous
 62
     7
370
    18
100
AcDbVertex
100
AcDb2dVertex
 10
6.120572546693396
 20
-4.083580736469369
 30
0.0
  0
VERTEX
  5
220
330
21E
100
AcDbEntity
  8
None
  6
Continuous
 62
     7
370
    18
100
AcDbVertex
100
AcDb2dVertex
 10
6.120526959959006
 20
-3.826905209385238
 30
0.0
  0
VERTEX
  5
221
330
21E
100
AcDbEntity
  8
None
  6
Continuous
 62
     7
370
    18
100
AcDbVertex
100
AcDb2dVertex
 10
6.355405438314564
 20
-3.826905209385238
 30
0.0
  0
VERTEX
  5
222
330
21E
100
AcDbEntity
  8
None
  6
Continuous
 62
     7
370
    18
100
AcDbVertex
100
AcDb2dVertex
 10
6.355405438314564
 20
-4.083580736469369
 30
0.0
  0
VERTEX
  5
223
330
21E
100
AcDbEntity
  8
None
  6
Continuous
 62
     7
370
    18
100
AcDbVertex
100
AcDb2dVertex
 10
6.328414406721497
 20
-4.083580736469369
 30
0.0
  0
VERTEX
  5
224
330
21E
100
AcDbEntity
  8
None
  6
Continuous
 62
     7
370
    18
100
AcDbVertex
100
AcDb2dVertex
 10
6.271080178058494
 20
-4.083580736469369
 30
0.0
  0
SEQEND
  5
225
330
21E
100
AcDbEntity
  8
None
  6
Continuous
 62
     7
370
    18
  0
MTEXT
  5
226
330
48
100
AcDbEntity
  8
None
 62
     7
100
AcDbMText
 10
4.569178931343012
 20
-4.674167181637091
 30
0.0
 40
0.0781091510847966
 41
0.0
 71
     1
 72
     1
  1
BOUNDARY ROAD
  7
Helvetica
 11
0.0
 21
1.0
 31
0.0
 73
     1
 44
0.8397955333929319
  0
MTEXT
  5
227
330
48
100
AcDbEntity
  8
None
 62
     7
100
AcDbMText
 10
6.616605607963247
 20
-3.22910392007349
 30
0.0
 40
0.0781091510847966
 41
0.0
 71
     1
 72
     1
  1
HENNING DRIVE
  7
Helvetica
 73
     1
 44
0.8397955333929319
  0
WIPEOUT
  5
228
330
48
100
AcDbEntity
  8
None
  6
Continuous
 62
     7
370
    18
 92
      152
310
98000000040000000C0000000E000000B20000000C00000016000000000000C20C00000014000000010000006C00000007000000040000001E85BB0F01921D400529B352452011C000000000000000001C80D2C78B161E400529B352452011C000000000000000001C80D2C78B161E400ABBD1399CFE11C000000000000000
310
001E85BB0F01921D400ABBD1399CFE11C00000000000000000
100
AcDbWipeout
 90
        0
 10
7.392582174129783
 20
-4.498642829347554
 30
0.0
 11
0.2171283829125104
 21
0.0
 31
0.0
 12
0.0
 22
0.2171283829125104
 32
0.0
 13
1.0
 23
1.0
340
0
 70
     4
280
     1
281
    50
282
    50
283
     0
360
0
 71
     2
 91
        5
 14
-0.5
 24
-0.5000000000000036
 14
0.0961239135931322
 24
-0.5000000000000036
 14
0.0961239135931322
 24
0.4999999999999964
 14
-0.5
 24
0.4999999999999964
 14
-0.5
 24
-0.5000000000000036
  0
POLYLINE
  5
229
330
48
100
AcDbEntity
  8
None
  6
Continuous
 62
     7
370
    18
100
AcDb2dPolyline
 66
     1
 10
0.0
 20
0.0
 30
0.0
 70
     1
  0
VERTEX
  5
22A
330
229
100
AcDbEntity
  8
None
  6
Continuous
 62
     7
370
    18
100
AcDbVertex
100
AcDb2dVertex
 10
7.392582174129783
 20
-4.281514446435044
 30
0.0
  0
VERTEX
  5
22B
330
229
100
AcDbEntity
  8
None
  6
Continuous
 62
     7
370
    18
100
AcDbVertex
100
AcDb2dVertex
 10
7.522017595503738
 20
-4.281514446435044
 30
0.0
  0
VERTEX
  5
22C
330
229
100
AcDbEntity
  8
None
  6
Continuous
 62
     7
370
    18
100
AcDbVertex
100
AcDb2dVertex
 10
7.522017595503738
 20
-4.498642829347554
 30
0.0
  0
VERTEX
  5
22D
330
229
100
AcDbEntity
  8
None
  6
Continuous
 62
     7
370
    18
100
AcDbVertex
100
AcDb2dVertex
 10
7.392582174129783
 20
-4.498642829347554
 30
0.0
  0
SEQEND
  5
22E
330
229
100
AcDbEntity
  8
None
  6
Continuous
 62
     7
370
    18
  0
WIPEOUT
  5
22F
330
48
100
AcDbEntity
  8
None
  6
Continuous
 62
     7
370
    18
 92
      200
310
C8000000040000000C0000000E000000B20000000C00000016000000000000C20C00000014000000010000009C0000000700000006000000D5B66FC619BA1840C04A4FBF583011C00000000000000000B9A1259CE0B9184020136893B9F311C00000000000000000822B4B4667381D4020136893B9F311C000000000000000
310
00822B4B4667381D40C04A4FBF583011C0000000000000000045CB11DC30B41C40C04A4FBF583011C0000000000000000032B8D174589B1B40C04A4FBF583011C00000000000000000
100
AcDbWipeout
 90
        0
 10
6.1815208814591
 20
-4.488012603022782
 30
0.0
 11
1.123560579816009
 21
0.0
 31
0.0
 12
0.0
 22
1.123560579816009
 32
0.0
 13
1.0
 23
1.0
340
0
 70
     4
280
     1
281
    50
282
    50
283
     0
360
0
 71
     2
 91
        7
 14
-0.4998059135315032
 24
0.3301835589875695
 14
-0.4999999999999991
 24
0.4999999999999996
 14
0.5000000000000009
 24
0.4999999999999996
 14
0.5000000000000009
 24
0.3301835589875695
 14
0.3850851223916285
 24
0.3301835589875695
 14
0.1409834530330274
 24
0.3301835589875695
 14
-0.4998059135315032
 24
0.3301835589875695
  0
POLYLINE
  5
230
330
48
100
AcDbEntity
  8
None
  6
Continuous
 62
     7
370
    18
100
AcDb2dPolyline
 66
     1
 10
0.0
 20
0.0
 30
0.0
 70
     1
  0
VERTEX
  5
231
330
230
100
AcDbEntity
  8
None
  6
Continuous
 62
     7
370
    18
100
AcDbVertex
100
AcDb2dVertex
 10
6.181738949364179
 20
-4.297213544096565
 30
0.0
  0
VERTEX
  5
232
330
230
100
AcDbEntity
  8
None
  6
Continuous
 62
     7
370
    18
100
AcDbVertex
100
AcDb2dVertex
 10
6.1815208814591
 20
-4.488012603022782
 30
0.0
  0
VERTEX
  5
233
330
230
100
AcDbEntity
  8
None
  6
Continuous
 62
     7
370
    18
100
AcDbVertex
100
AcDb2dVertex
 10
7.305081461275109
 20
-4.488012603022782
 30
0.0
  0
VERTEX
  5
234
330
230
100
AcDbEntity
  8
None
  6
Continuous
 62
     7
370
    18
100
AcDbVertex
100
AcDb2dVertex
 10
7.305081461275109
 20
-4.297213544096565
 30
0.0
  0
VERTEX
  5
235
330
230
100
AcDbEntity
  8
None
  6
Continuous
 62
     7
370
    18
100
AcDbVertex
100
AcDb2dVertex
 10
7.175967634759961
 20
-4.297213544096565
 30
0.0
  0
VERTEX
  5
236
330
230
100
AcDbEntity
  8
None
  6
Continuous
 62
     7
370
    18
100
AcDbVertex
100
AcDb2dVertex
 10
6.901704621601356
 20
-4.297213544096565
 30
0.0
  0
SEQEND
  5
237
330
230
100
AcDbEntity
  8
None
  6
Continuous
 62
     7
370
    18
  0
WIPEOUT
  5
238
330
48
100
AcDbEntity
  8
None
  6
Continuous
 62
     7
370
    18
 92
      152
310
98000000040000000C0000000E000000B20000000C00000016000000000000C20C00000014000000010000006C00000007000000040000002080D2C78B161E400529B352452011C00000000000000000D836F91CEDC91E400529B352452011C00000000000000000D836F91CEDC91E400ABBD1399CFE11C000000000000000
310
002080D2C78B161E400ABBD1399CFE11C00000000000000000
100
AcDbWipeout
 90
        0
 10
7.52201759550374
 20
-4.498642829347554
 30
0.0
 11
0.2171283829125104
 21
0.0
 31
0.0
 12
0.0
 22
0.2171283829125104
 32
0.0
 13
1.0
 23
1.0
340
0
 70
     4
280
     1
281
    50
282
    50
283
     0
360
0
 71
     2
 91
        5
 14
-0.5
 24
-0.5000000000000036
 14
0.3067852743944997
 24
-0.5000000000000036
 14
0.3067852743944997
 24
0.4999999999999964
 14
-0.5
 24
0.4999999999999964
 14
-0.5
 24
-0.5000000000000036
  0
POLYLINE
  5
239
330
48
100
AcDbEntity
  8
None
  6
Continuous
 62
     7
370
    18
100
AcDb2dPolyline
 66
     1
 10
0.0
 20
0.0
 30
0.0
 70
     1
  0
VERTEX
  5
23A
330
239
100
AcDbEntity
  8
None
  6
Continuous
 62
     7
370
    18
100
AcDbVertex
100
AcDb2dVertex
 10
7.52201759550374
 20
-4.281514446435044
 30
0.0
  0
VERTEX
  5
23B
330
239
100
AcDbEntity
  8
None
  6
Continuous
 62
     7
370
    18
100
AcDbVertex
100
AcDb2dVertex
 10
7.697193577490643
 20
-4.281514446435044
 30
0.0
  0
VERTEX
  5
23C
330
239
100
AcDbEntity
  8
None
  6
Continuous
 62
     7
370
    18
100
AcDbVertex
100
AcDb2dVertex
 10
7.697193577490643
 20
-4.498642829347554
 30
0.0
  0
VERTEX
  5
23D
330
239
100
AcDbEntity
  8
None
  6
Continuous
 62
     7
370
    18
100
AcDbVertex
100
AcDb2dVertex
 10
7.52201759550374
 20
-4.498642829347554
 30
0.0
  0
SEQEND
  5
23E
330
239
100
AcDbEntity
  8
None
  6
Continuous
 62
     7
370
    18
  0
WIPEOUT
  5
23F
330
48
100
AcDbEntity
  8
None
  6
Continuous
 62
     7
370
    18
 92
      152
310
98000000040000000C0000000E000000B20000000C00000016000000000000C20C00000014000000010000006C0000000700000004000000802B4B4667381D40C14A4FBF583011C00000000000000000802B4B4667381D40E143AFE6890711C00000000000000000D4B66FC619BA1840E143AFE6890711C000000000000000
310
00D4B66FC619BA1840C14A4FBF583011C00000000000000000
100
AcDbWipeout
 90
        0
 10
6.181738949364179
 20
-4.297213544096565
 30
0.0
 11
1.123342511910931
 21
0.0
 31
0.0
 12
0.0
 22
1.123342511910931
 32
0.0
 13
1.0
 23
1.0
340
0
 70
     4
280
     1
281
    50
282
    50
283
     0
360
0
 71
     2
 91
        5
 14
0.4999999999999991
 24
0.5
 14
0.4999999999999991
 24
0.464524127610435
 14
-0.5000000000000009
 24
0.464524127610435
 14
-0.5000000000000009
 24
0.5
 14
0.4999999999999991
 24
0.5
  0
POLYLINE
  5
240
330
48
100
AcDbEntity
  8
None
  6
Continuous
 62
     7
370
    18
100
AcDb2dPolyline
 66
     1
 10
0.0
 20
0.0
 30
0.0
 70
     1
  0
VERTEX
  5
241
330
240
100
AcDbEntity
  8
None
  6
Continuous
 62
     7
370
    18
100
AcDbVertex
100
AcDb2dVertex
 10
7.305081461275109
 20
-4.297213544096565
 30
0.0
  0
VERTEX
  5
242
330
240
100
AcDbEntity
  8
None
  6
Continuous
 62
     7
370
    18
100
AcDbVertex
100
AcDb2dVertex
 10
7.305081461275109
 20
-4.25736198849424
 30
0.0
  0
VERTEX
  5
243
330
240
100
AcDbEntity
  8
None
  6
Continuous
 62
     7
370
    18
100
AcDbVertex
100
AcDb2dVertex
 10
6.181738949364179
 20
-4.25736198849424
 30
0.0
  0
VERTEX
  5
244
330
240
100
AcDbEntity
  8
None
  6
Continuous
 62
     7
370
    18
100
AcDbVertex
100
AcDb2dVertex
 10
6.181738949364179
 20
-4.297213544096565
 30
0.0
  0
SEQEND
  5
245
330
240
100
AcDbEntity
  8
None
  6
Continuous
 62
     7
370
    18
  0
MTEXT
  5
246
330
48
100
AcDbEntity
  8
None
 62
     7
100
AcDbMText
 10
5.618603976180795
 20
-4.322228721193647
 30
0.0
 40
0.099629019240812
 41
0.0
 71
     2
 72
     1
  1
6
  7
Helvetica
 73
     1
 44
0.8397955333929318
  0
MTEXT
  5
247
330
48
100
AcDbEntity
  8
None
 62
   251
100
AcDbMText
 10
6.549179178356943
 20
-3.896400621398457
 30
0.0
 40
0.099629019240812
 41
0.0
 71
     2
 72
     1
  1
2
  7
Helvetica
 73
     1
 44
0.8397955333929318
  0
MTEXT
  5
248
330
48
100
AcDbEntity
  8
None
 62
   251
100
AcDbMText
 10
6.884751797476892
 20
-3.896400621398457
 30
0.0
 40
0.099629019240812
 41
0.0
 71
     2
 72
     1
  1
3
  7
Helvetica
 73
     1
 44
0.8397955333929318
  0
MTEXT
  5
249
330
48
100
AcDbEntity
  8
None
 62
   251
100
AcDbMText
 10
6.720007505161086
 20
-4.33882136549535
 30
0.0
 40
0.099629019240812
 41
0.0
 71
     2
 72
     1
  1
FX
  7
Helvetica
 73
     1
 44
0.8397955333929318
  0
MTEXT
  5
24A
330
48
100
AcDbEntity
  8
None
 62
   251
100
AcDbMText
 10
6.238478075767098
 20
-3.896400621398457
 30
0.0
 40
0.099629019240812
 41
0.0
 71
     2
 72
     1
  1
1
  7
Helvetica
 73
     1
 44
0.8397955333929318
  0
MTEXT
  5
24B
330
48
100
AcDbEntity
  8
None
 62
   251
100
AcDbMText
 10
7.455730416853805
 20
-4.338845230106877
 30
0.0
 40
0.099629019240812
 41
0.0
 71
     2
 72
     1
  1
B
  7
Helvetica
 73
     1
 44
0.8397955333929318
  0
MTEXT
  5
24C
330
48
100
AcDbEntity
  8
None
 62
     7
100
AcDbMText
 10
5.709983344073234
 20
-3.410099045572772
 30
0.0
 40
0.0398516076963248
 41
0.0
 71
     2
 72
     1
  1
SECURITY\PGATE
  7
Helvetica
 73
     1
 44
0.8397955333929318
  0
INSERT
  5
24D
330
48
100
AcDbEntity
  8
elements-ojects
 62
     7
100
AcDbBlockReference
  2
Group-3-1
 10
0.0
 20
0.0
 30
0.0
  0
WIPEOUT
  5
24E
330
48
100
AcDbEntity
  8
None
  6
Continuous
 62
   250
370
     9
 92
      392
310
88010000040000000C0000000E000000B20000000C00000016000000000000C20C00000014000000010000005C010000070000000E000000C0ECD5D6A8D7134053D882BCA6480FC00000000000000000C0ECD5D6A8D71340F11865225A630FC00000000000000000D54EBC2AF2B21340F11865225A630FC000000000000000
310
00D54EBC2AF2B2134064957AE07AC70FC00000000000000000B8EF36FBE999134064957AE07AC70FC00000000000000000B8EF36FBE99913407B0977601F3B11C0000000000000000075B587506B2515407B0977601F3B11C0000000000000000075B587506B2515405A226D61BA840FC000000000000000009A22290856E4
310
14405A226D61BA840FC000000000000000009A22290856E414406E448BF2514A0FC000000000000000001CC68E0E2FB814406E448BF2514A0FC000000000000000001CC68E0E2FB8144052E505C349310FC00000000000000000712E58B5F4FB134052E505C349310FC00000000000000000712E58B5F4FB134053D882BCA6
310
480FC00000000000000000
100
AcDbWipeout
 90
        0
 10
4.90030663035207
 20
-4.307736880555576
 30
0.0
 11
0.4086704098205742
 21
0.0
 31
0.0
 12
0.0
 22
0.4086704098205742
 32
0.0
 13
1.0
 23
1.0
340
0
 70
     4
280
     1
281
    50
282
    50
283
     0
360
0
 71
     2
 91
       15
 14
-0.3524523035186551
 24
-0.4720855648435691
 14
-0.3524523035186551
 24
-0.4401833603153538
 14
-0.440183366330146
 24
-0.4401833603153538
 14
-0.440183366330146
 24
-0.3205500929756475
 14
-0.5
 24
-0.3205500929756475
 14
-0.5
 24
0.5
 14
0.4451028150462761
 24
0.5
 14
0.4451028150462761
 24
-0.400305610550248
 14
0.2895795669623258
 24
-0.400305610550248
 14
0.2895795669623258
 24
-0.4700916831650748
 14
0.1840729610664589
 24
-0.4700916831650748
 14
0.1840729610664589
 24
-0.5
 14
-0.2657181845737533
 24
-0.5
 14
-0.2657181845737533
 24
-0.4720855648435691
 14
-0.3524523035186551
 24
-0.4720855648435691
  0
POLYLINE
  5
24F
330
48
100
AcDbEntity
  8
None
  6
Continuous
 62
   250
370
     9
100
AcDb2dPolyline
 66
     1
 10
0.0
 20
0.0
 30
0.0
 70
     1
  0
VERTEX
  5
250
330
24F
100
AcDbEntity
  8
None
  6
Continuous
 62
   250
370
     9
100
AcDbVertex
100
AcDb2dVertex
 10
4.960605007941183
 20
-3.910474274390291
 30
0.0
  0
VERTEX
  5
251
330
24F
100
AcDbEntity
  8
None
  6
Continuous
 62
   250
370
     9
100
AcDbVertex
100
AcDb2dVertex
 10
4.960605007941183
 20
-3.923511761389016
 30
0.0
  0
VERTEX
  5
252
330
24F
100
AcDbEntity
  8
None
  6
Continuous
 62
   250
370
     9
100
AcDbVertex
100
AcDb2dVertex
 10
4.924751918548016
 20
-3.923511761389016
 30
0.0
  0
VERTEX
  5
253
330
24F
100
AcDbEntity
  8
None
  6
Continuous
 62
   250
370
     9
100
AcDbVertex
100
AcDb2dVertex
 10
4.924751918548016
 20
-3.972402337780908
 30
0.0
  0
VERTEX
  5
254
330
24F
100
AcDbEntity
  8
None
  6
Continuous
 62
   250
370
     9
100
AcDbVertex
100
AcDb2dVertex
 10
4.90030663035207
 20
-3.972402337780908
 30
0.0
  0
VERTEX
  5
255
330
24F
100
AcDbEntity
  8
None
  6
Continuous
 62
   250
370
     9
100
AcDbVertex
100
AcDb2dVertex
 10
4.90030663035207
 20
-4.307736880555576
 30
0.0
  0
VERTEX
  5
256
330
24F
100
AcDbEntity
  8
None
  6
Continuous
 62
   250
370
     9
100
AcDbVertex
100
AcDb2dVertex
 10
5.28654218509961
 20
-4.307736880555576
 30
0.0
  0
VERTEX
  5
257
330
24F
100
AcDbEntity
  8
None
  6
Continuous
 62
   250
370
     9
100
AcDbVertex
100
AcDb2dVertex
 10
5.28654218509961
 20
-3.939808617728244
 30
0.0
  0
VERTEX
  5
258
330
24F
100
AcDbEntity
  8
None
  6
Continuous
 62
   250
370
     9
100
AcDbVertex
100
AcDb2dVertex
 10
5.222984435568515
 20
-3.939808617728244
 30
0.0
  0
VERTEX
  5
259
330
24F
100
AcDbEntity
  8
None
  6
Continuous
 62
   250
370
     9
100
AcDbVertex
100
AcDb2dVertex
 10
5.222984435568515
 20
-3.911289114832975
 30
0.0
  0
VERTEX
  5
25A
330
24F
100
AcDbEntity
  8
None
  6
Continuous
 62
   250
370
     9
100
AcDbVertex
100
AcDb2dVertex
 10
5.179867007698273
 20
-3.911289114832975
 30
0.0
  0
VERTEX
  5
25B
330
24F
100
AcDbEntity
  8
None
  6
Continuous
 62
   250
370
     9
100
AcDbVertex
100
AcDb2dVertex
 10
5.179867007698273
 20
-3.899066470735002
 30
0.0
  0
VERTEX
  5
25C
330
24F
100
AcDbEntity
  8
None
  6
Continuous
 62
   250
370
     9
100
AcDbVertex
100
AcDb2dVertex
 10
4.996050675875822
 20
-3.899066470735002
 30
0.0
  0
VERTEX
  5
25D
330
24F
100
AcDbEntity
  8
None
  6
Continuous
 62
   250
370
     9
100
AcDbVertex
100
AcDb2dVertex
 10
4.996050675875822
 20
-3.910474274390291
 30
0.0
  0
SEQEND
  5
25E
330
24F
100
AcDbEntity
  8
None
  6
Continuous
 62
   250
370
     9
  0
MTEXT
  5
25F
330
48
100
AcDbEntity
  8
None
 62
   251
100
AcDbMText
 10
7.201387056626372
 20
-3.883202994517626
 30
0.0
 40
0.099629019240812
 41
0.0
 71
     2
 72
     1
  1
H
  7
Helvetica
 73
     1
 44
0.8397955333929318
  0
MTEXT
  5
260
330
48
100
AcDbEntity
  8
None
 62
   251
100
AcDbMText
 10
7.582748699248813
 20
-3.885148478708215
 30
0.0
 40
0.099629019240812
 41
0.0
 71
     2
 72
     1
  1
4
  7
Helvetica
 73
     1
 44
0.8397955333929318
  0
WIPEOUT
  5
261
330
48
100
AcDbEntity
  8
None
  6
Continuous
 62
     7
370
    18
 92
      152
310
98000000040000000C0000000E000000B20000000C00000016000000000000C20C00000014000000010000006C00000007000000040000000BAB46670AAC1A40A08F598806960BC0000000000000000060407B99ECF91B40A08F598806960BC0000000000000000060407B99ECF91B40ACFC93DC01090DC000000000000000
310
000BAB46670AAC1A40ACFC93DC01090DC00000000000000000
100
AcDbWipeout
 90
        0
 10
6.668008435905684
 20
-3.629398082033353
 30
0.0
 11
0.3260581822008435
 21
0.0
 31
0.0
 12
0.0
 22
0.3260581822008435
 32
0.0
 13
1.0
 23
1.0
340
0
 70
     4
280
     1
281
    50
282
    50
283
     0
360
0
 71
     2
 91
        5
 14
-0.4999999999999964
 24
-0.0555555555555589
 14
0.5000000000000036
 24
-0.0555555555555589
 14
0.5000000000000036
 24
0.5
 14
-0.4999999999999964
 24
0.5
 14
-0.4999999999999964
 24
-0.0555555555555589
  0
POLYLINE
  5
262
330
48
100
AcDbEntity
  8
None
  6
Continuous
 62
     7
370
    18
100
AcDb2dPolyline
 66
     1
 10
0.0
 20
0.0
 30
0.0
 70
     1
  0
VERTEX
  5
263
330
262
100
AcDbEntity
  8
None
  6
Continuous
 62
     7
370
    18
100
AcDbVertex
100
AcDb2dVertex
 10
6.668008435905684
 20
-3.448254647477327
 30
0.0
  0
VERTEX
  5
264
330
262
100
AcDbEntity
  8
None
  6
Continuous
 62
     7
370
    18
100
AcDbVertex
100
AcDb2dVertex
 10
6.994066618106528
 20
-3.448254647477327
 30
0.0
  0
VERTEX
  5
265
330
262
100
AcDbEntity
  8
None
  6
Continuous
 62
     7
370
    18
100
AcDbVertex
100
AcDb2dVertex
 10
6.994066618106528
 20
-3.629398082033353
 30
0.0
  0
VERTEX
  5
266
330
262
100
AcDbEntity
  8
None
  6
Continuous
 62
     7
370
    18
100
AcDbVertex
100
AcDb2dVertex
 10
6.668008435905684
 20
-3.629398082033353
 30
0.0
  0
SEQEND
  5
267
330
262
100
AcDbEntity
  8
None
  6
Continuous
 62
     7
370
    18
  0
MTEXT
  5
268
330
48
100
AcDbEntity
  8
None
 62
   251
100
AcDbMText
 10
6.83064320675202
 20
-3.508572149492363
 30
0.0
 40
0.0398516076963248
 41
0.0
 71
     2
 72
     1
  1
CAFETERIA\P
  7
Helvetica
 73
     1
 44
0.8397955333929318
  0
MTEXT
  5
269
330
48
100
AcDbEntity
  8
None
 62
   251
100
AcDbMText
 10
5.618603976180795
 20
-4.04501806926748
 30
0.0
 40
0.099629019240812
 41
0.0
 71
     2
 72
     1
  1
5
  7
Helvetica
 73
     1
 44
0.8397955333929318
  0
ENDBLK
  5
4A
330
48
100
AcDbEntity
  8
0
100
AcDbBlockEnd
  0
BLOCK
  5
4C
330
4B
100
AcDbEntity
  8
0
100
AcDbBlockBegin
  2
*D5
 70
     1
 10
0.0
 20
0.0
 30
0.0
  3
*D5
  1

  0
LINE
  5
26A
330
4B
100
AcDbEntity
  8
Dimension
  6
Continuous
 62
     0
370
    -2
100
AcDbLine
 10
-1066.945333388701
 20
724.724615738696
 30
0.0
 11
-1066.945333388701
 21
836.2871157386961
 31
0.0
  0
LINE
  5
26B
330
4B
100
AcDbEntity
  8
Dimension
  6
Continuous
 62
     0
370
    -2
100
AcDbLine
 10
234.0546666113003
 20
737.5625
 30
0.0
 11
234.0546666113003
 21
836.2871157386961
 31
0.0
  0
LINE
  5
26C
330
4B
100
AcDbEntity
  8
Dimension
  6
Continuous
 62
     0
370
    -2
100
AcDbLine
 10
-1043.820333388701
 20
813.1621157386961
 30
0.0
 11
-483.5824430819895
 21
813.1621157386961
 31
0.0
  0
LINE
  5
26D
102
{ACAD_REACTORS
330
272
102
}
330
4B
100
AcDbEntity
  8
Dimension
  6
Continuous
 62
     0
370
    -2
100
AcDbLine
 10
210.9296666113003
 20
813.1621157386961
 30
0.0
 11
-349.3082236954109
 21
813.1621157386961
 31
0.0
  0
INSERT
  5
272
330
4B
100
AcDbEntity
  8
Dimension
 62
     0
370
    -2
100
AcDbBlockReference
  2
VW_FILLEDARROW
 10
-1066.945333388701
 20
813.1621157386961
 30
0.0
 41
23.125
 42
23.125
 43
23.125
 50
180.0
  0
INSERT
  5
273
102
{ACAD_REACTORS
330
278
102
}
330
4B
100
AcDbEntity
  8
Dimension
 62
     0
370
    -2
100
AcDbBlockReference
  2
VW_FILLEDARROW
 10
234.0546666113003
 20
813.1621157386961
 30
0.0
 41
23.125
 42
23.125
 43
23.125
  0
MTEXT
  5
278
330
4B
100
AcDbEntity
  8
Dimension
 62
     0
370
     9
100
AcDbMText
 10
-416.4453333887002
 20
813.1621157386961
 30
0.0
 40
22.11764227146026
 41
0.0
 71
     5
 72
     1
  1
\A1;108'-5"
  7
Helvetica
 73
     1
 44
1.0
  0
POINT
  5
279
330
4B
100
AcDbEntity
  8
Defpoints
 62
     0
100
AcDbPoint
 10
-1066.945333388701
 20
713.162115738696
 30
0.0
  0
POINT
  5
27A
330
4B
100
AcDbEntity
  8
Defpoints
 62
     0
100
AcDbPoint
 10
234.0546666113003
 20
726.0
 30
0.0
  0
POINT
  5
27B
330
4B
100
AcDbEntity
  8
Defpoints
 62
     0
100
AcDbPoint
 10
234.0546666113003
 20
813.1621157386961
 30
0.0
  0
ENDBLK
  5
4D
330
4B
100
AcDbEntity
  8
0
100
AcDbBlockEnd
  0
BLOCK
  5
4F
330
4E
100
AcDbEntity
  8
0
100
AcDbBlockBegin
  2
*D6
 70
     1
 10
0.0
 20
0.0
 30
0.0
  3
*D6
  1

  0
LINE
  5
27E
330
4E
100
AcDbEntity
  8
Dimension
  6
Continuous
 62
     0
370
    -2
100
AcDbLine
 10
-1056.307797240874
 20
-738.2062410472084
 30
0.0
 11
-1315.125
 21
-738.2062410472083
 31
0.0
  0
LINE
  5
27F
330
4E
100
AcDbEntity
  8
Dimension
  6
Continuous
 62
     0
370
    -2
100
AcDbLine
 10
-958.3077972408745
 20
590.1079926473146
 30
0.0
 11
-1315.125
 21
590.1079926473146
 31
0.0
  0
LINE
  5
280
330
4E
100
AcDbEntity
  8
Dimension
  6
Continuous
 62
     0
370
    -2
100
AcDbLine
 10
-1292.0
 20
-715.0812410472083
 30
0.0
 11
-1292.0
 21
-87.99857033567696
 31
0.0
  0
LINE
  5
281
102
{ACAD_REACTORS
330
286
102
}
330
4E
100
AcDbEntity
  8
Dimension
  6
Continuous
 62
     0
370
    -2
100
AcDbLine
 10
-1292.0
 20
566.9829926473146
 30
0.0
 11
-1292.0
 21
-60.09967806421685
 31
0.0
  0
INSERT
  5
286
330
4E
100
AcDbEntity
  8
Dimension
 62
     0
370
    -2
100
AcDbBlockReference
  2
VW_FILLEDARROW
 10
-1292.0
 20
-738.2062410472083
 30
0.0
 41
23.125
 42
23.125
 43
23.125
 50
270.0
  0
INSERT
  5
287
102
{ACAD_REACTORS
330
28C
102
}
330
4E
100
AcDbEntity
  8
Dimension
 62
     0
370
    -2
100
AcDbBlockReference
  2
VW_FILLEDARROW
 10
-1292.0
 20
590.1079926473146
 30
0.0
 41
23.125
 42
23.125
 43
23.125
 50
90.0
  0
MTEXT
  5
28C
330
4E
100
AcDbEntity
  8
Dimension
 62
     0
370
     9
100
AcDbMText
 10
-1292.0
 20
-74.04912419994685
 30
0.0
 40
22.11764227146026
 41
0.0
 71
     5
 72
     1
  1
\A1;110'-8"
  7
Helvetica
 73
     1
 44
1.0
  0
POINT
  5
28D
330
4E
100
AcDbEntity
  8
Defpoints
 62
     0
100
AcDbPoint
 10
-1044.745297240874
 20
-738.2062410472084
 30
0.0
  0
POINT
  5
28E
330
4E
100
AcDbEntity
  8
Defpoints
 62
     0
100
AcDbPoint
 10
-946.7452972408745
 20
590.1079926473146
 30
0.0
  0
POINT
  5
28F
330
4E
100
AcDbEntity
  8
Defpoints
 62
     0
100
AcDbPoint
 10
-1292.0
 20
590.1079926473146
 30
0.0
  0
ENDBLK
  5
50
330
4E
100
AcDbEntity
  8
0
100
AcDbBlockEnd
  0
BLOCK
  5
52
330
51
100
AcDbEntity
  8
0
100
AcDbBlockBegin
  2
Group-5-1
 70
     0
 10
0.0
 20
0.0
 30
0.0
  3
Group-5-1
  1

  0
WIPEOUT
  5
292
330
51
100
AcDbEntity
  8
None
  6
Continuous
 62
     7
370
    15
 92
      152
310
98000000040000000C0000000E000000B20000000C00000016000000000000C20C00000014000000010000006C0000000700000004000000082ACEB5D33261C00948E24499878AC0000000000000000008549C6BA7655FC00948E24499878AC0000000000000000008549C6BA7655FC00A48E24499B78AC000000000000000
310
00082ACEB5D33261C00A48E24499B78AC00000000000000000
100
AcDbWipeout
 90
        0
 10
-137.5883435274739
 20
-854.9498384168849
 30
0.0
 11
12.00000000000013
 21
0.0
 31
0.0
 12
0.0
 22
12.00000000000013
 32
0.0
 13
1.0
 23
1.0
340
0
 70
     4
280
     1
281
    50
282
    50
283
     0
360
0
 71
     2
 91
        5
 14
-0.4999999999999982
 24
0.0
 14
0.5000000000000018
 24
0.0
 14
0.5000000000000018
 24
0.5
 14
-0.4999999999999982
 24
0.5
 14
-0.4999999999999982
 24
0.0
  0
POLYLINE
  5
293
330
51
100
AcDbEntity
  8
None
  6
Continuous
 62
     7
370
    15
100
AcDb2dPolyline
 66
     1
 10
0.0
 20
0.0
 30
0.0
 70
     1
  0
VERTEX
  5
294
330
293
100
AcDbEntity
  8
None
  6
Continuous
 62
     7
370
    15
100
AcDbVertex
100
AcDb2dVertex
 10
-137.5883435274739
 20
-848.9498384168847
 30
0.0
  0
VERTEX
  5
295
330
293
100
AcDbEntity
  8
None
  6
Continuous
 62
     7
370
    15
100
AcDbVertex
100
AcDb2dVertex
 10
-125.5883435274738
 20
-848.9498384168847
 30
0.0
  0
VERTEX
  5
296
330
293
100
AcDbEntity
  8
None
  6
Continuous
 62
     7
370
    15
100
AcDbVertex
100
AcDb2dVertex
 10
-125.5883435274738
 20
-854.9498384168849
 30
0.0
  0
VERTEX
  5
297
330
293
100
AcDbEntity
  8
None
  6
Continuous
 62
     7
370
    15
100
AcDbVertex
100
AcDb2dVertex
 10
-137.5883435274739
 20
-854.9498384168849
 30
0.0
  0
SEQEND
  5
298
330
293
100
AcDbEntity
  8
None
  6
Continuous
 62
     7
370
    15
  0
WIPEOUT
  5
299
330
51
100
AcDbEntity
  8
None
  6
Continuous
 62
     7
370
    15
 92
      152
310
98000000040000000C0000000E000000B20000000C00000016000000000000C20C00000014000000010000006C0000000700000004000000E0539C6BA7655FC00A48E24499B78AC0000000000000000000549C6BA7655CC00A48E24499B78AC0000000000000000000549C6BA7655CC00948E24499E78AC000000000000000
310
00E0539C6BA7655FC00948E24499E78AC00000000000000000
100
AcDbWipeout
 90
        0
 10
-125.5883435274732
 20
-860.9498384168847
 30
0.0
 11
11.99999999999955
 21
0.0
 31
0.0
 12
0.0
 22
11.99999999999955
 32
0.0
 13
1.0
 23
1.0
340
0
 70
     4
280
     1
281
    50
282
    50
283
     0
360
0
 71
     2
 91
        5
 14
-0.4999999999999982
 24
-0.0000000000000142
 14
0.5000000000000018
 24
-0.0000000000000142
 14
0.5000000000000018
 24
0.5
 14
-0.4999999999999982
 24
0.5
 14
-0.4999999999999982
 24
-0.0000000000000142
  0
POLYLINE
  5
29A
330
51
100
AcDbEntity
  8
None
  6
Continuous
 62
     7
370
    15
100
AcDb2dPolyline
 66
     1
 10
0.0
 20
0.0
 30
0.0
 70
     1
  0
VERTEX
  5
29B
330
29A
100
AcDbEntity
  8
None
  6
Continuous
 62
     7
370
    15
100
AcDbVertex
100
AcDb2dVertex
 10
-125.5883435274732
 20
-854.9498384168849
 30
0.0
  0
VERTEX
  5
29C
330
29A
100
AcDbEntity
  8
None
  6
Continuous
 62
     7
370
    15
100
AcDbVertex
100
AcDb2dVertex
 10
-113.5883435274736
 20
-854.9498384168849
 30
0.0
  0
VERTEX
  5
29D
330
29A
100
AcDbEntity
  8
None
  6
Continuous
 62
     7
370
    15
100
AcDbVertex
100
AcDb2dVertex
 10
-113.5883435274736
 20
-860.9498384168847
 30
0.0
  0
VERTEX
  5
29E
330
29A
100
AcDbEntity
  8
None
  6
Continuous
 62
     7
370
    15
100
AcDbVertex
100
AcDb2dVertex
 10
-125.5883435274732
 20
-860.9498384168847
 30
0.0
  0
SEQEND
  5
29F
330
29A
100
AcDbEntity
  8
None
  6
Continuous
 62
     7
370
    15
  0
WIPEOUT
  5
2A0
330
51
100
AcDbEntity
  8
None
  6
Continuous
 62
     7
370
    15
 92
      152
310
98000000040000000C0000000E000000B20000000C00000016000000000000C20C00000014000000010000006C00000007000000040000000B549C6BA7655CC00848E24499878AC0000000000000000003549C6BA76559C00848E24499878AC0000000000000000003549C6BA76559C00948E24499B78AC000000000000000
310
000B549C6BA7655CC00948E24499B78AC00000000000000000
100
AcDbWipeout
 90
        0
 10
-113.5883435274738
 20
-854.9498384168849
 30
0.0
 11
12.00000000000011
 21
0.0
 31
0.0
 12
0.0
 22
12.00000000000011
 32
0.0
 13
1.0
 23
1.0
340
0
 70
     4
280
     1
281
    50
282
    50
283
     0
360
0
 71
     2
 91
        5
 14
-0.5
 24
-0.0000000000000142
 14
0.5
 24
-0.0000000000000142
 14
0.5
 24
0.4999999999999858
 14
-0.5
 24
0.4999999999999858
 14
-0.5
 24
-0.0000000000000142
  0
POLYLINE
  5
2A1
330
51
100
AcDbEntity
  8
None
  6
Continuous
 62
     7
370
    15
100
AcDb2dPolyline
 66
     1
 10
0.0
 20
0.0
 30
0.0
 70
     1
  0
VERTEX
  5
2A2
330
2A1
100
AcDbEntity
  8
None
  6
Continuous
 62
     7
370
    15
100
AcDbVertex
100
AcDb2dVertex
 10
-113.5883435274738
 20
-848.9498384168847
 30
0.0
  0
VERTEX
  5
2A3
330
2A1
100
AcDbEntity
  8
None
  6
Continuous
 62
     7
370
    15
100
AcDbVertex
100
AcDb2dVertex
 10
-101.5883435274737
 20
-848.9498384168847
 30
0.0
  0
VERTEX
  5
2A4
330
2A1
100
AcDbEntity
  8
None
  6
Continuous
 62
     7
370
    15
100
AcDbVertex
100
AcDb2dVertex
 10
-101.5883435274737
 20
-854.9498384168849
 30
0.0
  0
VERTEX
  5
2A5
330
2A1
100
AcDbEntity
  8
None
  6
Continuous
 62
     7
370
    15
100
AcDbVertex
100
AcDb2dVertex
 10
-113.5883435274738
 20
-854.9498384168849
 30
0.0
  0
SEQEND
  5
2A6
330
2A1
100
AcDbEntity
  8
None
  6
Continuous
 62
     7
370
    15
  0
WIPEOUT
  5
2A7
330
51
100
AcDbEntity
  8
None
  6
Continuous
 62
     7
370
    15
 92
      152
310
98000000040000000C0000000E000000B20000000C00000016000000000000C20C00000014000000010000006C000000070000000400000003549C6BA76559C00A48E24499B78AC00000000000000000FB539C6BA76556C00A48E24499B78AC00000000000000000FB539C6BA76556C00848E24499E78AC000000000000000
310
0003549C6BA76559C00848E24499E78AC00000000000000000
100
AcDbWipeout
 90
        0
 10
-101.5883435274737
 20
-860.9498384168847
 30
0.0
 11
12.00000000000011
 21
0.0
 31
0.0
 12
0.0
 22
12.00000000000011
 32
0.0
 13
1.0
 23
1.0
340
0
 70
     4
280
     1
281
    50
282
    50
283
     0
360
0
 71
     2
 91
        5
 14
-0.5
 24
0.0000000000000142
 14
0.5
 24
0.0000000000000142
 14
0.5
 24
0.5
 14
-0.5
 24
0.5
 14
-0.5
 24
0.0000000000000142
  0
POLYLINE
  5
2A8
330
51
100
AcDbEntity
  8
None
  6
Continuous
 62
     7
370
    15
100
AcDb2dPolyline
 66
     1
 10
0.0
 20
0.0
 30
0.0
 70
     1
  0
VERTEX
  5
2A9
330
2A8
100
AcDbEntity
  8
None
  6
Continuous
 62
     7
370
    15
100
AcDbVertex
100
AcDb2dVertex
 10
-101.5883435274737
 20
-854.9498384168849
 30
0.0
  0
VERTEX
  5
2AA
330
2A8
100
AcDbEntity
  8
None
  6
Continuous
 62
     7
370
    15
100
AcDbVertex
100
AcDb2dVertex
 10
-89.58834352747355
 20
-854.9498384168849
 30
0.0
  0
VERTEX
  5
2AB
330
2A8
100
AcDbEntity
  8
None
  6
Continuous
 62
     7
370
    15
100
AcDbVertex
100
AcDb2dVertex
 10
-89.58834352747355
 20
-860.9498384168847
 30
0.0
  0
VERTEX
  5
2AC
330
2A8
100
AcDbEntity
  8
None
  6
Continuous
 62
     7
370
    15
100
AcDbVertex
100
AcDb2dVertex
 10
-101.5883435274737
 20
-860.9498384168847
 30
0.0
  0
SEQEND
  5
2AD
330
2A8
100
AcDbEntity
  8
None
  6
Continuous
 62
     7
370
    15
  0
WIPEOUT
  5
2AE
330
51
100
AcDbEntity
  8
None
  6
Continuous
 62
     7
370
    15
 92
      152
310
98000000040000000C0000000E000000B20000000C00000016000000000000C20C00000014000000010000006C0000000700000004000000FB539C6BA76556C00848E24499878AC00000000000000000F3539C6BA76553C00848E24499878AC00000000000000000F3539C6BA76553C00948E24499B78AC000000000000000
310
00FB539C6BA76556C00948E24499B78AC00000000000000000
100
AcDbWipeout
 90
        0
 10
-89.58834352747355
 20
-854.9498384168849
 30
0.0
 11
12.00000000000011
 21
0.0
 31
0.0
 12
0.0
 22
12.00000000000011
 32
0.0
 13
1.0
 23
1.0
340
0
 70
     4
280
     1
281
    50
282
    50
283
     0
360
0
 71
     2
 91
        5
 14
-0.5
 24
-0.0000000000000142
 14
0.5
 24
-0.0000000000000142
 14
0.5
 24
0.4999999999999858
 14
-0.5
 24
0.4999999999999858
 14
-0.5
 24
-0.0000000000000142
  0
POLYLINE
  5
2AF
330
51
100
AcDbEntity
  8
None
  6
Continuous
 62
     7
370
    15
100
AcDb2dPolyline
 66
     1
 10
0.0
 20
0.0
 30
0.0
 70
     1
  0
VERTEX
  5
2B0
330
2AF
100
AcDbEntity
  8
None
  6
Continuous
 62
     7
370
    15
100
AcDbVertex
100
AcDb2dVertex
 10
-89.58834352747355
 20
-848.9498384168847
 30
0.0
  0
VERTEX
  5
2B1
330
2AF
100
AcDbEntity
  8
None
  6
Continuous
 62
     7
370
    15
100
AcDbVertex
100
AcDb2dVertex
 10
-77.58834352747344
 20
-848.9498384168847
 30
0.0
  0
VERTEX
  5
2B2
330
2AF
100
AcDbEntity
  8
None
  6
Continuous
 62
     7
370
    15
100
AcDbVertex
100
AcDb2dVertex
 10
-77.58834352747344
 20
-854.9498384168849
 30
0.0
  0
VERTEX
  5
2B3
330
2AF
100
AcDbEntity
  8
None
  6
Continuous
 62
     7
370
    15
100
AcDbVertex
100
AcDb2dVertex
 10
-89.58834352747355
 20
-854.9498384168849
 30
0.0
  0
SEQEND
  5
2B4
330
2AF
100
AcDbEntity
  8
None
  6
Continuous
 62
     7
370
    15
  0
WIPEOUT
  5
2B5
330
51
100
AcDbEntity
  8
None
  6
Continuous
 62
     7
370
    15
 92
      152
310
98000000040000000C0000000E000000B20000000C00000016000000000000C20C00000014000000010000006C00000007000000040000001B549C6BA76553C00A48E24499B78AC000000000000000006C5071AE9D9631C00A48E24499B78AC000000000000000006C5071AE9D9631C00948E24499E78AC000000000000000
310
001B549C6BA76553C00948E24499E78AC00000000000000000
100
AcDbWipeout
 90
        0
 10
-77.58834352747401
 20
-860.9498384168847
 30
0.0
 11
60.0
 21
0.0
 31
0.0
 12
0.0
 22
60.0
 32
0.0
 13
1.0
 23
1.0
340
0
 70
     4
280
     1
281
    50
282
    50
283
     0
360
0
 71
     2
 91
        5
 14
-0.5
 24
0.4000000000000021
 14
0.5
 24
0.4000000000000021
 14
0.5
 24
0.5
 14
-0.5
 24
0.5
 14
-0.5
 24
0.4000000000000021
  0
POLYLINE
  5
2B6
330
51
100
AcDbEntity
  8
None
  6
Continuous
 62
     7
370
    15
100
AcDb2dPolyline
 66
     1
 10
0.0
 20
0.0
 30
0.0
 70
     1
  0
VERTEX
  5
2B7
330
2B6
100
AcDbEntity
  8
None
  6
Continuous
 62
     7
370
    15
100
AcDbVertex
100
AcDb2dVertex
 10
-77.58834352747401
 20
-854.9498384168849
 30
0.0
  0
VERTEX
  5
2B8
330
2B6
100
AcDbEntity
  8
None
  6
Continuous
 62
     7
370
    15
100
AcDbVertex
100
AcDb2dVertex
 10
-17.58834352747401
 20
-854.9498384168849
 30
0.0
  0
VERTEX
  5
2B9
330
2B6
100
AcDbEntity
  8
None
  6
Continuous
 62
     7
370
    15
100
AcDbVertex
100
AcDb2dVertex
 10
-17.58834352747401
 20
-860.9498384168847
 30
0.0
  0
VERTEX
  5
2BA
330
2B6
100
AcDbEntity
  8
None
  6
Continuous
 62
     7
370
    15
100
AcDbVertex
100
AcDb2dVertex
 10
-77.58834352747401
 20
-860.9498384168847
 30
0.0
  0
SEQEND
  5
2BB
330
2B6
100
AcDbEntity
  8
None
  6
Continuous
 62
     7
370
    15
  0
WIPEOUT
  5
2BC
330
51
100
AcDbEntity
  8
None
  6
Continuous
 62
     7
370
    15
 92
      152
310
98000000040000000C0000000E000000B20000000C00000016000000000000C20C00000014000000010000006C00000007000000040000006E5071AE9D9631C00948E24499878AC00000000000000000DBAB6394589A59400948E24499878AC00000000000000000DBAB6394589A59400A48E24499B78AC000000000000000
310
006E5071AE9D9631C00A48E24499B78AC00000000000000000
100
AcDbWipeout
 90
        0
 10
-17.58834352747401
 20
-854.9498384168849
 30
0.0
 11
119.9999999999999
 21
0.0
 31
0.0
 12
0.0
 22
119.9999999999999
 32
0.0
 13
1.0
 23
1.0
340
0
 70
     4
280
     1
281
    50
282
    50
283
     0
360
0
 71
     2
 91
        5
 14
-0.5000000000000001
 24
0.4499999999999984
 14
0.4999999999999998
 24
0.4499999999999984
 14
0.4999999999999998
 24
0.4999999999999991
 14
-0.5000000000000001
 24
0.4999999999999991
 14
-0.5000000000000001
 24
0.4499999999999984
  0
POLYLINE
  5
2BD
330
51
100
AcDbEntity
  8
None
  6
Continuous
 62
     7
370
    15
100
AcDb2dPolyline
 66
     1
 10
0.0
 20
0.0
 30
0.0
 70
     1
  0
VERTEX
  5
2BE
330
2BD
100
AcDbEntity
  8
None
  6
Continuous
 62
     7
370
    15
100
AcDbVertex
100
AcDb2dVertex
 10
-17.58834352747401
 20
-848.9498384168847
 30
0.0
  0
VERTEX
  5
2BF
330
2BD
100
AcDbEntity
  8
None
  6
Continuous
 62
     7
370
    15
100
AcDbVertex
100
AcDb2dVertex
 10
102.4116564725259
 20
-848.9498384168847
 30
0.0
  0
VERTEX
  5
2C0
330
2BD
100
AcDbEntity
  8
None
  6
Continuous
 62
     7
370
    15
100
AcDbVertex
100
AcDb2dVertex
 10
102.4116564725259
 20
-854.9498384168849
 30
0.0
  0
VERTEX
  5
2C1
330
2BD
100
AcDbEntity
  8
None
  6
Continuous
 62
     7
370
    15
100
AcDbVertex
100
AcDb2dVertex
 10
-17.58834352747401
 20
-854.9498384168849
 30
0.0
  0
SEQEND
  5
2C2
330
2BD
100
AcDbEntity
  8
None
  6
Continuous
 62
     7
370
    15
  0
WIPEOUT
  5
2C3
330
51
100
AcDbEntity
  8
None
  6
Continuous
 62
     7
370
    15
 92
      152
310
98000000040000000C0000000E000000B20000000C00000016000000000000C20C00000014000000010000006C0000000700000004000000DCAB6394589A59400948E24499B78AC00000000000000000F2EA1825966675400948E24499B78AC00000000000000000F2EA1825966675400848E24499E78AC000000000000000
310
00DCAB6394589A59400848E24499E78AC00000000000000000
100
AcDbWipeout
 90
        0
 10
102.4116564725259
 20
-860.9498384168847
 30
0.0
 11
239.9999999999998
 21
0.0
 31
0.0
 12
0.0
 22
239.9999999999998
 32
0.0
 13
1.0
 23
1.0
340
0
 70
     4
280
     1
281
    50
282
    50
283
     0
360
0
 71
     2
 91
        5
 14
-0.5
 24
0.4750000000000001
 14
0.4999999999999998
 24
0.4750000000000001
 14
0.4999999999999998
 24
0.4999999999999996
 14
-0.5
 24
0.4999999999999996
 14
-0.5
 24
0.4750000000000001
  0
POLYLINE
  5
2C4
330
51
100
AcDbEntity
  8
None
  6
Continuous
 62
     7
370
    15
100
AcDb2dPolyline
 66
     1
 10
0.0
 20
0.0
 30
0.0
 70
     1
  0
VERTEX
  5
2C5
330
2C4
100
AcDbEntity
  8
None
  6
Continuous
 62
     7
370
    15
100
AcDbVertex
100
AcDb2dVertex
 10
102.4116564725259
 20
-854.9498384168849
 30
0.0
  0
VERTEX
  5
2C6
330
2C4
100
AcDbEntity
  8
None
  6
Continuous
 62
     7
370
    15
100
AcDbVertex
100
AcDb2dVertex
 10
342.4116564725256
 20
-854.9498384168849
 30
0.0
  0
VERTEX
  5
2C7
330
2C4
100
AcDbEntity
  8
None
  6
Continuous
 62
     7
370
    15
100
AcDbVertex
100
AcDb2dVertex
 10
342.4116564725256
 20
-860.9498384168847
 30
0.0
  0
VERTEX
  5
2C8
330
2C4
100
AcDbEntity
  8
None
  6
Continuous
 62
     7
370
    15
100
AcDbVertex
100
AcDb2dVertex
 10
102.4116564725259
 20
-860.9498384168847
 30
0.0
  0
SEQEND
  5
2C9
330
2C4
100
AcDbEntity
  8
None
  6
Continuous
 62
     7
370
    15
  0
LINE
  5
2CA
330
51
100
AcDbEntity
  8
None
  6
Continuous
 62
     7
370
    15
100
AcDbLine
 10
-137.5883435274739
 20
-848.9498384168847
 30
0.0
 11
-137.5883435274739
 21
-860.9498384168847
 31
0.0
  0
LINE
  5
2CB
330
51
100
AcDbEntity
  8
None
  6
Continuous
 62
     7
370
    15
100
AcDbLine
 10
582.4116564725258
 20
-860.9498384168847
 30
0.0
 11
582.4116564725258
 21
-848.9498384168847
 31
0.0
  0
WIPEOUT
  5
2CC
330
51
100
AcDbEntity
  8
None
  6
Continuous
 62
     7
370
    15
 92
      152
310
98000000040000000C0000000E000000B20000000C00000016000000000000C20C00000014000000010000006C000000070000000400000000EB1825966675400A48E24499878AC0000000000000000085758C124B3382400A48E24499878AC0000000000000000085758C124B3382400948E24499B78AC000000000000000
310
0000EB1825966675400948E24499B78AC00000000000000000
100
AcDbWipeout
 90
        0
 10
342.4116564725263
 20
-854.9498384168846
 30
0.0
 11
240.0000000000006
 21
0.0
 31
0.0
 12
0.0
 22
240.0000000000006
 32
0.0
 13
1.0
 23
1.0
340
0
 70
     4
280
     1
281
    50
282
    50
283
     0
360
0
 71
     2
 91
        5
 14
-0.4999999999999998
 24
0.475000000000001
 14
0.5000000000000002
 24
0.475000000000001
 14
0.5000000000000002
 24
0.5000000000000004
 14
-0.4999999999999998
 24
0.5000000000000004
 14
-0.4999999999999998
 24
0.475000000000001
  0
POLYLINE
  5
2CD
330
51
100
AcDbEntity
  8
None
  6
Continuous
 62
     7
370
    15
100
AcDb2dPolyline
 66
     1
 10
0.0
 20
0.0
 30
0.0
 70
     1
  0
VERTEX
  5
2CE
330
2CD
100
AcDbEntity
  8
None
  6
Continuous
 62
     7
370
    15
100
AcDbVertex
100
AcDb2dVertex
 10
342.4116564725263
 20
-848.9498384168847
 30
0.0
  0
VERTEX
  5
2CF
330
2CD
100
AcDbEntity
  8
None
  6
Continuous
 62
     7
370
    15
100
AcDbVertex
100
AcDb2dVertex
 10
582.4116564725269
 20
-848.9498384168847
 30
0.0
  0
VERTEX
  5
2D0
330
2CD
100
AcDbEntity
  8
None
  6
Continuous
 62
     7
370
    15
100
AcDbVertex
100
AcDb2dVertex
 10
582.4116564725269
 20
-854.9498384168846
 30
0.0
  0
VERTEX
  5
2D1
330
2CD
100
AcDbEntity
  8
None
  6
Continuous
 62
     7
370
    15
100
AcDbVertex
100
AcDb2dVertex
 10
342.4116564725263
 20
-854.9498384168846
 30
0.0
  0
SEQEND
  5
2D2
330
2CD
100
AcDbEntity
  8
None
  6
Continuous
 62
     7
370
    15
  0
ENDBLK
  5
53
330
51
100
AcDbEntity
  8
0
100
AcDbBlockEnd
  0
BLOCK
  5
55
330
54
100
AcDbEntity
  8
0
100
AcDbBlockBegin
  2
Group-6-1
 70
     0
 10
0.0
 20
0.0
 30
0.0
  3
Group-6-1
  1

  0
INSERT
  5
2D3
330
54
100
AcDbEntity
  8
None
 62
     7
100
AcDbBlockReference
  2
Group-5-1
 10
0.0
 20
0.0
 30
0.0
  0
WIPEOUT
  5
2D4
330
54
100
AcDbEntity
  8
None
  6
Continuous
 62
     7
370
     9
 92
      152
310
98000000040000000C0000000E000000B20000000C00000016000000000000C20C00000014000000010000006C0000000700000004000000022ACEB5D3F261C0169AD40E92E08BC00000000000000000E4625C99008560C0169AD40E92E08BC00000000000000000E4625C99008560C04F28B847203C8BC000000000000000
310
00022ACEB5D3F261C04F28B847203C8BC00000000000000000
100
AcDbWipeout
 90
        0
 10
-143.5883435274737
 20
-892.0713173493886
 30
0.0
 11
20.55555555555554
 21
0.0
 31
0.0
 12
0.0
 22
20.55555555555554
 32
0.0
 13
1.0
 23
1.0
340
0
 70
     4
280
     1
281
    50
282
    50
283
     0
360
0
 71
     2
 91
        5
 14
-0.5000000000000009
 24
0.4999999999999929
 14
0.0561523437500009
 24
0.4999999999999929
 14
0.0561523437500009
 24
-0.5000000000000071
 14
-0.5000000000000009
 24
-0.5000000000000071
 14
-0.5000000000000009
 24
0.4999999999999929
  0
MTEXT
  5
2D5
330
54
100
AcDbEntity
  8
None
 62
     7
100
AcDbMText
 10
-143.5883435274737
 20
-872.5984447239707
 30
0.0
 40
14.74509484764017
 41
0.0
 71
     1
 72
     1
  1
0
  7
Helvetica
 73
     1
 44
0.8397955333929318
  0
WIPEOUT
  5
2D6
330
54
100
AcDbEntity
  8
None
  6
Continuous
 62
     7
370
     9
 92
      152
310
98000000040000000C0000000E000000B20000000C00000016000000000000C20C00000014000000010000006C0000000700000004000000DAAB24793FCB54C0169AD40E92E08BC00000000000000000DAAB24796FF450C0169AD40E92E08BC00000000000000000DAAB24796FF450C04F28B847203C8BC000000000000000
310
00DAAB24793FCB54C04F28B847203C8BC00000000000000000
100
AcDbWipeout
 90
        0
 10
-83.17574909764464
 20
-892.0713173493886
 30
0.0
 11
20.55555555555554
 21
0.0
 31
0.0
 12
0.0
 22
20.55555555555554
 32
0.0
 13
1.0
 23
1.0
340
0
 70
     4
280
     1
281
    50
282
    50
283
     0
360
0
 71
     2
 91
        5
 14
-0.4999999999999996
 24
0.4999999999999929
 14
0.2470703125000013
 24
0.4999999999999929
 14
0.2470703125000013
 24
-0.5000000000000071
 14
-0.4999999999999996
 24
-0.5000000000000071
 14
-0.4999999999999996
 24
0.4999999999999929
  0
MTEXT
  5
2D7
330
54
100
AcDbEntity
  8
None
 62
     7
100
AcDbMText
 10
-83.17574909764464
 20
-872.5984447239707
 30
0.0
 40
14.74509484764017
 41
0.0
 71
     1
 72
     1
  1
5'
  7
Helvetica
 73
     1
 44
0.8397955333929318
  0
WIPEOUT
  5
2D8
330
54
100
AcDbEntity
  8
None
  6
Continuous
 62
     7
370
     9
 92
      152
310
98000000040000000C0000000E000000B20000000C00000016000000000000C20C00000014000000010000006C0000000700000004000000CC0048DB85A73FC0189AD40E92E08BC000000000000000009E1FE7DEB37613C0189AD40E92E08BC000000000000000009E1FE7DEB37613C05128B847203C8BC000000000000000
310
00CC0048DB85A73FC05128B847203C8BC00000000000000000
100
AcDbWipeout
 90
        0
 10
-31.65438623912705
 20
-892.0713173493886
 30
0.0
 11
26.78846571180556
 21
0.0
 31
0.0
 12
0.0
 22
26.78846571180556
 32
0.0
 13
1.0
 23
1.0
340
0
 70
     4
280
     1
281
    50
282
    50
283
     0
360
0
 71
     2
 91
        5
 14
-0.5
 24
0.5000000000000071
 14
0.5
 24
0.5000000000000071
 14
0.5
 24
-0.2673285874859417
 14
-0.5
 24
-0.2673285874859417
 14
-0.5
 24
0.5000000000000071
  0
MTEXT
  5
2D9
330
54
100
AcDbEntity
  8
None
 62
     7
100
AcDbMText
 10
-31.65438623912705
 20
-872.5984447239707
 30
0.0
 40
14.74509484764017
 41
0.0
 71
     1
 72
     1
  1
10'
  7
Helvetica
 73
     1
 44
0.8397955333929318
  0
WIPEOUT
  5
2DA
330
54
100
AcDbEntity
  8
None
  6
Continuous
 62
     7
370
     9
 92
      152
310
98000000040000000C0000000E000000B20000000C00000016000000000000C20C00000014000000010000006C00000007000000040000004EFC5279280F5740189AD40E92E08BC00000000000000000888A36B29EC15D40189AD40E92E08BC00000000000000000888A36B29EC15D405128B847203C8BC000000000000000
310
004EFC5279280F57405128B847203C8BC00000000000000000
100
AcDbWipeout
 90
        0
 10
92.23684533218437
 20
-892.0713173493886
 30
0.0
 11
26.78846571180557
 21
0.0
 31
0.0
 12
0.0
 22
26.78846571180557
 32
0.0
 13
1.0
 23
1.0
340
0
 70
     4
280
     1
281
    50
282
    50
283
     0
360
0
 71
     2
 91
        5
 14
-0.4999999999999991
 24
0.5000000000000071
 14
0.5000000000000009
 24
0.5000000000000071
 14
0.5000000000000009
 24
-0.2673285874859417
 14
-0.4999999999999991
 24
-0.2673285874859417
 14
-0.4999999999999991
 24
0.5000000000000071
  0
MTEXT
  5
2DB
330
54
100
AcDbEntity
  8
None
 62
     7
100
AcDbMText
 10
92.23684533218437
 20
-872.5984447239707
 30
0.0
 40
14.74509484764017
 41
0.0
 71
     1
 72
     1
  1
20'
  7
Helvetica
 73
     1
 44
0.8397955333929318
  0
WIPEOUT
  5
2DC
330
54
100
AcDbEntity
  8
None
  6
Continuous
 62
     7
370
     9
 92
      152
310
98000000040000000C0000000E000000B20000000C00000016000000000000C20C00000014000000010000006C000000070000000400000021BF541ECA837440189AD40E92E08BC00000000000000000AFA28DAC67307640189AD40E92E08BC00000000000000000AFA28DAC673076405128B847203C8BC000000000000000
310
0021BF541ECA8374405128B847203C8BC00000000000000000
100
AcDbWipeout
 90
        0
 10
328.2368453321852
 20
-892.0713173493886
 30
0.0
 11
26.78846571180554
 21
0.0
 31
0.0
 12
0.0
 22
26.78846571180554
 32
0.0
 13
1.0
 23
1.0
340
0
 70
     4
280
     1
281
    50
282
    50
283
     0
360
0
 71
     2
 91
        5
 14
-0.5000000000000018
 24
0.5
 14
0.4999999999999982
 24
0.5
 14
0.4999999999999982
 24
-0.2673285874859488
 14
-0.5000000000000018
 24
-0.2673285874859488
 14
-0.5000000000000018
 24
0.5
  0
MTEXT
  5
2DD
330
54
100
AcDbEntity
  8
None
 62
     7
100
AcDbMText
 10
328.2368453321852
 20
-872.5984447239707
 30
0.0
 40
14.74509484764017
 41
0.0
 71
     1
 72
     1
  1
40'
  7
Helvetica
 73
     1
 44
0.8397955333929318
  0
WIPEOUT
  5
2DE
330
54
100
AcDbEntity
  8
None
  6
Continuous
 62
     7
370
     9
 92
      152
310
98000000040000000C0000000E000000B20000000C00000016000000000000C20C00000014000000010000006C0000000700000004000000B618572666B68140189AD40E92E08BC000000000000000007D8A73EDB48C8240189AD40E92E08BC000000000000000007D8A73EDB48C82405128B847203C8BC000000000000000
310
00B618572666B681405128B847203C8BC00000000000000000
100
AcDbWipeout
 90
        0
 10
566.7998778156677
 20
-892.0713173493886
 30
0.0
 11
26.78846571180554
 21
0.0
 31
0.0
 12
0.0
 22
26.78846571180554
 32
0.0
 13
1.0
 23
1.0
340
0
 70
     4
280
     1
281
    50
282
    50
283
     0
360
0
 71
     2
 91
        5
 14
-0.5000000000000036
 24
0.5
 14
0.4999999999999964
 24
0.5
 14
0.4999999999999964
 24
-0.2673285874859488
 14
-0.5000000000000036
 24
-0.2673285874859488
 14
-0.5000000000000036
 24
0.5
  0
MTEXT
  5
2DF
330
54
100
AcDbEntity
  8
None
 62
     7
100
AcDbMText
 10
566.7998778156677
 20
-872.5984447239707
 30
0.0
 40
14.74509484764017
 41
0.0
 71
     1
 72
     1
  1
60'
  7
Helvetica
 73
     1
 44
0.8397955333929318
  0
ENDBLK
  5
56
330
54
100
AcDbEntity
  8
0
100
AcDbBlockEnd
  0
BLOCK
  5
58
330
57
100
AcDbEntity
  8
0
100
AcDbBlockBegin
  2
Group-7-1
 70
     0
 10
0.0
 20
0.0
 30
0.0
  3
Group-7-1
  1

  0
INSERT
  5
2E0
330
57
100
AcDbEntity
  8
None
 62
     7
100
AcDbBlockReference
  2
Group-6-1
 10
0.0
 20
0.0
 30
0.0
  0
ENDBLK
  5
59
330
57
100
AcDbEntity
  8
0
100
AcDbBlockEnd
  0
BLOCK
  5
5B
330
5A
100
AcDbEntity
  8
0
100
AcDbBlockBegin
  2
Group-8-1
 70
     0
 10
0.0
 20
0.0
 30
0.0
  3
Group-8-1
  1

  0
WIPEOUT
  5
2E1
330
5A
100
AcDbEntity
  8
None
  6
Continuous
 62
     7
370
     9
 92
      152
310
98000000040000000C0000000E000000B20000000C00000016000000000000C20C00000014000000010000006C000000070000000400000033573569948B61C06DD02919FC0D8AC0000000000000000046FC3FD88D8B56406DD02919FC0D8AC0000000000000000046FC3FD88D8B5640C2257F6E511789C000000000000000
310
0033573569948B61C0C2257F6E511789C00000000000000000
100
AcDbWipeout
 90
        0
 10
-140.3618665735063
 20
-833.7480948702557
 30
0.0
 11
230.5423990885417
 21
0.0
 31
0.0
 12
0.0
 22
230.5423990885417
 32
0.0
 13
1.0
 23
1.0
340
0
 70
     4
280
     1
281
    50
282
    50
283
     0
360
0
 71
     2
 91
        5
 14
-0.5
 24
0.4999999999999996
 14
0.5
 24
0.4999999999999996
 14
0.5
 24
0.3662574283288702
 14
-0.5
 24
0.3662574283288702
 14
-0.5
 24
0.4999999999999996
  0
MTEXT
  5
2E2
330
5A
100
AcDbEntity
  8
None
 62
     7
100
AcDbMText
 10
-140.3618665735063
 20
-804.5387859321287
 30
0.0
 40
22.11764227146026
 41
0.0
 71
     1
 72
     1
  1
SCALE = 1 : 185
  7
Helvetica
 73
     1
 44
0.8397955333929318
  0
INSERT
  5
2E3
330
5A
100
AcDbEntity
  8
None
 62
     7
100
AcDbBlockReference
  2
Group-7-1
 10
0.0
 20
0.0
 30
0.0
  0
ENDBLK
  5
5C
330
5A
100
AcDbEntity
  8
0
100
AcDbBlockEnd
  0
BLOCK
  5
5E
330
5D
100
AcDbEntity
  8
0
100
AcDbBlockBegin
  2
Group-9-1
 70
     0
 10
0.0
 20
0.0
 30
0.0
  3
Group-9-1
  1

  0
LINE
  5
2E4
330
5D
100
AcDbEntity
  8
0
  6
Continuous
 62
     7
370
     9
100
AcDbLine
 10
-1019.271873834385
 20
577.514751645691
 30
0.0
 11
-1017.271873834378
 21
577.514751645691
 31
0.0
  0
LINE
  5
2E5
330
5D
100
AcDbEntity
  8
0
  6
Continuous
 62
     7
370
     9
100
AcDbLine
 10
-1017.271873834378
 20
577.514751645691
 30
0.0
 11
-1017.271873834378
 21
541.5147516456909
 31
0.0
  0
LINE
  5
2E6
330
5D
100
AcDbEntity
  8
0
  6
Continuous
 62
     7
370
     9
100
AcDbLine
 10
-1017.271873834378
 20
541.5147516456909
 30
0.0
 11
-1019.271873834385
 21
541.5147516456909
 31
0.0
  0
LINE
  5
2E7
330
5D
100
AcDbEntity
  8
0
  6
Continuous
 62
     7
370
     9
100
AcDbLine
 10
-1019.271873834385
 20
541.5147516456909
 30
0.0
 11
-1019.271873834385
 21
577.514751645691
 31
0.0
  0
SPLINE
  5
2E8
330
5D
100
AcDbEntity
  8
0
  6
Continuous
 62
     7
370
     9
100
AcDbSpline
210
0.0
220
0.0
230
1.0
 70
     8
 71
     2
 72
     8
 73
     5
 74
     0
 42
0.000000001
 43
0.0000000000001
 40
0.0
 40
0.0
 40
0.0
 40
1.0
 40
2.0
 40
3.0
 40
3.0
 40
3.0
 10
-1019.271773250567
 20
577.459158753406
 30
0.0
 10
-1028.547024963105
 20
576.9430959782104
 30
0.0
 10
-1044.281902952325
 20
567.0638209471567
 30
0.0
 10
-1053.271849176157
 20
550.8044443488282
 30
0.0
 10
-1053.271873834378
 20
541.5148472037598
 30
0.0
  0
ENDBLK
  5
5F
330
5D
100
AcDbEntity
  8
0
100
AcDbBlockEnd
  0
BLOCK
  5
61
330
60
100
AcDbEntity
  8
0
100
AcDbBlockBegin
  2
Group-10-1
 70
     0
 10
0.0
 20
0.0
 30
0.0
  3
Group-10-1
  1

  0
LINE
  5
2E9
330
60
100
AcDbEntity
  8
0
  6
Continuous
 62
     7
370
     9
100
AcDbLine
 10
-1112.5035964964
 20
615.4853026131082
 30
0.0
 11
-1112.5035964964
 21
617.4853026131152
 31
0.0
  0
LINE
  5
2EA
330
60
100
AcDbEntity
  8
0
  6
Continuous
 62
     7
370
     9
100
AcDbLine
 10
-1112.5035964964
 20
617.4853026131152
 30
0.0
 11
-1076.503596496401
 21
617.4853026131152
 31
0.0
  0
LINE
  5
2EB
330
60
100
AcDbEntity
  8
0
  6
Continuous
 62
     7
370
     9
100
AcDbLine
 10
-1076.503596496401
 20
617.4853026131152
 30
0.0
 11
-1076.503596496401
 21
615.4853026131082
 31
0.0
  0
LINE
  5
2EC
330
60
100
AcDbEntity
  8
0
  6
Continuous
 62
     7
370
     9
100
AcDbLine
 10
-1076.503596496401
 20
615.4853026131082
 30
0.0
 11
-1112.5035964964
 21
615.4853026131082
 31
0.0
  0
SPLINE
  5
2ED
330
60
100
AcDbEntity
  8
0
  6
Continuous
 62
     7
370
     9
100
AcDbSpline
210
0.0
220
0.0
230
1.0
 70
     8
 71
     2
 72
     8
 73
     5
 74
     0
 42
0.000000001
 43
0.0000000000001
 40
0.0
 40
0.0
 40
0.0
 40
1.0
 40
2.0
 40
3.0
 40
3.0
 40
3.0
 10
-1112.448003604116
 20
615.4854031969265
 30
0.0
 10
-1111.93194082892
 20
606.2101514843886
 30
0.0
 10
-1102.052665797866
 20
590.475273495168
 30
0.0
 10
-1085.793289199538
 20
581.4853272713358
 30
0.0
 10
-1076.503692054469
 20
581.4853026131149
 30
0.0
  0
ENDBLK
  5
62
330
60
100
AcDbEntity
  8
0
100
AcDbBlockEnd
  0
BLOCK
  5
64
330
63
100
AcDbEntity
  8
0
100
AcDbBlockBegin
  2
Group-11-1
 70
     0
 10
0.0
 20
0.0
 30
0.0
  3
Group-11-1
  1

  0
LINE
  5
2EE
330
63
100
AcDbEntity
  8
0
  6
Continuous
 62
     7
370
     9
100
AcDbLine
 10
-1019.014507411285
 20
623.7797743779148
 30
0.0
 11
-1017.014507411278
 21
623.7797743779148
 31
0.0
  0
LINE
  5
2EF
330
63
100
AcDbEntity
  8
0
  6
Continuous
 62
     7
370
     9
100
AcDbLine
 10
-1017.014507411278
 20
623.7797743779148
 30
0.0
 11
-1017.014507411278
 21
659.7797743779153
 31
0.0
  0
LINE
  5
2F0
330
63
100
AcDbEntity
  8
0
  6
Continuous
 62
     7
370
     9
100
AcDbLine
 10
-1017.014507411278
 20
659.7797743779153
 30
0.0
 11
-1019.014507411285
 21
659.7797743779153
 31
0.0
  0
LINE
  5
2F1
330
63
100
AcDbEntity
  8
0
  6
Continuous
 62
     7
370
     9
100
AcDbLine
 10
-1019.014507411285
 20
659.7797743779153
 30
0.0
 11
-1019.014507411285
 21
623.7797743779148
 31
0.0
  0
SPLINE
  5
2F2
330
63
100
AcDbEntity
  8
0
  6
Continuous
 62
     7
370
     9
100
AcDbSpline
210
0.0
220
0.0
230
1.0
 70
     8
 71
     2
 72
     8
 73
     5
 74
     0
 42
0.000000001
 43
0.0000000000001
 40
0.0
 40
0.0
 40
0.0
 40
1.0
 40
2.0
 40
3.0
 40
3.0
 40
3.0
 10
-1019.014406827466
 20
623.8353672701999
 30
0.0
 10
-1028.289658540004
 20
624.3514300453954
 30
0.0
 10
-1044.024536529224
 20
634.2307050764493
 30
0.0
 10
-1053.014482753057
 20
650.4900816747779
 30
0.0
 10
-1053.014507411278
 20
659.7796788198464
 30
0.0
  0
ENDBLK
  5
65
330
63
100
AcDbEntity
  8
0
100
AcDbBlockEnd
  0
BLOCK
  5
67
330
66
100
AcDbEntity
  8
0
100
AcDbBlockBegin
  2
Group-12-1
 70
     0
 10
0.0
 20
0.0
 30
0.0
  3
Group-12-1
  1

  0
LWPOLYLINE
  5
2F3
330
66
100
AcDbEntity
  8
studio
  6
Continuous
 62
     7
370
     9
100
AcDbPolyline
 90
        4
 70
     0
 43
0.0
 10
219.2145057117882
 20
654.6626150970234
 10
219.2145057117882
 20
701.6626056886099
 10
221.1728390451216
 20
701.6626056886099
 10
221.1728390451216
 20
654.6626150970234
  0
SPLINE
  5
2F4
330
66
100
AcDbEntity
  8
studio
  6
Continuous
 62
     7
370
     9
100
AcDbSpline
210
0.0
220
0.0
230
1.0
 70
     8
 71
     2
 72
     8
 73
     5
 74
     0
 42
0.000000001
 43
0.0000000000001
 40
0.0
 40
0.0
 40
0.0
 40
1.0
 40
2.0
 40
3.0
 40
3.0
 40
3.0
 10
174.1728484535126
 20
701.662605688615
 30
0.0
 10
174.1728390451302
 20
689.0689930291958
 30
0.0
 10
186.7664462726208
 20
667.2562129161051
 30
0.0
 10
208.5792263857107
 20
654.6626056886153
 30
0.0
 10
221.1728390451296
 20
654.6626150969979
 30
0.0
  0
ENDBLK
  5
68
330
66
100
AcDbEntity
  8
0
100
AcDbBlockEnd
  0
BLOCK
  5
6A
330
69
100
AcDbEntity
  8
0
100
AcDbBlockBegin
  2
Group-13-1
 70
     0
 10
0.0
 20
0.0
 30
0.0
  3
Group-13-1
  1

  0
LWPOLYLINE
  5
2F5
330
69
100
AcDbEntity
  8
studio
  6
Continuous
 62
     7
370
     9
100
AcDbPolyline
 90
        4
 70
     0
 43
0.0
 10
219.2145408243107
 20
560.1476510366796
 10
219.2145408243107
 20
513.1476604450941
 10
221.1728741576441
 20
513.1476604450941
 10
221.1728741576441
 20
560.1476510366796
  0
SPLINE
  5
2F6
330
69
100
AcDbEntity
  8
studio
  6
Continuous
 62
     7
370
     9
100
AcDbSpline
210
0.0
220
0.0
230
1.0
 70
     8
 71
     2
 72
     8
 73
     5
 74
     0
 42
0.000000001
 43
0.0000000000001
 40
0.0
 40
0.0
 40
0.0
 40
1.0
 40
2.0
 40
3.0
 40
3.0
 40
3.0
 10
174.1728835660351
 20
513.1476604450884
 30
0.0
 10
174.1728741576527
 20
525.7412731045083
 30
0.0
 10
186.7664813851432
 20
547.5540532175986
 30
0.0
 10
208.5792614982332
 20
560.1476604450884
 30
0.0
 10
221.1728741576521
 20
560.147651036705
 30
0.0
  0
ENDBLK
  5
6B
330
69
100
AcDbEntity
  8
0
100
AcDbBlockEnd
  0
BLOCK
  5
6D
330
6C
100
AcDbEntity
  8
0
100
AcDbBlockBegin
  2
Group-14-1
 70
     0
 10
0.0
 20
0.0
 30
0.0
  3
Group-14-1
  1

  0
LWPOLYLINE
  5
2F7
330
6C
100
AcDbEntity
  8
studio
  6
Continuous
 62
     7
370
     9
100
AcDbPolyline
 90
        4
 70
     0
 43
0.0
 10
298.0546220903656
 20
625.3085692707025
 10
251.0546314987791
 20
625.3085692707025
 10
251.0546314987791
 20
627.2669026040359
 10
298.0546220903656
 20
627.2669026040359
  0
SPLINE
  5
2F8
330
6C
100
AcDbEntity
  8
studio
  6
Continuous
 62
     7
370
     9
100
AcDbSpline
210
0.0
220
0.0
230
1.0
 70
     8
 71
     2
 72
     8
 73
     5
 74
     0
 42
0.000000001
 43
0.0000000000001
 40
0.0
 40
0.0
 40
0.0
 40
1.0
 40
2.0
 40
3.0
 40
3.0
 40
3.0
 10
251.0546314987739
 20
580.2669120124267
 30
0.0
 10
263.6482441581932
 20
580.2669026040443
 30
0.0
 10
285.4610242712839
 20
592.8605098315347
 30
0.0
 10
298.0546314987737
 20
614.6732899446248
 30
0.0
 10
298.054622090391
 20
627.2669026040438
 30
0.0
  0
ENDBLK
  5
6E
330
6C
100
AcDbEntity
  8
0
100
AcDbBlockEnd
  0
BLOCK
  5
70
330
6F
100
AcDbEntity
  8
0
100
AcDbBlockBegin
  2
Group-15-1
 70
     0
 10
0.0
 20
0.0
 30
0.0
  3
Group-15-1
  1

  0
LINE
  5
2F9
330
6F
100
AcDbEntity
  8
0
  6
Continuous
 62
     7
370
     9
100
AcDbLine
 10
-576.6953333886751
 20
-791.2062410472089
 30
0.0
 11
-578.9453333886997
 21
-791.2062410472089
 31
0.0
  0
LINE
  5
2FA
330
6F
100
AcDbEntity
  8
0
  6
Continuous
 62
     7
370
     9
100
AcDbLine
 10
-578.9453333886997
 20
-791.2062410472089
 30
0.0
 11
-578.9453333886997
 21
-755.2062410472086
 31
0.0
  0
LINE
  5
2FB
330
6F
100
AcDbEntity
  8
0
  6
Continuous
 62
     7
370
     9
100
AcDbLine
 10
-578.9453333886997
 20
-755.2062410472086
 30
0.0
 11
-576.6953333886751
 21
-755.2062410472086
 31
0.0
  0
LINE
  5
2FC
330
6F
100
AcDbEntity
  8
0
  6
Continuous
 62
     7
370
     9
100
AcDbLine
 10
-576.6953333886751
 20
-755.2062410472086
 30
0.0
 11
-576.6953333886751
 21
-791.2062410472089
 31
0.0
  0
SPLINE
  5
2FD
330
6F
100
AcDbEntity
  8
0
  6
Continuous
 62
     7
370
     9
100
AcDbSpline
210
0.0
220
0.0
230
1.0
 70
     8
 71
     2
 72
     8
 73
     5
 74
     0
 42
0.000000001
 43
0.0000000000001
 40
0.0
 40
0.0
 40
0.0
 40
1.0
 40
2.0
 40
3.0
 40
3.0
 40
3.0
 10
-542.9453333886996
 20
-755.2064099887231
 30
0.0
 10
-542.9453767742458
 20
-764.4515009016148
 30
0.0
 10
-551.8547381806278
 20
-780.6536644389408
 30
0.0
 10
-567.4684841318862
 20
-790.5580958377117
 30
0.0
 10
-576.6955032909096
 20
-791.1358703875069
 30
0.0
  0
ENDBLK
  5
71
330
6F
100
AcDbEntity
  8
0
100
AcDbBlockEnd
  0
BLOCK
  5
73
330
72
100
AcDbEntity
  8
0
100
AcDbBlockBegin
  2
Group-16-1
 70
     0
 10
0.0
 20
0.0
 30
0.0
  3
Group-16-1
  1

  0
LINE
  5
2FE
330
72
100
AcDbEntity
  8
0
  6
Continuous
 62
     7
370
     9
100
AcDbLine
 10
-576.8276863298688
 20
-823.5686818276888
 30
0.0
 11
-578.9453333886997
 21
-823.5686818276888
 31
0.0
  0
LINE
  5
2FF
330
72
100
AcDbEntity
  8
0
  6
Continuous
 62
     7
370
     9
100
AcDbLine
 10
-578.9453333886997
 20
-823.5686818276888
 30
0.0
 11
-578.9453333886997
 21
-859.5686818276886
 31
0.0
  0
LINE
  5
300
330
72
100
AcDbEntity
  8
0
  6
Continuous
 62
     7
370
     9
100
AcDbLine
 10
-578.9453333886997
 20
-859.5686818276886
 30
0.0
 11
-576.8276863298688
 21
-859.5686818276886
 31
0.0
  0
LINE
  5
301
330
72
100
AcDbEntity
  8
0
  6
Continuous
 62
     7
370
     9
100
AcDbLine
 10
-576.8276863298688
 20
-859.5686818276886
 30
0.0
 11
-576.8276863298688
 21
-823.5686818276888
 31
0.0
  0
SPLINE
  5
302
330
72
100
AcDbEntity
  8
0
  6
Continuous
 62
     7
370
     9
100
AcDbSpline
210
0.0
220
0.0
230
1.0
 70
     8
 71
     2
 72
     8
 73
     5
 74
     0
 42
0.000000001
 43
0.0000000000001
 40
0.0
 40
0.0
 40
0.0
 40
1.0
 40
2.0
 40
3.0
 40
3.0
 40
3.0
 10
-576.8277856292626
 20
-823.6310136856603
 30
0.0
 10
-567.5751816449092
 20
-824.1762029494278
 30
0.0
 10
-551.8973284805955
 20
-834.0674398516528
 30
0.0
 10
-542.9453579913245
 20
-850.2999341657056
 30
0.0
 10
-542.9453333886996
 20
-859.5685862696199
 30
0.0
  0
ENDBLK
  5
74
330
72
100
AcDbEntity
  8
0
100
AcDbBlockEnd
  0
BLOCK
  5
76
330
75
100
AcDbEntity
  8
0
100
AcDbBlockBegin
  2
Group-17-1
 70
     0
 10
0.0
 20
0.0
 30
0.0
  3
Group-17-1
  1

  0
LINE
  5
303
330
75
100
AcDbEntity
  8
None
  6
Dash Style-6
 62
     7
370
     9
100
AcDbLine
 10
-1066.945333388701
 20
567.9508758000536
 30
0.0
 11
-894.1445517559179
 21
567.9508758000536
 31
0.0
  0
LINE
  5
304
330
75
100
AcDbEntity
  8
None
  6
Dash Style-6
 62
     7
370
     9
100
AcDbLine
 10
-1066.945333388701
 20
492.4214640353471
 30
0.0
 11
-894.1445517559179
 21
492.4214640353471
 31
0.0
  0
LINE
  5
305
330
75
100
AcDbEntity
  8
None
  6
Dash Style-6
 62
     7
370
     9
100
AcDbLine
 10
-1066.945333388701
 20
416.8920522706413
 30
0.0
 11
-894.1445517559179
 21
416.8920522706413
 31
0.0
  0
LINE
  5
306
330
75
100
AcDbEntity
  8
None
  6
Dash Style-6
 62
     7
370
     9
100
AcDbLine
 10
-1066.945333388701
 20
341.3626405059354
 30
0.0
 11
-894.1445517559179
 21
341.3626405059354
 31
0.0
  0
LINE
  5
307
330
75
100
AcDbEntity
  8
None
  6
Dash Style-6
 62
     7
370
     9
100
AcDbLine
 10
-1066.945333388701
 20
265.8332287412294
 30
0.0
 11
-894.1445517559179
 21
265.8332287412294
 31
0.0
  0
LINE
  5
308
330
75
100
AcDbEntity
  8
None
  6
Dash Style-6
 62
     7
370
     9
100
AcDbLine
 10
-1066.945333388701
 20
190.3038169765234
 30
0.0
 11
-894.1445517559179
 21
190.3038169765234
 31
0.0
  0
LINE
  5
309
330
75
100
AcDbEntity
  8
None
  6
Dash Style-6
 62
     7
370
     9
100
AcDbLine
 10
-1066.945333388701
 20
114.7744052118175
 30
0.0
 11
-894.1445517559179
 21
114.7744052118175
 31
0.0
  0
LINE
  5
30A
330
75
100
AcDbEntity
  8
None
  6
Dash Style-6
 62
     7
370
     9
100
AcDbLine
 10
-1066.945333388701
 20
39.24499344711157
 30
0.0
 11
-894.1445517559179
 21
39.24499344711157
 31
0.0
  0
LINE
  5
30B
330
75
100
AcDbEntity
  8
None
  6
Dash Style-6
 62
     7
370
     9
100
AcDbLine
 10
-1066.945333388701
 20
-36.28441831759425
 30
0.0
 11
-894.1445517559179
 21
-36.28441831759425
 31
0.0
  0
LINE
  5
30C
330
75
100
AcDbEntity
  8
None
  6
Dash Style-6
 62
     7
370
     9
100
AcDbLine
 10
-1066.945333388701
 20
-111.8138300822998
 30
0.0
 11
-894.1445517559179
 21
-111.8138300822998
 31
0.0
  0
LINE
  5
30D
330
75
100
AcDbEntity
  8
None
  6
Dash Style-6
 62
     7
370
     9
100
AcDbLine
 10
-1066.945333388701
 20
-187.3432418470056
 30
0.0
 11
-894.1445517559179
 21
-187.3432418470056
 31
0.0
  0
LINE
  5
30E
330
75
100
AcDbEntity
  8
None
  6
Dash Style-6
 62
     7
370
     9
100
AcDbLine
 10
-1066.945333388701
 20
-338.4020653764177
 30
0.0
 11
-894.1445517559179
 21
-338.4020653764177
 31
0.0
  0
LINE
  5
30F
330
75
100
AcDbEntity
  8
None
  6
Dash Style-6
 62
     7
370
     9
100
AcDbLine
 10
-1066.945333388701
 20
-413.9314771411227
 30
0.0
 11
-894.1445517559179
 21
-413.9314771411227
 31
0.0
  0
LINE
  5
310
330
75
100
AcDbEntity
  8
None
  6
Dash Style-6
 62
     7
370
     9
100
AcDbLine
 10
-1066.945333388701
 20
-489.4608889058291
 30
0.0
 11
-894.1445517559179
 21
-489.4608889058291
 31
0.0
  0
LINE
  5
311
330
75
100
AcDbEntity
  8
None
  6
Dash Style-6
 62
     7
370
     9
100
AcDbLine
 10
-1066.945333388701
 20
-564.9903006705349
 30
0.0
 11
-894.1445517559179
 21
-564.9903006705349
 31
0.0
  0
LINE
  5
312
330
75
100
AcDbEntity
  8
None
  6
Dash Style-6
 62
     7
370
     9
100
AcDbLine
 10
-1066.945333388701
 20
-640.5197124352402
 30
0.0
 11
-894.1445517559179
 21
-640.5197124352402
 31
0.0
  0
LINE
  5
313
330
75
100
AcDbEntity
  8
None
  6
Dash Style-6
 62
     7
370
     9
100
AcDbLine
 10
-1066.945333388701
 20
-262.8726536117114
 30
0.0
 11
-894.1445517559179
 21
-262.8726536117114
 31
0.0
  0
LINE
  5
314
330
75
100
AcDbEntity
  8
None
  6
Dash Style-6
 62
     7
370
     9
100
AcDbLine
 10
61.25388497851728
 20
567.9508758000536
 30
0.0
 11
234.0546666113003
 21
567.9508758000536
 31
0.0
  0
LINE
  5
315
330
75
100
AcDbEntity
  8
None
  6
Dash Style-6
 62
     7
370
     9
100
AcDbLine
 10
61.25388497851728
 20
492.4214640353471
 30
0.0
 11
234.0546666113003
 21
492.4214640353471
 31
0.0
  0
LINE
  5
316
330
75
100
AcDbEntity
  8
None
  6
Dash Style-6
 62
     7
370
     9
100
AcDbLine
 10
61.25388497851728
 20
416.8920522706413
 30
0.0
 11
234.0546666113003
 21
416.8920522706413
 31
0.0
  0
LINE
  5
317
330
75
100
AcDbEntity
  8
None
  6
Dash Style-6
 62
     7
370
     9
100
AcDbLine
 10
61.25388497851728
 20
341.3626405059354
 30
0.0
 11
234.0546666113003
 21
341.3626405059354
 31
0.0
  0
LINE
  5
318
330
75
100
AcDbEntity
  8
None
  6
Dash Style-6
 62
     7
370
     9
100
AcDbLine
 10
61.25388497851728
 20
265.8332287412294
 30
0.0
 11
234.0546666113003
 21
265.8332287412294
 31
0.0
  0
LINE
  5
319
330
75
100
AcDbEntity
  8
None
  6
Dash Style-6
 62
     7
370
     9
100
AcDbLine
 10
61.25388497851728
 20
190.3038169765234
 30
0.0
 11
234.0546666113003
 21
190.3038169765234
 31
0.0
  0
LINE
  5
31A
330
75
100
AcDbEntity
  8
None
  6
Dash Style-6
 62
     7
370
     9
100
AcDbLine
 10
61.25388497851728
 20
114.7744052118175
 30
0.0
 11
234.0546666113003
 21
114.7744052118175
 31
0.0
  0
LINE
  5
31B
330
75
100
AcDbEntity
  8
None
  6
Dash Style-6
 62
     7
370
     9
100
AcDbLine
 10
61.25388497851728
 20
39.24499344711157
 30
0.0
 11
234.0546666113003
 21
39.24499344711157
 31
0.0
  0
LINE
  5
31C
330
75
100
AcDbEntity
  8
None
  6
Dash Style-6
 62
     7
370
     9
100
AcDbLine
 10
61.25388497851728
 20
-36.28441831759425
 30
0.0
 11
234.0546666113003
 21
-36.28441831759425
 31
0.0
  0
LINE
  5
31D
330
75
100
AcDbEntity
  8
None
  6
Dash Style-6
 62
     7
370
     9
100
AcDbLine
 10
61.25388497851728
 20
-111.8138300822998
 30
0.0
 11
234.0546666113003
 21
-111.8138300822998
 31
0.0
  0
LINE
  5
31E
330
75
100
AcDbEntity
  8
None
  6
Dash Style-6
 62
     7
370
     9
100
AcDbLine
 10
61.25388497851728
 20
-187.3432418470056
 30
0.0
 11
234.0546666113003
 21
-187.3432418470056
 31
0.0
  0
LINE
  5
31F
330
75
100
AcDbEntity
  8
None
  6
Dash Style-6
 62
     7
370
     9
100
AcDbLine
 10
61.25388497851728
 20
-338.4020653764177
 30
0.0
 11
234.0546666113003
 21
-338.4020653764177
 31
0.0
  0
LINE
  5
320
330
75
100
AcDbEntity
  8
None
  6
Dash Style-6
 62
     7
370
     9
100
AcDbLine
 10
61.25388497851728
 20
-413.9314771411227
 30
0.0
 11
234.0546666113003
 21
-413.9314771411227
 31
0.0
  0
LINE
  5
321
330
75
100
AcDbEntity
  8
None
  6
Dash Style-6
 62
     7
370
     9
100
AcDbLine
 10
61.25388497851728
 20
-489.4608889058291
 30
0.0
 11
234.0546666113003
 21
-489.4608889058291
 31
0.0
  0
LINE
  5
322
330
75
100
AcDbEntity
  8
None
  6
Dash Style-6
 62
     7
370
     9
100
AcDbLine
 10
61.25388497851728
 20
-564.9903006705349
 30
0.0
 11
234.0546666113003
 21
-564.9903006705349
 31
0.0
  0
LINE
  5
323
330
75
100
AcDbEntity
  8
None
  6
Dash Style-6
 62
     7
370
     9
100
AcDbLine
 10
61.25388497851728
 20
-640.5197124352402
 30
0.0
 11
234.0546666113003
 21
-640.5197124352402
 31
0.0
  0
LINE
  5
324
330
75
100
AcDbEntity
  8
None
  6
Dash Style-6
 62
     7
370
     9
100
AcDbLine
 10
61.25388497851728
 20
-262.8726536117114
 30
0.0
 11
234.0546666113003
 21
-262.8726536117114
 31
0.0
  0
LINE
  5
325
330
75
100
AcDbEntity
  8
None
  6
Dash Style-6
 62
     7
370
     9
100
AcDbLine
 10
-1066.945333388701
 20
-716.0491241999459
 30
0.0
 11
-894.1445517559179
 21
-716.0491241999459
 31
0.0
  0
LINE
  5
326
330
75
100
AcDbEntity
  8
None
  6
Dash Style-6
 62
     7
370
     9
100
AcDbLine
 10
61.25388497851728
 20
-716.0491241999459
 30
0.0
 11
234.0546666113003
 21
-716.0491241999459
 31
0.0
  0
ENDBLK
  5
77
330
75
100
AcDbEntity
  8
0
100
AcDbBlockEnd
  0
BLOCK
  5
79
330
78
100
AcDbEntity
  8
0
100
AcDbBlockBegin
  2
Group-18-1
 70
     0
 10
0.0
 20
0.0
 30
0.0
  3
Group-18-1
  1

  0
INSERT
  5
327
330
78
100
AcDbEntity
  8
None
 62
     7
100
AcDbBlockReference
  2
Group-17-1
 10
0.0
 20
0.0
 30
0.0
  0
ENDBLK
  5
7A
330
78
100
AcDbEntity
  8
0
100
AcDbBlockEnd
  0
BLOCK
  5
7C
330
7B
100
AcDbEntity
  8
0
100
AcDbBlockBegin
  2
Group-19-1
 70
     0
 10
0.0
 20
0.0
 30
0.0
  3
Group-19-1
  1

  0
POLYLINE
  5
328
102
{ACAD_REACTORS
330
33E
102
}
330
7B
100
AcDbEntity
  8
Layer0
  6
Continuous
 62
     7
370
    15
100
AcDb2dPolyline
 66
     1
 10
0.0
 20
0.0
 30
0.0
 70
     1
  0
VERTEX
  5
329
330
328
100
AcDbEntity
  8
Layer0
  6
Continuous
 62
     7
370
    15
100
AcDbVertex
100
AcDb2dVertex
 10
148.4285596060008
 20
708.6321725379148
 30
0.0
  0
VERTEX
  5
32A
330
328
100
AcDbEntity
  8
Layer0
  6
Continuous
 62
     7
370
    15
100
AcDbVertex
100
AcDb2dVertex
 10
174.3502490682741
 20
708.6321725379148
 30
0.0
  0
VERTEX
  5
32B
330
328
100
AcDbEntity
  8
Layer0
  6
Continuous
 62
     7
370
    15
100
AcDbVertex
100
AcDb2dVertex
 10
174.3502490682741
 20
701.662605688615
 30
0.0
  0
VERTEX
  5
32C
330
328
100
AcDbEntity
  8
Layer0
  6
Continuous
 62
     7
370
    15
100
AcDbVertex
100
AcDb2dVertex
 10
155.3981264552006
 20
701.662605688615
 30
0.0
  0
VERTEX
  5
32D
330
328
100
AcDbEntity
  8
Layer0
  6
Continuous
 62
     7
370
    15
100
AcDbVertex
100
AcDb2dVertex
 10
155.3981264552006
 20
513.0775594965152
 30
0.0
  0
VERTEX
  5
32E
330
328
100
AcDbEntity
  8
Layer0
  6
Continuous
 62
     7
370
    15
100
AcDbVertex
100
AcDb2dVertex
 10
174.4972725986237
 20
513.0775594965152
 30
0.0
  0
VERTEX
  5
32F
330
328
100
AcDbEntity
  8
Layer0
  6
Continuous
 62
     7
370
    15
100
AcDbVertex
100
AcDb2dVertex
 10
174.4972725986237
 20
506.1079926473148
 30
0.0
  0
VERTEX
  5
330
330
328
100
AcDbEntity
  8
Layer0
  6
Continuous
 62
     7
370
    15
100
AcDbVertex
100
AcDb2dVertex
 10
148.4285596060008
 20
506.1079926473148
 30
0.0
  0
VERTEX
  5
331
330
328
100
AcDbEntity
  8
Layer0
  6
Continuous
 62
     7
370
    15
100
AcDbVertex
100
AcDb2dVertex
 10
148.4285596060008
 20
590.1079926473146
 30
0.0
  0
VERTEX
  5
332
330
328
100
AcDbEntity
  8
Layer0
  6
Continuous
 62
     7
370
    15
100
AcDbVertex
100
AcDb2dVertex
 10
-999.8887713292003
 20
590.1079926473146
 30
0.0
  0
VERTEX
  5
333
330
328
100
AcDbEntity
  8
Layer0
  6
Continuous
 62
     7
370
    15
100
AcDbVertex
100
AcDb2dVertex
 10
-999.8887713292003
 20
533.7937589527912
 30
0.0
  0
VERTEX
  5
334
330
328
100
AcDbEntity
  8
Layer0
  6
Continuous
 62
     7
370
    15
100
AcDbVertex
100
AcDb2dVertex
 10
-1017.271873834378
 20
533.7937589527912
 30
0.0
  0
VERTEX
  5
335
330
328
100
AcDbEntity
  8
Layer0
  6
Continuous
 62
     7
370
    15
100
AcDbVertex
100
AcDb2dVertex
 10
-1017.271873834378
 20
541.5147516456909
 30
0.0
  0
VERTEX
  5
336
330
328
100
AcDbEntity
  8
Layer0
  6
Continuous
 62
     7
370
    15
100
AcDbVertex
100
AcDb2dVertex
 10
-1007.352397599
 20
541.5147516456909
 30
0.0
  0
VERTEX
  5
337
330
328
100
AcDbEntity
  8
Layer0
  6
Continuous
 62
     7
370
    15
100
AcDbVertex
100
AcDb2dVertex
 10
-1007.352397599
 20
659.7797743779153
 30
0.0
  0
VERTEX
  5
338
330
328
100
AcDbEntity
  8
Layer0
  6
Continuous
 62
     7
370
    15
100
AcDbVertex
100
AcDb2dVertex
 10
-1017.014507411278
 20
659.7797743779153
 30
0.0
  0
VERTEX
  5
339
330
328
100
AcDbEntity
  8
Layer0
  6
Continuous
 62
     7
370
    15
100
AcDbVertex
100
AcDb2dVertex
 10
-1017.014507411278
 20
667.1596295171154
 30
0.0
  0
VERTEX
  5
33A
330
328
100
AcDbEntity
  8
Layer0
  6
Continuous
 62
     7
370
    15
100
AcDbVertex
100
AcDb2dVertex
 10
-999.8887713292003
 20
667.1596295171154
 30
0.0
  0
VERTEX
  5
33B
330
328
100
AcDbEntity
  8
Layer0
  6
Continuous
 62
     7
370
    15
100
AcDbVertex
100
AcDb2dVertex
 10
-999.8887713292003
 20
607.1079926473147
 30
0.0
  0
VERTEX
  5
33C
330
328
100
AcDbEntity
  8
Layer0
  6
Continuous
 62
     7
370
    15
100
AcDbVertex
100
AcDb2dVertex
 10
148.4285596060008
 20
607.1079926473147
 30
0.0
  0
SEQEND
  5
33D
330
328
100
AcDbEntity
  8
Layer0
  6
Continuous
 62
     7
370
    15
  0
HATCH
  5
33E
330
7B
100
AcDbEntity
  8
Layer0
  6
Continuous
 62
     7
370
     0
100
AcDbHatch
 10
0.0
 20
0.0
 30
0.0
210
0.0
220
0.0
230
1.0
  2
SOLID
 70
     1
 71
     1
 91
        1
 92
        1
 93
       20
 72
     1
 10
148.4285596060008
 20
708.6321725379148
 11
174.3502490682741
 21
708.6321725379148
 72
     1
 10
174.3502490682741
 20
708.6321725379148
 11
174.3502490682741
 21
701.662605688615
 72
     1
 10
174.3502490682741
 20
701.662605688615
 11
155.3981264552006
 21
701.662605688615
 72
     1
 10
155.3981264552006
 20
701.662605688615
 11
155.3981264552006
 21
513.0775594965152
 72
     1
 10
155.3981264552006
 20
513.0775594965152
 11
174.4972725986237
 21
513.0775594965152
 72
     1
 10
174.4972725986237
 20
513.0775594965152
 11
174.4972725986237
 21
506.1079926473148
 72
     1
 10
174.4972725986237
 20
506.1079926473148
 11
148.4285596060008
 21
506.1079926473148
 72
     1
 10
148.4285596060008
 20
506.1079926473148
 11
148.4285596060008
 21
590.1079926473146
 72
     1
 10
148.4285596060008
 20
590.1079926473146
 11
-999.8887713292002
 21
590.1079926473146
 72
     1
 10
-999.8887713292003
 20
590.1079926473146
 11
-999.8887713292003
 21
533.7937589527912
 72
     1
 10
-999.8887713292003
 20
533.7937589527912
 11
-1017.271873834378
 21
533.7937589527912
 72
     1
 10
-1017.271873834378
 20
533.7937589527912
 11
-1017.271873834378
 21
541.5147516456909
 72
     1
 10
-1017.271873834378
 20
541.5147516456909
 11
-1007.352397599
 21
541.5147516456909
 72
     1
 10
-1007.352397599
 20
541.5147516456909
 11
-1007.352397599
 21
659.7797743779153
 72
     1
 10
-1007.352397599
 20
659.7797743779153
 11
-1017.014507411278
 21
659.7797743779153
 72
     1
 10
-1017.014507411278
 20
659.7797743779153
 11
-1017.014507411278
 21
667.1596295171154
 72
     1
 10
-1017.014507411278
 20
667.1596295171154
 11
-999.8887713292003
 21
667.1596295171154
 72
     1
 10
-999.8887713292003
 20
667.1596295171154
 11
-999.8887713292003
 21
607.1079926473147
 72
     1
 10
-999.8887713292003
 20
607.1079926473147
 11
148.4285596060007
 21
607.1079926473147
 72
     1
 10
148.4285596060008
 20
607.1079926473147
 11
148.4285596060008
 21
708.6321725379148
 97
        1
330
328
 75
     0
 76
     1
 98
        1
 10
0.0
 20
0.0
  0
POLYLINE
  5
33F
102
{ACAD_REACTORS
330
34C
102
}
330
7B
100
AcDbEntity
  8
0
  6
Continuous
 62
     7
370
    15
100
AcDb2dPolyline
 66
     1
 10
0.0
 20
0.0
 30
0.0
 70
     1
  0
VERTEX
  5
340
330
33F
100
AcDbEntity
  8
0
  6
Continuous
 62
     7
370
    15
100
AcDbVertex
100
AcDb2dVertex
 10
234.0546666113003
 20
701.6625947504156
 30
0.0
  0
VERTEX
  5
341
330
33F
100
AcDbEntity
  8
0
  6
Continuous
 62
     7
370
    15
100
AcDbVertex
100
AcDb2dVertex
 10
228.4228121504266
 20
701.6625947504156
 30
0.0
  0
VERTEX
  5
342
330
33F
100
AcDbEntity
  8
0
  6
Continuous
 62
     7
370
    15
100
AcDbVertex
100
AcDb2dVertex
 10
228.4228121504266
 20
701.662605688615
 30
0.0
  0
VERTEX
  5
343
330
33F
100
AcDbEntity
  8
0
  6
Continuous
 62
     7
370
    15
100
AcDbVertex
100
AcDb2dVertex
 10
221.1728121504266
 20
701.662578793914
 30
0.0
  0
VERTEX
  5
344
330
33F
100
AcDbEntity
  8
0
  6
Continuous
 62
     7
370
    15
100
AcDbVertex
100
AcDb2dVertex
 10
221.1728121504266
 20
708.6321456432138
 30
0.0
  0
VERTEX
  5
345
330
33F
100
AcDbEntity
  8
0
  6
Continuous
 62
     7
370
    15
100
AcDbVertex
100
AcDb2dVertex
 10
234.0546666113003
 20
708.6321725379148
 30
0.0
  0
VERTEX
  5
346
330
33F
100
AcDbEntity
  8
0
  6
Continuous
 62
     7
370
    15
100
AcDbVertex
100
AcDb2dVertex
 10
234.0546666113003
 20
761.1621157386961
 30
0.0
  0
VERTEX
  5
347
330
33F
100
AcDbEntity
  8
0
  6
Continuous
 62
     7
370
    15
100
AcDbVertex
100
AcDb2dVertex
 10
251.0546666113003
 20
761.1621157386961
 30
0.0
  0
VERTEX
  5
348
330
33F
100
AcDbEntity
  8
0
  6
Continuous
 62
     7
370
    15
100
AcDbVertex
100
AcDb2dVertex
 10
251.0546666113003
 20
627.2668674915151
 30
0.0
  0
VERTEX
  5
349
330
33F
100
AcDbEntity
  8
0
  6
Continuous
 62
     7
370
    15
100
AcDbVertex
100
AcDb2dVertex
 10
243.5133644781003
 20
627.2668674915151
 30
0.0
  0
VERTEX
  5
34A
330
33F
100
AcDbEntity
  8
0
  6
Continuous
 62
     7
370
    15
100
AcDbVertex
100
AcDb2dVertex
 10
234.0546666113003
 20
627.2668674915151
 30
0.0
  0
SEQEND
  5
34B
330
33F
100
AcDbEntity
  8
0
  6
Continuous
 62
     7
370
    15
  0
HATCH
  5
34C
330
7B
100
AcDbEntity
  8
0
  6
Continuous
 62
     7
370
     0
100
AcDbHatch
 10
0.0
 20
0.0
 30
0.0
210
0.0
220
0.0
230
1.0
  2
SOLID
 70
     1
 71
     1
 91
        1
 92
        1
 93
       11
 72
     1
 10
234.0546666113003
 20
701.6625947504156
 11
228.4228121504266
 21
701.6625947504156
 72
     1
 10
228.4228121504266
 20
701.6625947504156
 11
228.4228121504266
 21
701.662605688615
 72
     1
 10
228.4228121504266
 20
701.662605688615
 11
221.1728121504266
 21
701.662578793914
 72
     1
 10
221.1728121504266
 20
701.662578793914
 11
221.1728121504266
 21
708.6321456432138
 72
     1
 10
221.1728121504266
 20
708.6321456432138
 11
234.0546666113003
 21
708.6321725379148
 72
     1
 10
234.0546666113003
 20
708.6321725379148
 11
234.0546666113003
 21
761.1621157386961
 72
     1
 10
234.0546666113003
 20
761.1621157386961
 11
251.0546666113003
 21
761.1621157386961
 72
     1
 10
251.0546666113003
 20
761.1621157386961
 11
251.0546666113003
 21
627.2668674915151
 72
     1
 10
251.0546666113003
 20
627.2668674915151
 11
243.5133644781003
 21
627.2668674915151
 72
     1
 10
243.5133644781003
 20
627.2668674915151
 11
234.0546666113003
 21
627.2668674915151
 72
     1
 10
234.0546666113003
 20
627.2668674915151
 11
234.0546666113003
 21
701.6625947504156
 97
        1
330
33F
 75
     0
 76
     1
 98
        1
 10
0.0
 20
0.0
  0
INSERT
  5
34D
330
7B
100
AcDbEntity
  8
FIXT
 62
     7
100
AcDbBlockReference
  2
Group-9-1
 10
0.0
 20
0.0
 30
0.0
  0
INSERT
  5
34E
330
7B
100
AcDbEntity
  8
FIXT
 62
     7
100
AcDbBlockReference
  2
Group-10-1
 10
0.0
 20
0.0
 30
0.0
  0
POLYLINE
  5
34F
102
{ACAD_REACTORS
330
359
102
}
330
7B
100
AcDbEntity
  8
Layer0
  6
Continuous
 62
     7
370
    15
100
AcDb2dPolyline
 66
     1
 10
0.0
 20
0.0
 30
0.0
 70
     1
  0
VERTEX
  5
350
330
34F
100
AcDbEntity
  8
Layer0
  6
Continuous
 62
     7
370
    15
100
AcDbVertex
100
AcDb2dVertex
 10
-1053.303173067878
 20
659.1812704011152
 30
0.0
  0
VERTEX
  5
351
330
34F
100
AcDbEntity
  8
Layer0
  6
Continuous
 62
     7
370
    15
100
AcDbVertex
100
AcDb2dVertex
 10
-1066.945333388701
 20
659.1812704011152
 30
0.0
  0
VERTEX
  5
352
330
34F
100
AcDbEntity
  8
Layer0
  6
Continuous
 62
     7
370
    15
100
AcDbVertex
100
AcDb2dVertex
 10
-1066.945333388701
 20
617.4853026131152
 30
0.0
  0
VERTEX
  5
353
330
34F
100
AcDbEntity
  8
Layer0
  6
Continuous
 62
     7
370
    15
100
AcDbVertex
100
AcDb2dVertex
 10
-1083.945333388701
 20
617.4853026131152
 30
0.0
  0
VERTEX
  5
354
330
34F
100
AcDbEntity
  8
Layer0
  6
Continuous
 62
     7
370
    15
100
AcDbVertex
100
AcDb2dVertex
 10
-1083.945333388701
 20
761.1621157386961
 30
0.0
  0
VERTEX
  5
355
330
34F
100
AcDbEntity
  8
Layer0
  6
Continuous
 62
     7
370
    15
100
AcDbVertex
100
AcDb2dVertex
 10
-1066.945333388701
 20
761.1621157386961
 30
0.0
  0
VERTEX
  5
356
330
34F
100
AcDbEntity
  8
Layer0
  6
Continuous
 62
     7
370
    15
100
AcDbVertex
100
AcDb2dVertex
 10
-1066.945333388701
 20
667.1596295171154
 30
0.0
  0
VERTEX
  5
357
330
34F
100
AcDbEntity
  8
Layer0
  6
Continuous
 62
     7
370
    15
100
AcDbVertex
100
AcDb2dVertex
 10
-1053.303173067878
 20
667.1596295171154
 30
0.0
  0
SEQEND
  5
358
330
34F
100
AcDbEntity
  8
Layer0
  6
Continuous
 62
     7
370
    15
  0
HATCH
  5
359
330
7B
100
AcDbEntity
  8
Layer0
  6
Continuous
 62
     7
370
     0
100
AcDbHatch
 10
0.0
 20
0.0
 30
0.0
210
0.0
220
0.0
230
1.0
  2
SOLID
 70
     1
 71
     1
 91
        1
 92
        1
 93
        8
 72
     1
 10
-1053.303173067878
 20
659.1812704011152
 11
-1066.945333388701
 21
659.1812704011152
 72
     1
 10
-1066.945333388701
 20
659.1812704011152
 11
-1066.945333388701
 21
617.4853026131152
 72
     1
 10
-1066.945333388701
 20
617.4853026131152
 11
-1083.945333388701
 21
617.4853026131152
 72
     1
 10
-1083.945333388701
 20
617.4853026131152
 11
-1083.945333388701
 21
761.1621157386961
 72
     1
 10
-1083.945333388701
 20
761.1621157386961
 11
-1066.945333388701
 21
761.1621157386961
 72
     1
 10
-1066.945333388701
 20
761.1621157386961
 11
-1066.945333388701
 21
667.1596295171154
 72
     1
 10
-1066.945333388701
 20
667.1596295171154
 11
-1053.303173067878
 21
667.1596295171154
 72
     1
 10
-1053.303173067878
 20
667.1596295171154
 11
-1053.303173067878
 21
659.1812704011152
 97
        1
330
34F
 75
     0
 76
     1
 98
        1
 10
0.0
 20
0.0
  0
POLYLINE
  5
35A
102
{ACAD_REACTORS
330
36C
102
}
330
7B
100
AcDbEntity
  8
Layer0
  6
Continuous
 62
     7
370
    15
100
AcDb2dPolyline
 66
     1
 10
0.0
 20
0.0
 30
0.0
 70
     1
  0
VERTEX
  5
35B
330
35A
100
AcDbEntity
  8
Layer0
  6
Continuous
 62
     7
370
    15
100
AcDbVertex
100
AcDb2dVertex
 10
-1053.271873834378
 20
533.7937589527912
 30
0.0
  0
VERTEX
  5
35C
330
35A
100
AcDbEntity
  8
Layer0
  6
Continuous
 62
     7
370
    15
100
AcDbVertex
100
AcDb2dVertex
 10
-1066.945333388701
 20
533.7937589527912
 30
0.0
  0
VERTEX
  5
35D
330
35A
100
AcDbEntity
  8
Layer0
  6
Continuous
 62
     7
370
    15
100
AcDbVertex
100
AcDb2dVertex
 10
-1066.945333388701
 20
-738.2062410472084
 30
0.0
  0
VERTEX
  5
35E
330
35A
100
AcDbEntity
  8
Layer0
  6
Continuous
 62
     7
370
    15
100
AcDbVertex
100
AcDb2dVertex
 10
-578.9453333886997
 20
-738.2062410472084
 30
0.0
  0
VERTEX
  5
35F
330
35A
100
AcDbEntity
  8
Layer0
  6
Continuous
 62
     7
370
    15
100
AcDbVertex
100
AcDb2dVertex
 10
-578.9453333886997
 20
-755.2062410472086
 30
0.0
  0
VERTEX
  5
360
330
35A
100
AcDbEntity
  8
Layer0
  6
Continuous
 62
     7
370
    15
100
AcDbVertex
100
AcDb2dVertex
 10
-604.3359453131002
 20
-755.2062410472086
 30
0.0
  0
VERTEX
  5
361
330
35A
100
AcDbEntity
  8
Layer0
  6
Continuous
 62
     7
370
    15
100
AcDbVertex
100
AcDb2dVertex
 10
-604.3359453131002
 20
-859.5686818276886
 30
0.0
  0
VERTEX
  5
362
330
35A
100
AcDbEntity
  8
Layer0
  6
Continuous
 62
     7
370
    15
100
AcDbVertex
100
AcDb2dVertex
 10
-578.9453333886997
 20
-859.5686818276886
 30
0.0
  0
VERTEX
  5
363
330
35A
100
AcDbEntity
  8
Layer0
  6
Continuous
 62
     7
370
    15
100
AcDbVertex
100
AcDb2dVertex
 10
-578.9453333886997
 20
-876.6674672480088
 30
0.0
  0
VERTEX
  5
364
330
35A
100
AcDbEntity
  8
Layer0
  6
Continuous
 62
     7
370
    15
100
AcDbVertex
100
AcDb2dVertex
 10
-614.3359453131004
 20
-876.6674672480088
 30
0.0
  0
VERTEX
  5
365
330
35A
100
AcDbEntity
  8
Layer0
  6
Continuous
 62
     7
370
    15
100
AcDbVertex
100
AcDb2dVertex
 10
-614.3359453131004
 20
-755.2062410472086
 30
0.0
  0
VERTEX
  5
366
330
35A
100
AcDbEntity
  8
Layer0
  6
Continuous
 62
     7
370
    15
100
AcDbVertex
100
AcDb2dVertex
 10
-1083.945333388701
 20
-755.2062410472086
 30
0.0
  0
VERTEX
  5
367
330
35A
100
AcDbEntity
  8
Layer0
  6
Continuous
 62
     7
370
    15
100
AcDbVertex
100
AcDb2dVertex
 10
-1083.945333388701
 20
581.2235542003149
 30
0.0
  0
VERTEX
  5
368
330
35A
100
AcDbEntity
  8
Layer0
  6
Continuous
 62
     7
370
    15
100
AcDbVertex
100
AcDb2dVertex
 10
-1066.945333388701
 20
581.2235542003149
 30
0.0
  0
VERTEX
  5
369
330
35A
100
AcDbEntity
  8
Layer0
  6
Continuous
 62
     7
370
    15
100
AcDbVertex
100
AcDb2dVertex
 10
-1066.945333388701
 20
540.4852859532912
 30
0.0
  0
VERTEX
  5
36A
330
35A
100
AcDbEntity
  8
Layer0
  6
Continuous
 62
     7
370
    15
100
AcDbVertex
100
AcDb2dVertex
 10
-1053.271873834378
 20
540.4852859532912
 30
0.0
  0
SEQEND
  5
36B
330
35A
100
AcDbEntity
  8
Layer0
  6
Continuous
 62
     7
370
    15
  0
HATCH
  5
36C
330
7B
100
AcDbEntity
  8
Layer0
  6
Continuous
 62
     7
370
     0
100
AcDbHatch
 10
0.0
 20
0.0
 30
0.0
210
0.0
220
0.0
230
1.0
  2
SOLID
 70
     1
 71
     1
 91
        1
 92
        1
 93
       16
 72
     1
 10
-1053.271873834378
 20
533.7937589527912
 11
-1066.945333388701
 21
533.7937589527912
 72
     1
 10
-1066.945333388701
 20
533.7937589527912
 11
-1066.945333388701
 21
-738.2062410472083
 72
     1
 10
-1066.945333388701
 20
-738.2062410472084
 11
-578.9453333886997
 21
-738.2062410472084
 72
     1
 10
-578.9453333886997
 20
-738.2062410472084
 11
-578.9453333886997
 21
-755.2062410472086
 72
     1
 10
-578.9453333886997
 20
-755.2062410472086
 11
-604.3359453131002
 21
-755.2062410472086
 72
     1
 10
-604.3359453131002
 20
-755.2062410472086
 11
-604.3359453131002
 21
-859.5686818276886
 72
     1
 10
-604.3359453131002
 20
-859.5686818276886
 11
-578.9453333886997
 21
-859.5686818276886
 72
     1
 10
-578.9453333886997
 20
-859.5686818276886
 11
-578.9453333886997
 21
-876.6674672480088
 72
     1
 10
-578.9453333886997
 20
-876.6674672480088
 11
-614.3359453131004
 21
-876.6674672480088
 72
     1
 10
-614.3359453131004
 20
-876.6674672480088
 11
-614.3359453131004
 21
-755.2062410472086
 72
     1
 10
-614.3359453131004
 20
-755.2062410472086
 11
-1083.945333388701
 21
-755.2062410472086
 72
     1
 10
-1083.945333388701
 20
-755.2062410472086
 11
-1083.945333388701
 21
581.223554200315
 72
     1
 10
-1083.945333388701
 20
581.2235542003149
 11
-1066.945333388701
 21
581.2235542003149
 72
     1
 10
-1066.945333388701
 20
581.2235542003149
 11
-1066.945333388701
 21
540.4852859532912
 72
     1
 10
-1066.945333388701
 20
540.4852859532912
 11
-1053.271873834378
 21
540.4852859532912
 72
     1
 10
-1053.271873834378
 20
540.4852859532912
 11
-1053.271873834378
 21
533.7937589527912
 97
        1
330
35A
 75
     0
 76
     1
 98
        1
 10
0.0
 20
0.0
  0
POLYLINE
  5
36D
102
{ACAD_REACTORS
330
384
102
}
330
7B
100
AcDbEntity
  8
Layer0
  6
Continuous
 62
     7
370
    15
100
AcDb2dPolyline
 66
     1
 10
0.0
 20
0.0
 30
0.0
 70
     1
  0
VERTEX
  5
36E
330
36D
100
AcDbEntity
  8
Layer0
  6
Continuous
 62
     7
370
    15
100
AcDbVertex
100
AcDb2dVertex
 10
-353.375221749799
 20
-876.6674672480088
 30
0.0
  0
VERTEX
  5
36F
330
36D
100
AcDbEntity
  8
Layer0
  6
Continuous
 62
     7
370
    15
100
AcDbVertex
100
AcDb2dVertex
 10
-375.9453333886995
 20
-876.6674672480088
 30
0.0
  0
VERTEX
  5
370
330
36D
100
AcDbEntity
  8
Layer0
  6
Continuous
 62
     7
370
    15
100
AcDbVertex
100
AcDb2dVertex
 10
-375.9453333886995
 20
-869.667467248009
 30
0.0
  0
VERTEX
  5
371
330
36D
100
AcDbEntity
  8
Layer0
  6
Continuous
 62
     7
370
    15
100
AcDbVertex
100
AcDb2dVertex
 10
-372.9453333886996
 20
-869.667467248009
 30
0.0
  0
VERTEX
  5
372
330
36D
100
AcDbEntity
  8
Layer0
  6
Continuous
 62
     7
370
    15
100
AcDbVertex
100
AcDb2dVertex
 10
-372.9453333886996
 20
-864.667467248009
 30
0.0
  0
VERTEX
  5
373
330
36D
100
AcDbEntity
  8
Layer0
  6
Continuous
 62
     7
370
    15
100
AcDbVertex
100
AcDb2dVertex
 10
-375.9453333886995
 20
-864.667467248009
 30
0.0
  0
VERTEX
  5
374
330
36D
100
AcDbEntity
  8
Layer0
  6
Continuous
 62
     7
370
    15
100
AcDbVertex
100
AcDb2dVertex
 10
-375.9453333886995
 20
-859.6758347058085
 30
0.0
  0
VERTEX
  5
375
330
36D
100
AcDbEntity
  8
Layer0
  6
Continuous
 62
     7
370
    15
100
AcDbVertex
100
AcDb2dVertex
 10
-363.375221749799
 20
-859.6758347058085
 30
0.0
  0
VERTEX
  5
376
330
36D
100
AcDbEntity
  8
Layer0
  6
Continuous
 62
     7
370
    15
100
AcDbVertex
100
AcDb2dVertex
 10
-363.375221749799
 20
-755.2062410472086
 30
0.0
  0
VERTEX
  5
377
330
36D
100
AcDbEntity
  8
Layer0
  6
Continuous
 62
     7
370
    15
100
AcDbVertex
100
AcDb2dVertex
 10
-375.9453333886995
 20
-755.2062410472086
 30
0.0
  0
VERTEX
  5
378
330
36D
100
AcDbEntity
  8
Layer0
  6
Continuous
 62
     7
370
    15
100
AcDbVertex
100
AcDb2dVertex
 10
-375.9453333886995
 20
-738.2062410472084
 30
0.0
  0
VERTEX
  5
379
330
36D
100
AcDbEntity
  8
Layer0
  6
Continuous
 62
     7
370
    15
100
AcDbVertex
100
AcDb2dVertex
 10
234.0546666113003
 20
-738.2062410472084
 30
0.0
  0
VERTEX
  5
37A
330
36D
100
AcDbEntity
  8
Layer0
  6
Continuous
 62
     7
370
    15
100
AcDbVertex
100
AcDb2dVertex
 10
234.0546666113003
 20
506.1079926473148
 30
0.0
  0
VERTEX
  5
37B
330
36D
100
AcDbEntity
  8
Layer0
  6
Continuous
 62
     7
370
    15
100
AcDbVertex
100
AcDb2dVertex
 10
221.1728390451233
 20
506.1079926473148
 30
0.0
  0
VERTEX
  5
37C
330
36D
100
AcDbEntity
  8
Layer0
  6
Continuous
 62
     7
370
    15
100
AcDbVertex
100
AcDb2dVertex
 10
221.1728390451233
 20
513.1476955576148
 30
0.0
  0
VERTEX
  5
37D
330
36D
100
AcDbEntity
  8
Layer0
  6
Continuous
 62
     7
370
    15
100
AcDbVertex
100
AcDb2dVertex
 10
234.0546666113003
 20
513.1476955576148
 30
0.0
  0
VERTEX
  5
37E
330
36D
100
AcDbEntity
  8
Layer0
  6
Continuous
 62
     7
370
    15
100
AcDbVertex
100
AcDb2dVertex
 10
234.0546666113003
 20
579.2858832320338
 30
0.0
  0
VERTEX
  5
37F
330
36D
100
AcDbEntity
  8
Layer0
  6
Continuous
 62
     7
370
    15
100
AcDbVertex
100
AcDb2dVertex
 10
251.0546666113003
 20
579.2858832320338
 30
0.0
  0
VERTEX
  5
380
330
36D
100
AcDbEntity
  8
Layer0
  6
Continuous
 62
     7
370
    15
100
AcDbVertex
100
AcDb2dVertex
 10
251.0546666113003
 20
403.9999999999999
 30
0.0
  0
VERTEX
  5
381
330
36D
100
AcDbEntity
  8
Layer0
  6
Continuous
 62
     7
370
    15
100
AcDbVertex
100
AcDb2dVertex
 10
251.0546666113003
 20
-755.2062410472086
 30
0.0
  0
VERTEX
  5
382
330
36D
100
AcDbEntity
  8
Layer0
  6
Continuous
 62
     7
370
    15
100
AcDbVertex
100
AcDb2dVertex
 10
-353.375221749799
 20
-755.2062410472086
 30
0.0
  0
SEQEND
  5
383
330
36D
100
AcDbEntity
  8
Layer0
  6
Continuous
 62
     7
370
    15
  0
HATCH
  5
384
330
7B
100
AcDbEntity
  8
Layer0
  6
Continuous
 62
     7
370
     0
100
AcDbHatch
 10
0.0
 20
0.0
 30
0.0
210
0.0
220
0.0
230
1.0
  2
SOLID
 70
     1
 71
     1
 91
        1
 92
        1
 93
       21
 72
     1
 10
-353.375221749799
 20
-876.6674672480088
 11
-375.9453333886995
 21
-876.6674672480088
 72
     1
 10
-375.9453333886995
 20
-876.6674672480088
 11
-375.9453333886995
 21
-869.667467248009
 72
     1
 10
-375.9453333886995
 20
-869.667467248009
 11
-372.9453333886996
 21
-869.667467248009
 72
     1
 10
-372.9453333886996
 20
-869.667467248009
 11
-372.9453333886996
 21
-864.667467248009
 72
     1
 10
-372.9453333886996
 20
-864.667467248009
 11
-375.9453333886995
 21
-864.667467248009
 72
     1
 10
-375.9453333886995
 20
-864.667467248009
 11
-375.9453333886995
 21
-859.6758347058085
 72
     1
 10
-375.9453333886995
 20
-859.6758347058085
 11
-363.375221749799
 21
-859.6758347058085
 72
     1
 10
-363.375221749799
 20
-859.6758347058085
 11
-363.375221749799
 21
-755.2062410472086
 72
     1
 10
-363.375221749799
 20
-755.2062410472086
 11
-375.9453333886995
 21
-755.2062410472086
 72
     1
 10
-375.9453333886995
 20
-755.2062410472086
 11
-375.9453333886995
 21
-738.2062410472084
 72
     1
 10
-375.9453333886995
 20
-738.2062410472084
 11
234.0546666113003
 21
-738.2062410472084
 72
     1
 10
234.0546666113003
 20
-738.2062410472084
 11
234.0546666113003
 21
506.1079926473147
 72
     1
 10
234.0546666113003
 20
506.1079926473148
 11
221.1728390451233
 21
506.1079926473148
 72
     1
 10
221.1728390451233
 20
506.1079926473148
 11
221.1728390451233
 21
513.1476955576148
 72
     1
 10
221.1728390451233
 20
513.1476955576148
 11
234.0546666113003
 21
513.1476955576148
 72
     1
 10
234.0546666113003
 20
513.1476955576148
 11
234.0546666113003
 21
579.2858832320338
 72
     1
 10
234.0546666113003
 20
579.2858832320338
 11
251.0546666113003
 21
579.2858832320338
 72
     1
 10
251.0546666113003
 20
579.2858832320338
 11
251.0546666113003
 21
403.9999999999999
 72
     1
 10
251.0546666113003
 20
403.9999999999999
 11
251.0546666113003
 21
-755.2062410472086
 72
     1
 10
251.0546666113003
 20
-755.2062410472086
 11
-353.375221749799
 21
-755.2062410472086
 72
     1
 10
-353.375221749799
 20
-755.2062410472086
 11
-353.375221749799
 21
-876.6674672480088
 97
        1
330
36D
 75
     0
 76
     1
 98
        1
 10
0.0
 20
0.0
  0
INSERT
  5
385
330
7B
100
AcDbEntity
  8
FIXT
 62
     7
100
AcDbBlockReference
  2
Group-11-1
 10
0.0
 20
0.0
 30
0.0
  0
INSERT
  5
386
330
7B
100
AcDbEntity
  8
None
 62
     7
100
AcDbBlockReference
  2
Group-12-1
 10
0.0
 20
0.0
 30
0.0
  0
INSERT
  5
387
330
7B
100
AcDbEntity
  8
None
 62
     7
100
AcDbBlockReference
  2
Group-13-1
 10
0.0
 20
0.0
 30
0.0
  0
INSERT
  5
388
330
7B
100
AcDbEntity
  8
None
 62
     7
100
AcDbBlockReference
  2
Group-14-1
 10
0.0
 20
0.0
 30
0.0
  0
INSERT
  5
389
330
7B
100
AcDbEntity
  8
FIXT
 62
     7
100
AcDbBlockReference
  2
Group-15-1
 10
0.0
 20
0.0
 30
0.0
  0
INSERT
  5
38A
330
7B
100
AcDbEntity
  8
FIXT
 62
     7
100
AcDbBlockReference
  2
Group-16-1
 10
0.0
 20
0.0
 30
0.0
  0
WIPEOUT
  5
38B
330
7B
100
AcDbEntity
  8
FIXT
  6
Continuous
 62
     7
370
    15
 92
      152
310
98000000040000000C0000000E000000B20000000C00000016000000000000C20C00000014000000010000006C000000070000000400000078DA99EB247A80C03A00EF89C10287C00000000000000000F8B433D7495477C03A00EF89C10287C00000000000000000F8B433D7495477C031E0C861E3DC86C000000000000000
310
0078DA99EB247A80C031E0C861E3DC86C00000000000000000
100
AcDbWipeout
 90
        0
 10
-527.2680274982258
 20
-736.3445013687079
 30
0.0
 11
153.9999999999995
 21
0.0
 31
0.0
 12
0.0
 22
153.9999999999995
 32
0.0
 13
1.0
 23
1.0
340
0
 70
     4
280
     1
281
    50
282
    50
283
     0
360
0
 71
     2
 91
        5
 14
-0.5
 24
0.5000000000000009
 14
0.5
 24
0.5000000000000009
 14
0.5
 24
0.4692631492500023
 14
-0.5
 24
0.4692631492500023
 14
-0.5
 24
0.5000000000000009
  0
POLYLINE
  5
38C
330
7B
100
AcDbEntity
  8
FIXT
  6
Continuous
 62
     7
370
    15
100
AcDb2dPolyline
 66
     1
 10
0.0
 20
0.0
 30
0.0
 70
     1
  0
VERTEX
  5
38D
330
38C
100
AcDbEntity
  8
FIXT
  6
Continuous
 62
     7
370
    15
100
AcDbVertex
100
AcDb2dVertex
 10
-527.2680274982258
 20
-736.3445013687079
 30
0.0
  0
VERTEX
  5
38E
330
38C
100
AcDbEntity
  8
FIXT
  6
Continuous
 62
     7
370
    15
100
AcDbVertex
100
AcDb2dVertex
 10
-373.2680274982263
 20
-736.3445013687079
 30
0.0
  0
VERTEX
  5
38F
330
38C
100
AcDbEntity
  8
FIXT
  6
Continuous
 62
     7
370
    15
100
AcDbVertex
100
AcDb2dVertex
 10
-373.2680274982263
 20
-731.6110263532082
 30
0.0
  0
VERTEX
  5
390
330
38C
100
AcDbEntity
  8
FIXT
  6
Continuous
 62
     7
370
    15
100
AcDbVertex
100
AcDb2dVertex
 10
-527.2680274982258
 20
-731.6110263532082
 30
0.0
  0
SEQEND
  5
391
330
38C
100
AcDbEntity
  8
FIXT
  6
Continuous
 62
     7
370
    15
  0
POLYLINE
  5
392
102
{ACAD_REACTORS
330
39D
102
}
330
7B
100
AcDbEntity
  8
Layer0
  6
Continuous
 62
     7
370
    15
100
AcDb2dPolyline
 66
     1
 10
0.0
 20
0.0
 30
0.0
 70
     1
  0
VERTEX
  5
393
330
392
100
AcDbEntity
  8
Layer0
  6
Continuous
 62
     7
370
    15
100
AcDbVertex
100
AcDb2dVertex
 10
-521.9453333886996
 20
-876.6674672480088
 30
0.0
  0
VERTEX
  5
394
330
392
100
AcDbEntity
  8
Layer0
  6
Continuous
 62
     7
370
    15
100
AcDbVertex
100
AcDb2dVertex
 10
-521.9453333886996
 20
-869.667467248009
 30
0.0
  0
VERTEX
  5
395
330
392
100
AcDbEntity
  8
Layer0
  6
Continuous
 62
     7
370
    15
100
AcDbVertex
100
AcDb2dVertex
 10
-524.9453333886996
 20
-869.667467248009
 30
0.0
  0
VERTEX
  5
396
330
392
100
AcDbEntity
  8
Layer0
  6
Continuous
 62
     7
370
    15
100
AcDbVertex
100
AcDb2dVertex
 10
-524.9453333886996
 20
-864.667467248009
 30
0.0
  0
VERTEX
  5
397
330
392
100
AcDbEntity
  8
Layer0
  6
Continuous
 62
     7
370
    15
100
AcDbVertex
100
AcDb2dVertex
 10
-521.9453333886996
 20
-864.667467248009
 30
0.0
  0
VERTEX
  5
398
330
392
100
AcDbEntity
  8
Layer0
  6
Continuous
 62
     7
370
    15
100
AcDbVertex
100
AcDb2dVertex
 10
-521.9453333886996
 20
-859.6674672480086
 30
0.0
  0
VERTEX
  5
399
330
392
100
AcDbEntity
  8
Layer0
  6
Continuous
 62
     7
370
    15
100
AcDbVertex
100
AcDb2dVertex
 10
-527.9453333886994
 20
-859.6674672480086
 30
0.0
  0
VERTEX
  5
39A
330
392
100
AcDbEntity
  8
Layer0
  6
Continuous
 62
     7
370
    15
100
AcDbVertex
100
AcDb2dVertex
 10
-542.9453333886996
 20
-859.6674672480086
 30
0.0
  0
VERTEX
  5
39B
330
392
100
AcDbEntity
  8
Layer0
  6
Continuous
 62
     7
370
    15
100
AcDbVertex
100
AcDb2dVertex
 10
-542.9453333886996
 20
-876.6674672480088
 30
0.0
  0
SEQEND
  5
39C
330
392
100
AcDbEntity
  8
Layer0
  6
Continuous
 62
     7
370
    15
  0
HATCH
  5
39D
330
7B
100
AcDbEntity
  8
Layer0
  6
Continuous
 62
     7
370
     0
100
AcDbHatch
 10
0.0
 20
0.0
 30
0.0
210
0.0
220
0.0
230
1.0
  2
SOLID
 70
     1
 71
     1
 91
        1
 92
        1
 93
        9
 72
     1
 10
-521.9453333886996
 20
-876.6674672480088
 11
-521.9453333886996
 21
-869.667467248009
 72
     1
 10
-521.9453333886996
 20
-869.667467248009
 11
-524.9453333886996
 21
-869.667467248009
 72
     1
 10
-524.9453333886996
 20
-869.667467248009
 11
-524.9453333886996
 21
-864.667467248009
 72
     1
 10
-524.9453333886996
 20
-864.667467248009
 11
-521.9453333886996
 21
-864.667467248009
 72
     1
 10
-521.9453333886996
 20
-864.667467248009
 11
-521.9453333886996
 21
-859.6674672480086
 72
     1
 10
-521.9453333886996
 20
-859.6674672480086
 11
-527.9453333886994
 21
-859.6674672480086
 72
     1
 10
-527.9453333886994
 20
-859.6674672480086
 11
-542.9453333886996
 21
-859.6674672480086
 72
     1
 10
-542.9453333886996
 20
-859.6674672480086
 11
-542.9453333886996
 21
-876.6674672480088
 72
     1
 10
-542.9453333886996
 20
-876.6674672480088
 11
-521.9453333886996
 21
-876.6674672480088
 97
        1
330
392
 75
     0
 76
     1
 98
        1
 10
0.0
 20
0.0
  0
POLYLINE
  5
39E
102
{ACAD_REACTORS
330
3A5
102
}
330
7B
100
AcDbEntity
  8
Layer0
  6
Continuous
 62
     7
370
    15
100
AcDb2dPolyline
 66
     1
 10
0.0
 20
0.0
 30
0.0
 70
     1
  0
VERTEX
  5
39F
330
39E
100
AcDbEntity
  8
Layer0
  6
Continuous
 62
     7
370
    15
100
AcDbVertex
100
AcDb2dVertex
 10
-521.9453333886996
 20
-738.2062410472084
 30
0.0
  0
VERTEX
  5
3A0
330
39E
100
AcDbEntity
  8
Layer0
  6
Continuous
 62
     7
370
    15
100
AcDbVertex
100
AcDb2dVertex
 10
-521.9453333886996
 20
-755.2062410472086
 30
0.0
  0
VERTEX
  5
3A1
330
39E
100
AcDbEntity
  8
Layer0
  6
Continuous
 62
     7
370
    15
100
AcDbVertex
100
AcDb2dVertex
 10
-527.9453333886994
 20
-755.2062410472086
 30
0.0
  0
VERTEX
  5
3A2
330
39E
100
AcDbEntity
  8
Layer0
  6
Continuous
 62
     7
370
    15
100
AcDbVertex
100
AcDb2dVertex
 10
-542.9453333886996
 20
-755.2062410472086
 30
0.0
  0
VERTEX
  5
3A3
330
39E
100
AcDbEntity
  8
Layer0
  6
Continuous
 62
     7
370
    15
100
AcDbVertex
100
AcDb2dVertex
 10
-542.9453333886996
 20
-738.2062410472084
 30
0.0
  0
SEQEND
  5
3A4
330
39E
100
AcDbEntity
  8
Layer0
  6
Continuous
 62
     7
370
    15
  0
HATCH
  5
3A5
330
7B
100
AcDbEntity
  8
Layer0
  6
Continuous
 62
     7
370
     0
100
AcDbHatch
 10
0.0
 20
0.0
 30
0.0
210
0.0
220
0.0
230
1.0
  2
SOLID
 70
     1
 71
     1
 91
        1
 92
        1
 93
        5
 72
     1
 10
-521.9453333886996
 20
-738.2062410472084
 11
-521.9453333886996
 21
-755.2062410472086
 72
     1
 10
-521.9453333886996
 20
-755.2062410472086
 11
-527.9453333886994
 21
-755.2062410472086
 72
     1
 10
-527.9453333886994
 20
-755.2062410472086
 11
-542.9453333886996
 21
-755.2062410472086
 72
     1
 10
-542.9453333886996
 20
-755.2062410472086
 11
-542.9453333886996
 21
-738.2062410472084
 72
     1
 10
-542.9453333886996
 20
-738.2062410472084
 11
-521.9453333886996
 21
-738.2062410472084
 97
        1
330
39E
 75
     0
 76
     1
 98
        1
 10
0.0
 20
0.0
  0
WIPEOUT
  5
3A6
330
7B
100
AcDbEntity
  8
None
  6
Continuous
 62
     7
370
     9
 92
      152
310
98000000040000000C0000000E000000B20000000C00000016000000000000C20C00000014000000010000006C000000070000000400000041A2F30A905F80C0CD8A11F9560D8BC000000000000000008244E715205F77C0CD8A11F9560D8BC000000000000000008244E715205F77C0CC8A11F956258BC000000000000000
310
0041A2F30A905F80C0CC8A11F956258BC00000000000000000
100
AcDbWipeout
 90
        0
 10
-523.9453333886996
 20
-868.667467248009
 30
0.0
 11
150.0000000000001
 21
0.0
 31
0.0
 12
0.0
 22
150.0000000000001
 32
0.0
 13
1.0
 23
1.0
340
0
 70
     4
280
     1
281
    50
282
    50
283
     0
360
0
 71
     2
 91
        5
 14
-0.5
 24
0.4800000000000004
 14
0.5
 24
0.4800000000000004
 14
0.5
 24
0.5
 14
-0.5
 24
0.5
 14
-0.5
 24
0.4800000000000004
  0
POLYLINE
  5
3A7
330
7B
100
AcDbEntity
  8
None
  6
Continuous
 62
     7
370
     9
100
AcDb2dPolyline
 66
     1
 10
0.0
 20
0.0
 30
0.0
 70
     1
  0
VERTEX
  5
3A8
330
3A7
100
AcDbEntity
  8
None
  6
Continuous
 62
     7
370
     9
100
AcDbVertex
100
AcDb2dVertex
 10
-523.9453333886996
 20
-865.6674672480091
 30
0.0
  0
VERTEX
  5
3A9
330
3A7
100
AcDbEntity
  8
None
  6
Continuous
 62
     7
370
     9
100
AcDbVertex
100
AcDb2dVertex
 10
-373.9453333886996
 20
-865.6674672480091
 30
0.0
  0
VERTEX
  5
3AA
330
3A7
100
AcDbEntity
  8
None
  6
Continuous
 62
     7
370
     9
100
AcDbVertex
100
AcDb2dVertex
 10
-373.9453333886996
 20
-868.667467248009
 30
0.0
  0
VERTEX
  5
3AB
330
3A7
100
AcDbEntity
  8
None
  6
Continuous
 62
     7
370
     9
100
AcDbVertex
100
AcDb2dVertex
 10
-523.9453333886996
 20
-868.667467248009
 30
0.0
  0
SEQEND
  5
3AC
330
3A7
100
AcDbEntity
  8
None
  6
Continuous
 62
     7
370
     9
  0
INSERT
  5
3AD
330
7B
100
AcDbEntity
  8
None
 62
     7
100
AcDbBlockReference
  2
Group-18-1
 10
0.0
 20
0.0
 30
0.0
  0
ENDBLK
  5
7D
330
7B
100
AcDbEntity
  8
0
100
AcDbBlockEnd
  0
BLOCK
  5
97
330
96
100
AcDbEntity
  8
0
100
AcDbBlockBegin
  2
VW_SLASH
 70
     0
 10
0.0
 20
0.0
 30
0.0
  3
VW_SLASH
  1

  0
INSERT
  5
99
330
96
100
AcDbEntity
  8
None
  6
ByBlock
 62
     0
370
    -2
100
AcDbBlockReference
  2

 10
0.0
 20
0.0
 30
0.0
  0
LINE
  5
9A
330
96
100
AcDbEntity
  8
None
  6
ByBlock
 62
     0
370
    -2
100
AcDbLine
 10
0.0
 20
0.0
 30
0.0
 11
-1.0
 21
0.0
 31
0.0
  0
POLYLINE
  5
9B
330
96
100
AcDbEntity
  8
None
  6
Continuous
 62
     0
370
    20
100
AcDb2dPolyline
 66
     1
 10
0.0
 20
0.0
 30
0.0
  0
VERTEX
  5
9C
330
9B
100
AcDbEntity
  8
None
  6
Continuous
 62
     0
370
    20
100
AcDbVertex
100
AcDb2dVertex
 10
0.3513091552037657
 20
0.3513091552037657
 30
0.0
  0
VERTEX
  5
9D
330
9B
100
AcDbEntity
  8
None
  6
Continuous
 62
     0
370
    20
100
AcDbVertex
100
AcDb2dVertex
 10
-0.3513091552037657
 20
-0.3513091552037657
 30
0.0
  0
SEQEND
  5
9E
330
9B
100
AcDbEntity
  8
None
  6
Continuous
 62
     0
370
    20
  0
ENDBLK
  5
98
330
96
100
AcDbEntity
  8
0
100
AcDbBlockEnd
  0
BLOCK
  5
A0
330
9F
100
AcDbEntity
  8
0
100
AcDbBlockBegin
  2
VW_FILLEDARROW
 70
     0
 10
0.0
 20
0.0
 30
0.0
  3
VW_FILLEDARROW
  1

  0
INSERT
  5
A2
330
9F
100
AcDbEntity
  8
None
  6
ByBlock
 62
     0
370
    -2
100
AcDbBlockReference
  2

 10
0.0
 20
0.0
 30
0.0
  0
POLYLINE
  5
A3
102
{ACAD_REACTORS
330
A8
102
}
330
9F
100
AcDbEntity
  8
None
  6
Continuous
 62
     0
370
     5
100
AcDb2dPolyline
 66
     1
 10
0.0
 20
0.0
 30
0.0
 70
     1
  0
VERTEX
  5
A4
330
A3
100
AcDbEntity
  8
None
  6
Continuous
 62
     0
370
     5
100
AcDbVertex
100
AcDb2dVertex
 10
-0.9936523437500001
 20
0.2662483430651049
 30
0.0
  0
VERTEX
  5
A5
330
A3
100
AcDbEntity
  8
None
  6
Continuous
 62
     0
370
     5
100
AcDbVertex
100
AcDb2dVertex
 10
0.0
 20
0.0
 30
0.0
  0
VERTEX
  5
A6
330
A3
100
AcDbEntity
  8
None
  6
Continuous
 62
     0
370
     5
100
AcDbVertex
100
AcDb2dVertex
 10
-0.9936523437500001
 20
-0.2662483430651051
 30
0.0
  0
SEQEND
  5
A7
330
A3
100
AcDbEntity
  8
None
  6
Continuous
 62
     0
370
     5
  0
HATCH
  5
A8
330
9F
100
AcDbEntity
  8
None
  6
Continuous
 62
     0
370
     0
100
AcDbHatch
 10
0.0
 20
0.0
 30
0.0
210
0.0
220
0.0
230
1.0
  2
SOLID
 70
     1
 71
     1
 91
        1
 92
        1
 93
        3
 72
     1
 10
-0.9936523437500001
 20
0.2662483430651049
 11
0.0
 21
0.0
 72
     1
 10
0.0
 20
0.0
 11
-0.9936523437500001
 21
-0.2662483430651051
 72
     1
 10
-0.9936523437500001
 20
-0.2662483430651051
 11
-0.9936523437500001
 21
0.2662483430651049
 97
        1
330
A3
 75
     0
 76
     1
 98
        1
 10
0.0
 20
0.0
  0
ENDBLK
  5
A1
330
9F
100
AcDbEntity
  8
0
100
AcDbBlockEnd
  0
ENDSEC
  0
SECTION
  2
ENTITIES
  0
POLYLINE
  5
3AE
330
1F
100
AcDbEntity
  8
None
  6
Continuous
 62
     7
370
    60
100
AcDb2dPolyline
 66
     1
 10
0.0
 20
0.0
 30
0.0
 70
     1
  0
VERTEX
  5
3AF
330
3AE
100
AcDbEntity
  8
None
  6
Continuous
 62
     7
370
    60
100
AcDbVertex
100
AcDb2dVertex
 10
-1483.641732283465
 20
926.8208661417324
 30
0.0
  0
VERTEX
  5
3B0
330
3AE
100
AcDbEntity
  8
None
  6
Continuous
 62
     7
370
    60
100
AcDbVertex
100
AcDb2dVertex
 10
1476.358267716535
 20
926.8208661417324
 30
0.0
  0
VERTEX
  5
3B1
330
3AE
100
AcDbEntity
  8
None
  6
Continuous
 62
     7
370
    60
100
AcDbVertex
100
AcDb2dVertex
 10
1476.358267716535
 20
-923.1791338582677
 30
0.0
  0
VERTEX
  5
3B2
330
3AE
100
AcDbEntity
  8
None
  6
Continuous
 62
     7
370
    60
100
AcDbVertex
100
AcDb2dVertex
 10
-1483.641732283465
 20
-923.1791338582677
 30
0.0
  0
SEQEND
  5
3B3
330
3AE
100
AcDbEntity
  8
None
  6
Continuous
 62
     7
370
    60
  0
POLYLINE
  5
3B4
330
1F
100
AcDbEntity
  8
None
  6
Continuous
 62
     7
370
    60
100
AcDb2dPolyline
 66
     1
 10
0.0
 20
0.0
 30
0.0
 70
     1
  0
VERTEX
  5
3B5
330
3B4
100
AcDbEntity
  8
None
  6
Continuous
 62
     7
370
    60
100
AcDbVertex
100
AcDb2dVertex
 10
-1483.641732283465
 20
926.8208661417324
 30
0.0
  0
VERTEX
  5
3B6
330
3B4
100
AcDbEntity
  8
None
  6
Continuous
 62
     7
370
    60
100
AcDbVertex
100
AcDb2dVertex
 10
828.8582677165354
 20
926.8208661417324
 30
0.0
  0
VERTEX
  5
3B7
330
3B4
100
AcDbEntity
  8
None
  6
Continuous
 62
     7
370
    60
100
AcDbVertex
100
AcDb2dVertex
 10
828.8582677165354
 20
-923.1791338582677
 30
0.0
  0
VERTEX
  5
3B8
330
3B4
100
AcDbEntity
  8
None
  6
Continuous
 62
     7
370
    60
100
AcDbVertex
100
AcDb2dVertex
 10
-1483.641732283465
 20
-923.1791338582677
 30
0.0
  0
SEQEND
  5
3B9
330
3B4
100
AcDbEntity
  8
None
  6
Continuous
 62
     7
370
    60
  0
WIPEOUT
  5
3BA
330
1F
100
AcDbEntity
  8
None
  6
Continuous
 62
     7
370
     5
 92
      152
310
98000000040000000C0000000E000000B20000000C00000016000000000000C20C00000014000000010000006C0000000700000004000000D48321CDD2BF8C40882D9D19C94972400000000000000000CFFA1EBA7EAC9540882D9D19C94972400000000000000000CFFA1EBA7EAC954086AD3A4EBB4B834000000000000000
310
00D48321CDD2BF8C4086AD3A4EBB4B83400000000000000000
100
AcDbWipeout
 90
        0
 10
919.9779303186755
 20
292.611596693016
 30
0.0
 11
467.1458265516495
 21
0.0
 31
0.0
 12
0.0
 22
467.1458265516495
 32
0.0
 13
1.0
 23
1.0
340
0
 70
     4
280
     1
281
    50
282
    50
283
     0
360
0
 71
     2
 91
        5
 14
-0.4999999999999998
 24
0.4999999999999999
 14
0.5000000000000004
 24
0.4999999999999999
 14
0.5000000000000004
 24
-0.1954035392098146
 14
-0.4999999999999998
 24
-0.1954035392098146
 14
-0.4999999999999998
 24
0.4999999999999999
  0
MTEXT
  5
3BB
330
1F
100
AcDbEntity
  8
None
 62
     7
100
AcDbMText
 10
1153.5508435945
 20
606.5212831820595
 30
0.0
 40
34.94510315571019
 41
0.0
 71
     2
 72
     1
  1
2400 BOUNDARY ROAD\PBURNABY, B.C. V5M 3Z3\PCANADA\P\P{\H0.8947x;\lT: 604•482•2000\P}{\H0.8947x;\lF: 604•482•2007\P}
  7
Arial Narrow
 73
     1
 44
0.9301738196474555
  0
WIPEOUT
  5
3BC
330
1F
100
AcDbEntity
  8
None
  6
Continuous
 62
     7
370
     5
 92
      152
310
98000000040000000C0000000E000000B20000000C00000016000000000000C20C00000014000000010000006C0000000700000004000000E6800C6F1D718B40C4D5D4FEC535674000000000000000001EEB30E2570F9540C4D5D4FEC535674000000000000000001EEB30E2570F954076A953932138714000000000000000
310
00E6800C6F1D718B4076A95393213871400000000000000000
100
AcDbWipeout
 90
        0
 10
878.1393719651068
 20
185.6804193646367
 30
0.0
 11
469.6964518229166
 21
0.0
 31
0.0
 12
0.0
 22
469.6964518229166
 32
0.0
 13
1.0
 23
1.0
340
0
 70
     4
280
     1
281
    50
282
    50
283
     0
360
0
 71
     2
 91
        5
 14
-0.5000000000000002
 24
0.4999999999999999
 14
0.5
 24
0.4999999999999999
 14
0.5
 24
0.3087535525781566
 14
-0.5000000000000002
 24
0.3087535525781566
 14
-0.5000000000000002
 24
0.4999999999999999
  0
MTEXT
  5
3BD
330
1F
100
AcDbEntity
  8
None
 62
     7
100
AcDbMText
 10
1112.987597876565
 20
257.9959177471064
 30
0.0
 40
55.91216504913628
 41
0.0
 71
     2
 72
     1
  1
SOUND STAGE
  7
Arial Narrow (bold)
 73
     1
 44
1.446475657041058
  0
POLYLINE
  5
3BE
330
1F
100
AcDbEntity
  8
None
  6
Continuous
 62
     7
370
    60
100
AcDb2dPolyline
 66
     1
 10
0.0
 20
0.0
 30
0.0
 70
     1
  0
VERTEX
  5
3BF
330
3BE
100
AcDbEntity
  8
None
  6
Continuous
 62
     7
370
    60
100
AcDbVertex
100
AcDb2dVertex
 10
828.8582677165354
 20
-485.625
 30
0.0
  0
VERTEX
  5
3C0
330
3BE
100
AcDbEntity
  8
None
  6
Continuous
 62
     7
370
    60
100
AcDbVertex
100
AcDb2dVertex
 10
1476.358267716535
 20
-485.625
 30
0.0
  0
VERTEX
  5
3C1
330
3BE
100
AcDbEntity
  8
None
  6
Continuous
 62
     7
370
    60
100
AcDbVertex
100
AcDb2dVertex
 10
1476.358267716535
 20
-923.1791338582677
 30
0.0
  0
VERTEX
  5
3C2
330
3BE
100
AcDbEntity
  8
None
  6
Continuous
 62
     7
370
    60
100
AcDbVertex
100
AcDb2dVertex
 10
828.8582677165354
 20
-923.1791338582677
 30
0.0
  0
SEQEND
  5
3C3
330
3BE
100
AcDbEntity
  8
None
  6
Continuous
 62
     7
370
    60
  0
MTEXT
  5
3C4
330
1F
100
AcDbEntity
  8
None
 62
     7
100
AcDbMText
 10
886.8403796171533
 20
128.709048948279
 30
0.0
 40
41.93412378685221
 41
0.0
 71
     1
 72
     1
  1
FEATURES\P{\H0.7083x;\l•11,998 sq. ft.\P•SOUNDPROOF\P•ELEPHANT DOORS\P•3600 amps 120/208V \P•GRID = 4,600 pounds per any one \Ppoint on truss\P•Interior is checkered Flat Black\Pacoustical panels\P•12,000cfm exhaust fans}
  7
Arial Narrow
 73
     1
 44
0.8489681687258522
  0
INSERT
  5
3C5
330
1F
100
AcDbEntity
  8
elements-ojects
 62
     7
100
AcDbBlockReference
  2
Group-1
 10
0.0
 20
0.0
 30
0.0
 41
185.0
 42
185.0
 43
185.0
  0
WIPEOUT
  5
3C6
330
1F
100
AcDbEntity
  8
None
  6
Continuous
 62
     7
370
     5
 92
      152
310
98000000040000000C0000000E000000B20000000C00000016000000000000C20C00000014000000010000006C0000000700000004000000BBEEE49A994695403CBB7156E7EC60400000000000000000F57C68DB348796403CBB7156E7EC60400000000000000000F57C68DB348796406BAA05784018754000000000000000
310
00BBEEE49A994695406BAA0578401875400000000000000000
100
AcDbWipeout
 90
        0
 10
1361.65000493724
 20
135.4032394620243
 30
0.0
 11
202.1125000000001
 21
0.0
 31
0.0
 12
0.0
 22
202.1125000000001
 32
0.0
 13
1.0
 23
1.0
340
0
 70
     4
280
     1
281
    50
282
    50
283
     0
360
0
 71
     2
 91
        5
 14
-0.5
 24
0.5
 14
-0.1034306968225334
 24
0.5
 14
-0.1034306968225334
 24
-0.4999999999999998
 14
-0.5
 24
-0.4999999999999998
 14
-0.5
 24
0.5
  0
MTEXT
  5
3C7
330
1F
100
AcDbEntity
  8
None
 62
     7
100
AcDbMText
 10
1401.725811581467
 20
298.113110822581
 30
0.0
 40
125.8023713605567
 41
0.0
 71
     2
 72
     1
  1
6
  7
Arial Narrow (bold)
 73
     1
 44
0.6428780697960256
  0
LINE
  5
3C8
330
1F
100
AcDbEntity
  8
None
  6
Continuous
 62
     7
370
    40
100
AcDbLine
 10
1343.160207052887
 20
179.0489150792221
 30
0.0
 11
885.7708320528873
 21
179.0489150792221
 31
0.0
  0
MTEXT
  5
3C9
330
1F
100
AcDbEntity
  8
None
 62
     7
100
AcDbMText
 10
872.4758395413326
 20
-519.3009724570113
 30
0.0
 40
36.78431911127387
 41
0.0
 71
     1
 72
     1
  1
SITE LEGEND\P
  7
Arial Narrow
 73
     1
 44
1.178220171553443
  0
INSERT
  5
3CA
330
1F
100
AcDbEntity
  8
None
 62
     7
100
AcDbBlockReference
  2
Group-4-1
 10
0.0
 20
0.0
 30
0.0
 41
185.0
 42
185.0
 43
185.0
  0
LINE
  5
3CB
330
1F
100
AcDbEntity
  8
None
  6
Dash Style-3
 62
     7
370
    15
100
AcDbLine
 10
-1066.9453333887
 20
761.1621157386961
 30
0.0
 11
-1066.9453333887
 21
887.9999999999999
 31
0.0
  0
LINE
  5
3CC
330
1F
100
AcDbEntity
  8
None
  6
Dash Style-3
 62
     7
370
    15
100
AcDbLine
 10
-1083.945333388701
 20
761.1621157386961
 30
0.0
 11
-1083.945333388701
 21
887.9999999999999
 31
0.0
  0
LINE
  5
3CD
330
1F
100
AcDbEntity
  8
None
  6
Dash Style-3
 62
     7
370
    15
100
AcDbLine
 10
251.0546666113003
 20
761.1621157386961
 30
0.0
 11
251.0546666113003
 21
887.9999999999999
 31
0.0
  0
LINE
  5
3CE
330
1F
100
AcDbEntity
  8
None
  6
Dash Style-3
 62
     7
370
    15
100
AcDbLine
 10
234.0546666113003
 20
761.1621157386961
 30
0.0
 11
234.0546666113003
 21
887.9999999999999
 31
0.0
  0
DIMENSION
  5
3CF
330
1F
100
AcDbEntity
  8
Dimension
  6
Continuous
 62
     1
370
     9
100
AcDbDimension
  2
*D5
 10
234.0546666113003
 20
813.1621157386961
 30
0.0
 11
-416.4453333887002
 21
813.1621157386961
 31
0.0
 70
    32
 71
     5
 42
1301.000000000001
  3
ASME
100
AcDbAlignedDimension
 13
-1066.945333388701
 23
713.162115738696
 33
0.0
 14
234.0546666113003
 24
726.0
 34
0.0
100
AcDbRotatedDimension
1001
ACAD
1000
DSTYLE
1002
{
1070
   147
1040
2.890625
1070
   340
1005
81
1002
}
  0
DIMENSION
  5
3D0
330
1F
100
AcDbEntity
  8
Dimension
  6
Continuous
 62
     1
370
     9
100
AcDbDimension
  2
*D6
 10
-1292.0
 20
590.1079926473146
 30
0.0
 11
-1292.0
 21
-74.04912419994685
 31
0.0
 70
    32
 71
     5
 42
1328.314233694523
  3
ASME
100
AcDbAlignedDimension
 13
-1044.745297240874
 23
-738.2062410472084
 33
0.0
 14
-946.7452972408745
 24
590.1079926473146
 34
0.0
 50
-90.0
100
AcDbRotatedDimension
1001
ACAD
1000
DSTYLE
1002
{
1070
   147
1040
2.890625
1070
   340
1005
81
1070
   271
1070
     0
1002
}
  0
INSERT
  5
3D1
330
1F
100
AcDbEntity
  8
None
 62
     7
100
AcDbBlockReference
  2
Group-8-1
 10
0.0
 20
0.0
 30
0.0
  0
WIPEOUT
  5
3D2
330
1F
100
AcDbEntity
  8
None
  6
Continuous
 62
     1
370
     9
 92
      152
310
98000000040000000C0000000E000000B20000000C00000016000000000000C20C00000014000000010000006C000000070000000400000048DE22F8436284C084D1B6B2FAB35740000000000000000078CEE03599E965C084D1B6B2FAB35740000000000000000078CEE03599E965C0DA260C0850695F4000000000000000
310
0048DE22F8436284C0DA260C0850695F400000000000000000
100
AcDbWipeout
 90
        0
 10
-652.2831881259999
 20
94.81217639783256
 30
0.0
 11
476.9832356770833
 21
0.0
 31
0.0
 12
0.0
 22
476.9832356770833
 32
0.0
 13
1.0
 23
1.0
340
0
 70
     4
280
     1
281
    50
282
    50
283
     0
360
0
 71
     2
 91
        5
 14
-0.5
 24
0.5000000000000001
 14
0.5
 24
0.5000000000000001
 14
0.5
 24
0.4353576163121016
 14
-0.5
 24
0.4353576163121016
 14
-0.5
 24
0.5000000000000001
  0
MTEXT
  5
3D3
330
1F
100
AcDbEntity
  8
None
 62
     1
100
AcDbMText
 10
-652.2831881259999
 20
124.0214853359595
 30
0.0
 40
22.11764227146026
 41
0.0
 71
     1
 72
     1
  1
Height to U.S. of Truss = 40'-8 1/2"
  7
Helvetica
 73
     1
 44
0.8397955333929318
  0
LINE
  5
3D4
330
1F
100
AcDbEntity
  8
None
  6
Continuous
 62
     1
370
     9
100
AcDbLine
 10
-660.4879528823847
 20
114.8629830618686
 30
0.0
 11
-888.1445517559177
 21
114.8629830618686
 31
0.0
  0
POLYLINE
  5
3D5
102
{ACAD_REACTORS
330
3DA
102
}
330
1F
100
AcDbEntity
  8
None
  6
Continuous
 62
     1
370
     5
100
AcDb2dPolyline
 66
     1
 10
0.0
 20
0.0
 30
0.0
 70
     1
  0
VERTEX
  5
3D6
330
3D5
100
AcDbEntity
  8
None
  6
Continuous
 62
     1
370
     5
100
AcDbVertex
100
AcDb2dVertex
 10
-865.0195517559177
 20
108.6666579868989
 30
0.0
  0
VERTEX
  5
3D7
330
3D5
100
AcDbEntity
  8
None
  6
Continuous
 62
     1
370
     5
100
AcDbVertex
100
AcDb2dVertex
 10
-888.1445517559177
 20
114.8629830618686
 30
0.0
  0
VERTEX
  5
3D8
330
3D5
100
AcDbEntity
  8
None
  6
Continuous
 62
     1
370
     5
100
AcDbVertex
100
AcDb2dVertex
 10
-865.0195517559177
 20
121.0593081368383
 30
0.0
  0
SEQEND
  5
3D9
330
3D5
100
AcDbEntity
  8
None
  6
Continuous
 62
     1
370
     5
  0
HATCH
  5
3DA
330
1F
100
AcDbEntity
  8
None
  6
Continuous
 62
     1
370
     0
100
AcDbHatch
 10
0.0
 20
0.0
 30
0.0
210
0.0
220
0.0
230
1.0
  2
SOLID
 70
     1
 71
     1
 91
        1
 92
        1
 93
        3
 72
     1
 10
-865.0195517559177
 20
108.6666579868989
 11
-888.1445517559177
 21
114.8629830618686
 72
     1
 10
-888.1445517559177
 20
114.8629830618686
 11
-865.0195517559177
 21
121.0593081368383
 72
     1
 10
-865.0195517559177
 20
121.0593081368383
 11
-865.0195517559177
 21
108.6666579868989
 97
        1
330
3D5
 75
     0
 76
     1
 98
        1
 10
0.0
 20
0.0
  0
LINE
  5
3DB
330
1F
100
AcDbEntity
  8
None
  6
Continuous
 62
     1
370
     9
100
AcDbLine
 10
-167.2646796359095
 20
114.8629830618686
 30
0.0
 11
53.85544824408328
 21
114.8629830618686
 31
0.0
  0
POLYLINE
  5
3DC
102
{ACAD_REACTORS
330
3E1
102
}
330
1F
100
AcDbEntity
  8
None
  6
Continuous
 62
     1
370
     5
100
AcDb2dPolyline
 66
     1
 10
0.0
 20
0.0
 30
0.0
 70
     1
  0
VERTEX
  5
3DD
330
3DC
100
AcDbEntity
  8
None
  6
Continuous
 62
     1
370
     5
100
AcDbVertex
100
AcDb2dVertex
 10
30.73044824408328
 20
121.0593081368383
 30
0.0
  0
VERTEX
  5
3DE
330
3DC
100
AcDbEntity
  8
None
  6
Continuous
 62
     1
370
     5
100
AcDbVertex
100
AcDb2dVertex
 10
53.85544824408328
 20
114.8629830618686
 30
0.0
  0
VERTEX
  5
3DF
330
3DC
100
AcDbEntity
  8
None
  6
Continuous
 62
     1
370
     5
100
AcDbVertex
100
AcDb2dVertex
 10
30.73044824408328
 20
108.6666579868989
 30
0.0
  0
SEQEND
  5
3E0
330
3DC
100
AcDbEntity
  8
None
  6
Continuous
 62
     1
370
     5
  0
HATCH
  5
3E1
330
1F
100
AcDbEntity
  8
None
  6
Continuous
 62
     1
370
     0
100
AcDbHatch
 10
0.0
 20
0.0
 30
0.0
210
0.0
220
0.0
230
1.0
  2
SOLID
 70
     1
 71
     1
 91
        1
 92
        1
 93
        3
 72
     1
 10
30.73044824408328
 20
121.0593081368383
 11
53.85544824408328
 21
114.8629830618686
 72
     1
 10
53.85544824408328
 20
114.8629830618686
 11
30.73044824408328
 21
108.6666579868989
 72
     1
 10
30.73044824408328
 20
108.6666579868989
 11
30.73044824408328
 21
121.0593081368383
 97
        1
330
3DC
 75
     0
 76
     1
 98
        1
 10
0.0
 20
0.0
  0
INSERT
  5
3E2
330
1F
100
AcDbEntity
  8
None
 62
     7
100
AcDbBlockReference
  2
Group-19-1
 10
0.0
 20
0.0
 30
0.0
  0
WIPEOUT
  5
3E3
330
1F
100
AcDbEntity
  8
None
  6
Continuous
 62
     1
370
     9
 92
      152
310
98000000040000000C0000000E000000B20000000C00000016000000000000C20C00000014000000010000006C0000000700000004000000002298C4F71680C0C4AD7BFD85D48AC00000000000000000ABEEDAB3C4EC77C0C4AD7BFD85D48AC00000000000000000ABEEDAB3C4EC77C08A1F98C4F7068AC000000000000000
310
00002298C4F71680C08A1F98C4F7068AC00000000000000000
100
AcDbWipeout
 90
        0
 10
-514.8709804425598
 20
-858.5654248869328
 30
0.0
 11
132.0729573567708
 21
0.0
 31
0.0
 12
0.0
 22
132.0729573567708
 32
0.0
 13
1.0
 23
1.0
340
0
 70
     4
280
     1
281
    50
282
    50
283
     0
360
0
 71
     2
 91
        5
 14
-0.4999999999999996
 24
0.5
 14
0.5000000000000004
 24
0.5
 14
0.5000000000000004
 24
0.3054526455780362
 14
-0.4999999999999996
 24
0.3054526455780362
 14
-0.4999999999999996
 24
0.5
  0
MTEXT
  5
3E4
330
1F
100
AcDbEntity
  8
None
 62
     1
100
AcDbMText
 10
-514.8709804425598
 20
-834.2243341051602
 30
0.0
 40
18.43136855955022
 41
0.0
 71
     1
 72
     1
  1
12' Loading
  7
Helvetica
 73
     1
 44
0.8397955333929318
  0
VIEWPORT
  5
3E5
330
1B
100
AcDbEntity
 67
     1
  8
0
100
AcDbViewport
 10
5.25
 20
4.0
 30
0.0
 40
11.638
 41
8.993
 68
     1
 69
     1
 12
5.25
 22
4.0
 13
0.0
 23
0.0
 14
0.5
 24
0.5
 15
0.5
 25
0.5
 16
0.0
 26
0.0
 36
1.0
 17
0.0
 27
0.0
 37
0.0
 42
50.0
 43
0.0
 44
0.0
 45
8.993
 50
0.0
 51
0.0
 72
   100
 90
   557152
  1

281
     0
 71
     1
 74
     0
110
0.0
120
0.0
130
0.0
111
1.0
121
0.0
131
0.0
112
0.0
122
1.0
132
0.0
 79
     0
146
0.0
  0
ENDSEC
  0
SECTION
  2
OBJECTS
  0
DICTIONARY
  5
C
330
0
100
AcDbDictionary
281
     1
  3
ACAD_GROUP
350
D
  3
ACAD_LAYOUT
350
1A
  3
ACAD_MATERIAL
350
3B
  3
ACAD_MLEADERSTYLE
350
3E8
  3
ACAD_MLINESTYLE
350
17
  3
ACAD_PLOTSETTINGS
350
19
  3
ACAD_PLOTSTYLENAME
350
E
  3
ACAD_SCALELIST
350
1CA
  3
ACAD_VISUALSTYLE
350
2A
  3
ACAD_WIPEOUT_VARS
350
7E
  3
AcDbVariableDictionary
350
3E6
  0
DICTIONARY
  5
D
102
{ACAD_REACTORS
330
C
102
}
330
C
100
AcDbDictionary
281
     1
  0
DICTIONARY
  5
1A
102
{ACAD_REACTORS
330
C
102
}
330
C
100
AcDbDictionary
281
     1
  3
Layout1
350
1E
  3
Model
350
22
  0
DICTIONARY
  5
3B
102
{ACAD_REACTORS
330
C
102
}
330
C
100
AcDbDictionary
281
     1
  3
ByBlock
350
3D
  3
ByLayer
350
3C
  3
Global
350
3E
  0
DICTIONARY
  5
3E8
102
{ACAD_REACTORS
330
C
102
}
330
C
100
AcDbDictionary
281
     1
  0
DICTIONARY
  5
17
102
{ACAD_REACTORS
330
C
102
}
330
C
100
AcDbDictionary
281
     1
  3
Standard
350
18
  0
DICTIONARY
  5
19
102
{ACAD_REACTORS
330
C
102
}
330
C
100
AcDbDictionary
281
     1
  0
ACDBDICTIONARYWDFLT
  5
E
102
{ACAD_REACTORS
330
C
102
}
330
C
100
AcDbDictionary
281
     1
  3
Normal
350
F
100
AcDbDictionaryWithDefault
340
F
  0
DICTIONARY
  5
1CA
102
{ACAD_REACTORS
330
C
102
}
330
C
100
AcDbDictionary
281
     1
  3
A0
350
1CB
  3
A1
350
1CC
  3
A2
350
1CD
  3
A3
350
1CE
  3
A4
350
1CF
  3
A5
350
1D0
  3
A6
350
1D1
  3
A7
350
1D2
  3
A8
350
1D3
  3
A9
350
1D4
  3
B0
350
1D5
  3
B1
350
1D6
  3
B2
350
1D7
  3
B3
350
1D8
  3
B4
350
1D9
  3
B5
350
1DA
  3
B6
350
1DB
  3
B7
350
1DC
  3
B8
350
1DD
  3
B9
350
1DE
  3
C0
350
1DF
  3
C1
350
1E0
  3
C2
350
1E1
  3
C3
350
1E2
  3
C4
350
1E3
  3
C5
350
1E4
  3
C6
350
1E5
  3
C7
350
1E6
  3
C8
350
1E7
  3
C9
350
1E8
  3
D0
350
1E9
  3
D1
350
1EA
  3
D2
350
1EB
  0
DICTIONARY
  5
2A
102
{ACAD_REACTORS
330
C
102
}
330
C
100
AcDbDictionary
281
     1
  3
2dWireframe
350
2F
  3
3D Hidden
350
31
  3
3dWireframe
350
30
  3
Basic
350
32
  3
Brighten
350
36
  3
ColorChange
350
3A
  3
Conceptual
350
34
  3
Dim
350
35
  3
Facepattern
350
39
  3
Flat
350
2B
  3
FlatWithEdges
350
2C
  3
Gouraud
350
2D
  3
GouraudWithEdges
350
2E
  3
Linepattern
350
38
  3
Realistic
350
33
  3
Thicken
350
37
  0
WIPEOUTVARIABLES
  5
7E
102
{ACAD_REACTORS
330
C
102
}
330
C
100
AcDbWipeoutVariables
 70
     0
  0
DICTIONARY
  5
3E6
102
{ACAD_REACTORS
330
C
102
}
330
C
100
AcDbDictionary
281
     1
  3
CANNOSCALE
350
3E9
  3
DIMASSOC
350
3EA
  3
HIDETEXT
350
3EB
  0
LAYOUT
  5
1E
102
{ACAD_REACTORS
330
1A
102
}
330
1A
100
AcDbPlotSettings
  1

  2
none_device
  4
Letter_(8.50_x_11.00_Inches)
  6

 40
6.35
 41
6.35
 42
6.35001
 43
6.35001
 44
215.9
 45
279.4
 46
0.0
 47
0.0
 48
0.0
 49
0.0
140
0.0
141
0.0
142
1.0
143
1.0
 70
   688
 72
     0
 73
     1
 74
     5
  7

 75
    16
147
1.0
148
0.0
149
0.0
100
AcDbLayout
  1
Layout1
 70
     1
 71
     1
 10
-0.25
 20
-0.25
 11
10.75
 21
8.25
 12
0.0
 22
0.0
 32
0.0
 14
1.000000000000000E+20
 24
1.000000000000000E+20
 34
1.000000000000000E+20
 15
-1.000000000000000E+20
 25
-1.000000000000000E+20
 35
-1.000000000000000E+20
146
0.0
 13
0.0
 23
0.0
 33
0.0
 16
1.0
 26
0.0
 36
0.0
 17
0.0
 27
1.0
 37
0.0
 76
     0
330
1B
331
3E5
  0
LAYOUT
  5
22
102
{ACAD_REACTORS
330
1A
102
}
330
1A
100
AcDbPlotSettings
  1

  2
none_device
  4

  6

 40
0.0
 41
0.0
 42
0.0
 43
0.0
 44
0.0
 45
0.0
 46
0.0
 47
0.0
 48
0.0
 49
0.0
140
0.0
141
0.0
142
1.0
143
1.0
 70
  1712
 72
     0
 73
     0
 74
     0
  7

 75
     0
147
1.0
148
0.0
149
0.0
100
AcDbLayout
  1
Model
 70
     1
 71
     0
 10
0.0
 20
0.0
 11
12.0
 21
9.0
 12
0.0
 22
0.0
 32
0.0
 14
-1483.641732283465
 24
-923.1791338582677
 34
-15.2625
 15
1476.358267716535
 25
926.8208661417324
 35
15.2625
146
0.0
 13
0.0
 23
0.0
 33
0.0
 16
1.0
 26
0.0
 36
0.0
 17
0.0
 27
1.0
 37
0.0
 76
     0
330
1F
331
29
  0
MATERIAL
  5
3D
102
{ACAD_REACTORS
330
3B
102
}
102
{ACAD_XDICTIONARY
360
40E
102
}
330
3B
100
AcDbMaterial
  1
ByBlock
  0
MATERIAL
  5
3C
102
{ACAD_REACTORS
330
3B
102
}
102
{ACAD_XDICTIONARY
360
40C
102
}
330
3B
100
AcDbMaterial
  1
ByLayer
  0
MATERIAL
  5
3E
102
{ACAD_REACTORS
330
3B
102
}
102
{ACAD_XDICTIONARY
360
410
102
}
330
3B
100
AcDbMaterial
  1
Global
  0
MLINESTYLE
  5
18
102
{ACAD_REACTORS
330
17
102
}
330
17
100
AcDbMlineStyle
  2
Standard
 70
     0
  3

 62
   256
 51
90.0
 52
90.0
 71
     2
 49
0.5
 62
   256
  6
BYLAYER
 49
-0.5
 62
   256
  6
BYLAYER
  0
ACDBPLACEHOLDER
  5
F
102
{ACAD_REACTORS
330
E
102
}
330
E
  0
SCALE
  5
1CB
102
{ACAD_REACTORS
330
1CA
102
}
330
1CA
100
AcDbScale
 70
     0
300
1:1
140
1.0
141
1.0
290
     1
  0
SCALE
  5
1CC
102
{ACAD_REACTORS
330
1CA
102
}
330
1CA
100
AcDbScale
 70
     0
300
1:2
140
1.0
141
2.0
290
     0
  0
SCALE
  5
1CD
102
{ACAD_REACTORS
330
1CA
102
}
330
1CA
100
AcDbScale
 70
     0
300
1:4
140
1.0
141
4.0
290
     0
  0
SCALE
  5
1CE
102
{ACAD_REACTORS
330
1CA
102
}
330
1CA
100
AcDbScale
 70
     0
300
1:5
140
1.0
141
5.0
290
     0
  0
SCALE
  5
1CF
102
{ACAD_REACTORS
330
1CA
102
}
330
1CA
100
AcDbScale
 70
     0
300
1:8
140
1.0
141
8.0
290
     0
  0
SCALE
  5
1D0
102
{ACAD_REACTORS
330
1CA
102
}
330
1CA
100
AcDbScale
 70
     0
300
1:10
140
1.0
141
10.0
290
     0
  0
SCALE
  5
1D1
102
{ACAD_REACTORS
330
1CA
102
}
330
1CA
100
AcDbScale
 70
     0
300
1:16
140
1.0
141
16.0
290
     0
  0
SCALE
  5
1D2
102
{ACAD_REACTORS
330
1CA
102
}
330
1CA
100
AcDbScale
 70
     0
300
1:20
140
1.0
141
20.0
290
     0
  0
SCALE
  5
1D3
102
{ACAD_REACTORS
330
1CA
102
}
330
1CA
100
AcDbScale
 70
     0
300
1:30
140
1.0
141
30.0
290
     0
  0
SCALE
  5
1D4
102
{ACAD_REACTORS
330
1CA
102
}
330
1CA
100
AcDbScale
 70
     0
300
1:40
140
1.0
141
40.0
290
     0
  0
SCALE
  5
1D5
102
{ACAD_REACTORS
330
1CA
102
}
330
1CA
100
AcDbScale
 70
     0
300
1:50
140
1.0
141
50.0
290
     0
  0
SCALE
  5
1D6
102
{ACAD_REACTORS
330
1CA
102
}
330
1CA
100
AcDbScale
 70
     0
300
1:100
140
1.0
141
100.0
290
     0
  0
SCALE
  5
1D7
102
{ACAD_REACTORS
330
1CA
102
}
330
1CA
100
AcDbScale
 70
     0
300
2:1
140
2.0
141
1.0
290
     0
  0
SCALE
  5
1D8
102
{ACAD_REACTORS
330
1CA
102
}
330
1CA
100
AcDbScale
 70
     0
300
4:1
140
4.0
141
1.0
290
     0
  0
SCALE
  5
1D9
102
{ACAD_REACTORS
330
1CA
102
}
330
1CA
100
AcDbScale
 70
     0
300
8:1
140
8.0
141
1.0
290
     0
  0
SCALE
  5
1DA
102
{ACAD_REACTORS
330
1CA
102
}
330
1CA
100
AcDbScale
 70
     0
300
10:1
140
10.0
141
1.0
290
     0
  0
SCALE
  5
1DB
102
{ACAD_REACTORS
330
1CA
102
}
330
1CA
100
AcDbScale
 70
     0
300
100:1
140
100.0
141
1.0
290
     0
  0
SCALE
  5
1DC
102
{ACAD_REACTORS
330
1CA
102
}
330
1CA
100
AcDbScale
 70
     0
300
1/128" = 1'-0"
140
0.0078125
141
12.0
290
     0
  0
SCALE
  5
1DD
102
{ACAD_REACTORS
330
1CA
102
}
330
1CA
100
AcDbScale
 70
     0
300
1/64" = 1'-0"
140
0.015625
141
12.0
290
     0
  0
SCALE
  5
1DE
102
{ACAD_REACTORS
330
1CA
102
}
330
1CA
100
AcDbScale
 70
     0
300
1/32" = 1'-0"
140
0.03125
141
12.0
290
     0
  0
SCALE
  5
1DF
102
{ACAD_REACTORS
330
1CA
102
}
330
1CA
100
AcDbScale
 70
     0
300
1/16" = 1'-0"
140
0.0625
141
12.0
290
     0
  0
SCALE
  5
1E0
102
{ACAD_REACTORS
330
1CA
102
}
330
1CA
100
AcDbScale
 70
     0
300
3/32" = 1'-0"
140
0.09375
141
12.0
290
     0
  0
SCALE
  5
1E1
102
{ACAD_REACTORS
330
1CA
102
}
330
1CA
100
AcDbScale
 70
     0
300
1/8" = 1'-0"
140
0.125
141
12.0
290
     0
  0
SCALE
  5
1E2
102
{ACAD_REACTORS
330
1CA
102
}
330
1CA
100
AcDbScale
 70
     0
300
3/16" = 1'-0"
140
0.1875
141
12.0
290
     0
  0
SCALE
  5
1E3
102
{ACAD_REACTORS
330
1CA
102
}
330
1CA
100
AcDbScale
 70
     0
300
1/4" = 1'-0"
140
0.25
141
12.0
290
     0
  0
SCALE
  5
1E4
102
{ACAD_REACTORS
330
1CA
102
}
330
1CA
100
AcDbScale
 70
     0
300
3/8" = 1'-0"
140
0.375
141
12.0
290
     0
  0
SCALE
  5
1E5
102
{ACAD_REACTORS
330
1CA
102
}
330
1CA
100
AcDbScale
 70
     0
300
1/2" = 1'-0"
140
0.5
141
12.0
290
     0
  0
SCALE
  5
1E6
102
{ACAD_REACTORS
330
1CA
102
}
330
1CA
100
AcDbScale
 70
     0
300
3/4" = 1'-0"
140
0.75
141
12.0
290
     0
  0
SCALE
  5
1E7
102
{ACAD_REACTORS
330
1CA
102
}
330
1CA
100
AcDbScale
 70
     0
300
1" = 1'-0"
140
1.0
141
12.0
290
     0
  0
SCALE
  5
1E8
102
{ACAD_REACTORS
330
1CA
102
}
330
1CA
100
AcDbScale
 70
     0
300
1-1/2" = 1'-0"
140
1.5
141
12.0
290
     0
  0
SCALE
  5
1E9
102
{ACAD_REACTORS
330
1CA
102
}
330
1CA
100
AcDbScale
 70
     0
300
3" = 1'-0"
140
3.0
141
12.0
290
     0
  0
SCALE
  5
1EA
102
{ACAD_REACTORS
330
1CA
102
}
330
1CA
100
AcDbScale
 70
     0
300
6" = 1'-0"
140
6.0
141
12.0
290
     0
  0
SCALE
  5
1EB
102
{ACAD_REACTORS
330
1CA
102
}
330
1CA
100
AcDbScale
 70
     0
300
1'-0" = 1'-0"
140
12.0
141
12.0
290
     0
  0
VISUALSTYLE
  5
2F
102
{ACAD_REACTORS
330
2A
102
}
102
{ACAD_XDICTIONARY
360
3F4
102
}
330
2A
100
AcDbVisualStyle
  2
2dWireframe
 70
     4
 71
     0
 72
     2
 73
     0
 90
        0
 40
-0.6
 41
-30.0
 62
     5
 63
     7
 74
     1
 91
        4
 64
     7
 65
   257
 75
     1
175
     1
 42
1.0
 92
        0
 66
   257
 43
1.0
 76
     1
 77
     6
 78
     2
 67
     7
 79
     5
170
     0
171
     0
290
     0
174
     0
 93
        1
 44
0.0
173
     0
291
     0
 45
0.0
1001
ACAD
1000
AcDbSavedByObjectVersion
1070
     0
  0
VISUALSTYLE
  5
31
102
{ACAD_REACTORS
330
2A
102
}
102
{ACAD_XDICTIONARY
360
3F8
102
}
330
2A
100
AcDbVisualStyle
  2
3D Hidden
 70
     6
 71
     1
 72
     2
 73
     2
 90
        0
 40
-0.6
 41
-30.0
 62
     5
 63
     7
 74
     2
 91
        2
 64
     7
 65
   257
 75
     2
175
     1
 42
40.0
 92
        0
 66
   257
 43
1.0
 76
     1
 77
     6
 78
     2
 67
     7
 79
     3
170
     0
171
     0
290
     0
174
     0
 93
        1
 44
0.0
173
     0
291
     0
 45
0.0
1001
ACAD
1000
AcDbSavedByObjectVersion
1070
     0
  0
VISUALSTYLE
  5
30
102
{ACAD_REACTORS
330
2A
102
}
102
{ACAD_XDICTIONARY
360
3F6
102
}
330
2A
100
AcDbVisualStyle
  2
3dWireframe
 70
     5
 71
     0
 72
     2
 73
     0
 90
        0
 40
-0.6
 41
-30.0
 62
     5
 63
     7
 74
     1
 91
        4
 64
     7
 65
   257
 75
     1
175
     1
 42
1.0
 92
        0
 66
   257
 43
1.0
 76
     1
 77
     6
 78
     2
 67
     7
 79
     5
170
     0
171
     0
290
     0
174
     0
 93
        1
 44
0.0
173
     0
291
     0
 45
0.0
1001
ACAD
1000
AcDbSavedByObjectVersion
1070
     0
  0
VISUALSTYLE
  5
32
102
{ACAD_REACTORS
330
2A
102
}
102
{ACAD_XDICTIONARY
360
3FA
102
}
330
2A
100
AcDbVisualStyle
  2
Basic
 70
     7
 71
     1
 72
     0
 73
     1
 90
        0
 40
-0.6
 41
-30.0
 62
     5
 63
     7
 74
     0
 91
        4
 64
     7
 65
   257
 75
     1
175
     1
 42
1.0
 92
        8
 66
     7
 43
1.0
 76
     1
 77
     6
 78
     2
 67
     7
 79
     5
170
     0
171
     0
290
     0
174
     0
 93
        1
 44
0.0
173
     0
291
     1
 45
0.0
1001
ACAD
1000
AcDbSavedByObjectVersion
1070
     0
  0
VISUALSTYLE
  5
36
102
{ACAD_REACTORS
330
2A
102
}
102
{ACAD_XDICTIONARY
360
402
102
}
330
2A
100
AcDbVisualStyle
  2
Brighten
 70
    12
 71
     2
 72
     2
 73
     0
 90
        0
 40
-0.6
 41
-30.0
 62
     5
 63
     7
 74
     1
 91
        4
 64
     7
 65
   257
 75
     1
175
     1
 42
1.0
 92
        8
 66
     7
 43
1.0
 76
     1
 77
     6
 78
     2
 67
     7
 79
     5
170
     0
171
     0
290
     0
174
     0
 93
        1
 44
50.0
173
     0
291
     1
 45
0.0
1001
ACAD
1000
AcDbSavedByObjectVersion
1070
     0
  0
VISUALSTYLE
  5
3A
102
{ACAD_REACTORS
330
2A
102
}
102
{ACAD_XDICTIONARY
360
40A
102
}
330
2A
100
AcDbVisualStyle
  2
ColorChange
 70
    16
 71
     2
 72
     2
 73
     3
 90
        0
 40
-0.6
 41
-30.0
 62
     5
 63
     8
 74
     1
 91
        4
 64
     7
 65
   257
 75
     1
175
     1
 42
1.0
 92
        8
 66
     8
 43
1.0
 76
     1
 77
     6
 78
     2
 67
     7
 79
     5
170
     0
171
     0
290
     0
174
     0
 93
        1
 44
0.0
173
     0
291
     1
 45
0.0
1001
ACAD
1000
AcDbSavedByObjectVersion
1070
     0
  0
VISUALSTYLE
  5
34
102
{ACAD_REACTORS
330
2A
102
}
102
{ACAD_XDICTIONARY
360
3FE
102
}
330
2A
100
AcDbVisualStyle
  2
Conceptual
 70
     9
 71
     3
 72
     2
 73
     0
 90
        0
 40
-0.6
 41
-30.0
 62
     5
 63
     7
 74
     2
 91
        2
 64
     7
 65
   257
 75
     1
175
     1
 42
40.0
 92
        8
 66
     7
 43
1.0
 76
     1
 77
     6
 78
     2
 67
     7
 79
     3
170
     0
171
     0
290
     0
174
     0
 93
        1
 44
0.0
173
     0
291
     0
 45
0.0
1001
ACAD
1000
AcDbSavedByObjectVersion
1070
     0
  0
VISUALSTYLE
  5
35
102
{ACAD_REACTORS
330
2A
102
}
102
{ACAD_XDICTIONARY
360
400
102
}
330
2A
100
AcDbVisualStyle
  2
Dim
 70
    11
 71
     2
 72
     2
 73
     0
 90
        0
 40
-0.6
 41
-30.0
 62
     5
 63
     7
 74
     1
 91
        4
 64
     7
 65
   257
 75
     1
175
     1
 42
1.0
 92
        8
 66
     7
 43
1.0
 76
     1
 77
     6
 78
     2
 67
     7
 79
     5
170
     0
171
     0
290
     0
174
     0
 93
        1
 44
-50.0
173
     0
291
     1
 45
0.0
1001
ACAD
1000
AcDbSavedByObjectVersion
1070
     0
  0
VISUALSTYLE
  5
39
102
{ACAD_REACTORS
330
2A
102
}
102
{ACAD_XDICTIONARY
360
408
102
}
330
2A
100
AcDbVisualStyle
  2
Facepattern
 70
    15
 71
     2
 72
     2
 73
     0
 90
        0
 40
-0.6
 41
-30.0
 62
     5
 63
     7
 74
     1
 91
        4
 64
     7
 65
   257
 75
     1
175
     1
 42
1.0
 92
        8
 66
     7
 43
1.0
 76
     1
 77
     6
 78
     2
 67
     7
 79
     5
170
     0
171
     0
290
     0
174
     0
 93
        1
 44
0.0
173
     0
291
     1
 45
0.0
1001
ACAD
1000
AcDbSavedByObjectVersion
1070
     0
  0
VISUALSTYLE
  5
2B
102
{ACAD_REACTORS
330
2A
102
}
102
{ACAD_XDICTIONARY
360
3EC
102
}
330
2A
100
AcDbVisualStyle
  2
Flat
 70
     0
 71
     2
 72
     1
 73
     1
 90
        2
 40
-0.6
 41
30.0
 62
     5
 63
     7
 74
     0
 91
        4
 64
     7
 65
   257
 75
     1
175
     1
 42
1.0
 92
        8
 66
     7
 43
1.0
 76
     1
 77
     6
 78
     2
 67
     7
 79
     5
170
     0
171
     0
290
     0
174
     0
 93
       13
 44
0.0
173
     0
291
     1
 45
0.0
1001
ACAD
1000
AcDbSavedByObjectVersion
1070
     0
  0
VISUALSTYLE
  5
2C
102
{ACAD_REACTORS
330
2A
102
}
102
{ACAD_XDICTIONARY
360
3EE
102
}
330
2A
100
AcDbVisualStyle
  2
FlatWithEdges
 70
     1
 71
     2
 72
     1
 73
     1
 90
        2
 40
-0.6
 41
30.0
 62
     5
 63
     7
 74
     1
 91
        4
 64
     7
 65
   257
 75
     1
175
     1
 42
1.0
 92
        0
 66
   257
 43
1.0
 76
     1
 77
     6
 78
     2
 67
     7
 79
     5
170
     0
171
     0
290
     0
174
     0
 93
       13
 44
0.0
173
     0
291
     1
 45
0.0
1001
ACAD
1000
AcDbSavedByObjectVersion
1070
     0
  0
VISUALSTYLE
  5
2D
102
{ACAD_REACTORS
330
2A
102
}
102
{ACAD_XDICTIONARY
360
3F0
102
}
330
2A
100
AcDbVisualStyle
  2
Gouraud
 70
     2
 71
     2
 72
     2
 73
     1
 90
        2
 40
-0.6
 41
30.0
 62
     5
 63
     7
 74
     0
 91
        4
 64
     7
 65
   257
 75
     1
175
     1
 42
1.0
 92
        0
 66
     7
 43
1.0
 76
     1
 77
     6
 78
     2
 67
     7
 79
     5
170
     0
171
     0
290
     0
174
     0
 93
       13
 44
0.0
173
     0
291
     1
 45
0.0
1001
ACAD
1000
AcDbSavedByObjectVersion
1070
     0
  0
VISUALSTYLE
  5
2E
102
{ACAD_REACTORS
330
2A
102
}
102
{ACAD_XDICTIONARY
360
3F2
102
}
330
2A
100
AcDbVisualStyle
  2
GouraudWithEdges
 70
     3
 71
     2
 72
     2
 73
     1
 90
        2
 40
-0.6
 41
30.0
 62
     5
 63
     7
 74
     1
 91
        4
 64
     7
 65
   257
 75
     1
175
     1
 42
1.0
 92
        0
 66
   257
 43
1.0
 76
     1
 77
     6
 78
     2
 67
     7
 79
     5
170
     0
171
     0
290
     0
174
     0
 93
       13
 44
0.0
173
     0
291
     1
 45
0.0
1001
ACAD
1000
AcDbSavedByObjectVersion
1070
     0
  0
VISUALSTYLE
  5
38
102
{ACAD_REACTORS
330
2A
102
}
102
{ACAD_XDICTIONARY
360
406
102
}
330
2A
100
AcDbVisualStyle
  2
Linepattern
 70
    14
 71
     2
 72
     2
 73
     0
 90
        0
 40
-0.6
 41
-30.0
 62
     5
 63
     7
 74
     1
 91
        4
 64
     7
 65
   257
 75
     7
175
     7
 42
1.0
 92
        8
 66
     7
 43
1.0
 76
     1
 77
     6
 78
     2
 67
     7
 79
     5
170
     0
171
     0
290
     0
174
     0
 93
        1
 44
0.0
173
     0
291
     1
 45
0.0
1001
ACAD
1000
AcDbSavedByObjectVersion
1070
     0
  0
VISUALSTYLE
  5
33
102
{ACAD_REACTORS
330
2A
102
}
102
{ACAD_XDICTIONARY
360
3FC
102
}
330
2A
100
AcDbVisualStyle
  2
Realistic
 70
     8
 71
     2
 72
     2
 73
     0
 90
        0
 40
-0.6
 41
-30.0
 62
     5
 63
     7
 74
     1
 91
        0
 64
     7
 65
   257
 75
     1
175
     1
 42
1.0
 92
        8
 66
     8
 43
1.0
 76
     1
 77
     6
 78
     2
 67
     7
 79
     5
170
     0
171
     0
290
     0
174
     0
 93
       13
 44
0.0
173
     0
291
     0
 45
0.0
1001
ACAD
1000
AcDbSavedByObjectVersion
1070
     0
  0
VISUALSTYLE
  5
37
102
{ACAD_REACTORS
330
2A
102
}
102
{ACAD_XDICTIONARY
360
404
102
}
330
2A
100
AcDbVisualStyle
  2
Thicken
 70
    13
 71
     2
 72
     2
 73
     0
 90
        0
 40
-0.6
 41
-30.0
 62
     5
 63
     7
 74
     1
 91
        4
 64
     7
 65
   257
 75
     1
175
     1
 42
1.0
 92
       12
 66
     7
 43
1.0
 76
     1
 77
     6
 78
     2
 67
     7
 79
     5
170
     0
171
     0
290
     0
174
     0
 93
        1
 44
0.0
173
     0
291
     1
 45
0.0
1001
ACAD
1000
AcDbSavedByObjectVersion
1070
     0
  0
DICTIONARYVAR
  5
3E9
102
{ACAD_REACTORS
330
3E6
102
}
330
3E6
100
DictionaryVariables
280
     0
  1
1:1
  0
DICTIONARYVAR
  5
3EA
102
{ACAD_REACTORS
330
3E6
102
}
330
3E6
100
DictionaryVariables
280
     0
  1
2
  0
DICTIONARYVAR
  5
3EB
102
{ACAD_REACTORS
330
3E6
102
}
330
3E6
100
DictionaryVariables
280
     0
  1
1
  0
DICTIONARY
  5
40E
330
3D
100
AcDbDictionary
280
     1
281
     1
  3
ACAD_XREC_ROUNDTRIP
360
40F
  0
DICTIONARY
  5
40C
330
3C
100
AcDbDictionary
280
     1
281
     1
  3
ACAD_XREC_ROUNDTRIP
360
40D
  0
DICTIONARY
  5
410
330
3E
100
AcDbDictionary
280
     1
281
     1
  3
ACAD_XREC_ROUNDTRIP
360
411
  0
DICTIONARY
  5
3F4
330
2F
100
AcDbDictionary
280
     1
281
     1
  3
ACAD_XREC_ROUNDTRIP
360
3F5
  0
DICTIONARY
  5
3F8
330
31
100
AcDbDictionary
280
     1
281
     1
  3
ACAD_XREC_ROUNDTRIP
360
3F9
  0
DICTIONARY
  5
3F6
330
30
100
AcDbDictionary
280
     1
281
     1
  3
ACAD_XREC_ROUNDTRIP
360
3F7
  0
DICTIONARY
  5
3FA
330
32
100
AcDbDictionary
280
     1
281
     1
  3
ACAD_XREC_ROUNDTRIP
360
3FB
  0
DICTIONARY
  5
402
330
36
100
AcDbDictionary
280
     1
281
     1
  3
ACAD_XREC_ROUNDTRIP
360
403
  0
DICTIONARY
  5
40A
330
3A
100
AcDbDictionary
280
     1
281
     1
  3
ACAD_XREC_ROUNDTRIP
360
40B
  0
DICTIONARY
  5
3FE
330
34
100
AcDbDictionary
280
     1
281
     1
  3
ACAD_XREC_ROUNDTRIP
360
3FF
  0
DICTIONARY
  5
400
330
35
100
AcDbDictionary
280
     1
281
     1
  3
ACAD_XREC_ROUNDTRIP
360
401
  0
DICTIONARY
  5
408
330
39
100
AcDbDictionary
280
     1
281
     1
  3
ACAD_XREC_ROUNDTRIP
360
409
  0
DICTIONARY
  5
3EC
330
2B
100
AcDbDictionary
280
     1
281
     1
  3
ACAD_XREC_ROUNDTRIP
360
3ED
  0
DICTIONARY
  5
3EE
330
2C
100
AcDbDictionary
280
     1
281
     1
  3
ACAD_XREC_ROUNDTRIP
360
3EF
  0
DICTIONARY
  5
3F0
330
2D
100
AcDbDictionary
280
     1
281
     1
  3
ACAD_XREC_ROUNDTRIP
360
3F1
  0
DICTIONARY
  5
3F2
330
2E
100
AcDbDictionary
280
     1
281
     1
  3
ACAD_XREC_ROUNDTRIP
360
3F3
  0
DICTIONARY
  5
406
330
38
100
AcDbDictionary
280
     1
281
     1
  3
ACAD_XREC_ROUNDTRIP
360
407
  0
DICTIONARY
  5
3FC
330
33
100
AcDbDictionary
280
     1
281
     1
  3
ACAD_XREC_ROUNDTRIP
360
3FD
  0
DICTIONARY
  5
404
330
37
100
AcDbDictionary
280
     1
281
     1
  3
ACAD_XREC_ROUNDTRIP
360
405
  0
XRECORD
  5
40F
102
{ACAD_REACTORS
330
40E
102
}
330
40E
100
AcDbXrecord
280
     1
102
MATERIAL
148
0.0
149
0.0
149
0.0
 93
        0
 94
      127
282
     0
 72
     1
 77
     1
171
     1
175
     1
179
     1
273
     0
  0
XRECORD
  5
40D
102
{ACAD_REACTORS
330
40C
102
}
330
40C
100
AcDbXrecord
280
     1
102
MATERIAL
148
0.0
149
0.0
149
0.0
 93
        0
 94
      127
282
     0
 72
     1
 77
     1
171
     1
175
     1
179
     1
273
     0
  0
XRECORD
  5
411
102
{ACAD_REACTORS
330
410
102
}
330
410
100
AcDbXrecord
280
     1
102
MATERIAL
148
0.0
149
0.0
149
0.0
 93
        0
 94
      127
282
     0
 72
     1
 77
     1
171
     1
175
     1
179
     1
273
     0
  0
XRECORD
  5
3F5
102
{ACAD_REACTORS
330
3F4
102
}
330
3F4
100
AcDbXrecord
280
     1
102
RTVSPropertyOp0
 70
     1
102
RTVSPropertyOp1
 70
     1
102
RTVSPropertyOp2
 70
     1
102
RTVSPropertyOp3
 70
     1
102
RTVSPropertyOp4
 70
     1
102
RTVSPropertyOp5
 70
     1
102
RTVSPropertyOp6
 70
     1
102
RTVSPropertyOp7
 70
     1
102
RTVSPropertyOp8
 70
     1
102
RTVSPropertyOp9
 70
     1
102
RTVSPropertyOp10
 70
     1
102
RTVSPropertyOp11
 70
     1
102
RTVSPropertyOp12
 70
     1
102
RTVSPropertyOp13
 70
     1
102
RTVSPropertyOp14
 70
     1
102
RTVSPropertyOp15
 70
     1
102
RTVSPropertyOp16
 70
     1
102
RTVSPropertyOp17
 70
     1
102
RTVSPropertyOp18
 70
     1
102
RTVSPropertyOp19
 70
     1
102
RTVSPropertyOp20
 70
     1
102
RTVSPropertyOp21
 70
     1
102
RTVSPropertyOp22
 70
     1
102
RTVSPropertyOp23
 70
     1
102
RTVSPropertyOp24
 70
     1
102
RTVSPropertyOp25
 70
     1
102
RTVSPropertyOp26
 70
     1
102
RTVSPropertyOp27
 70
     1
  0
XRECORD
  5
3F9
102
{ACAD_REACTORS
330
3F8
102
}
330
3F8
100
AcDbXrecord
280
     1
102
RTVSPropertyOp0
 70
     1
102
RTVSPropertyOp1
 70
     1
102
RTVSPropertyOp2
 70
     1
102
RTVSPropertyOp3
 70
     1
102
RTVSPropertyOp4
 70
     1
102
RTVSPropertyOp5
 70
     1
102
RTVSPropertyOp6
 70
     1
102
RTVSPropertyOp7
 70
     1
102
RTVSPropertyOp8
 70
     1
102
RTVSPropertyOp9
 70
     1
102
RTVSPropertyOp10
 70
     1
102
RTVSPropertyOp11
 70
     1
102
RTVSPropertyOp12
 70
     1
102
RTVSPropertyOp13
 70
     1
102
RTVSPropertyOp14
 70
     1
102
RTVSPropertyOp15
 70
     1
102
RTVSPropertyOp16
 70
     1
102
RTVSPropertyOp17
 70
     1
102
RTVSPropertyOp18
 70
     1
102
RTVSPropertyOp19
 70
     1
102
RTVSPropertyOp20
 70
     1
102
RTVSPropertyOp21
 70
     1
102
RTVSPropertyOp22
 70
     1
102
RTVSPropertyOp23
 70
     1
102
RTVSPropertyOp24
 70
     1
102
RTVSPropertyOp25
 70
     1
102
RTVSPropertyOp26
 70
     1
102
RTVSPropertyOp27
 70
     1
  0
XRECORD
  5
3F7
102
{ACAD_REACTORS
330
3F6
102
}
330
3F6
100
AcDbXrecord
280
     1
102
RTVSPropertyOp0
 70
     1
102
RTVSPropertyOp1
 70
     1
102
RTVSPropertyOp2
 70
     1
102
RTVSPropertyOp3
 70
     1
102
RTVSPropertyOp4
 70
     1
102
RTVSPropertyOp5
 70
     1
102
RTVSPropertyOp6
 70
     1
102
RTVSPropertyOp7
 70
     1
102
RTVSPropertyOp8
 70
     1
102
RTVSPropertyOp9
 70
     1
102
RTVSPropertyOp10
 70
     1
102
RTVSPropertyOp11
 70
     1
102
RTVSPropertyOp12
 70
     1
102
RTVSPropertyOp13
 70
     1
102
RTVSPropertyOp14
 70
     1
102
RTVSPropertyOp15
 70
     1
102
RTVSPropertyOp16
 70
     1
102
RTVSPropertyOp17
 70
     1
102
RTVSPropertyOp18
 70
     1
102
RTVSPropertyOp19
 70
     1
102
RTVSPropertyOp20
 70
     1
102
RTVSPropertyOp21
 70
     1
102
RTVSPropertyOp22
 70
     1
102
RTVSPropertyOp23
 70
     1
102
RTVSPropertyOp24
 70
     1
102
RTVSPropertyOp25
 70
     1
102
RTVSPropertyOp26
 70
     1
102
RTVSPropertyOp27
 70
     1
  0
XRECORD
  5
3FB
102
{ACAD_REACTORS
330
3FA
102
}
330
3FA
100
AcDbXrecord
280
     1
102
RTVSPropertyOp0
 70
     1
102
RTVSPropertyOp1
 70
     1
102
RTVSPropertyOp2
 70
     1
102
RTVSPropertyOp3
 70
     1
102
RTVSPropertyOp4
 70
     1
102
RTVSPropertyOp5
 70
     1
102
RTVSPropertyOp6
 70
     1
102
RTVSPropertyOp7
 70
     1
102
RTVSPropertyOp8
 70
     1
102
RTVSPropertyOp9
 70
     1
102
RTVSPropertyOp10
 70
     1
102
RTVSPropertyOp11
 70
     1
102
RTVSPropertyOp12
 70
     1
102
RTVSPropertyOp13
 70
     1
102
RTVSPropertyOp14
 70
     1
102
RTVSPropertyOp15
 70
     1
102
RTVSPropertyOp16
 70
     1
102
RTVSPropertyOp17
 70
     1
102
RTVSPropertyOp18
 70
     1
102
RTVSPropertyOp19
 70
     1
102
RTVSPropertyOp20
 70
     1
102
RTVSPropertyOp21
 70
     1
102
RTVSPropertyOp22
 70
     1
102
RTVSPropertyOp23
 70
     1
102
RTVSPropertyOp24
 70
     1
102
RTVSPropertyOp25
 70
     1
102
RTVSPropertyOp26
 70
     1
102
RTVSPropertyOp27
 70
     1
  0
XRECORD
  5
403
102
{ACAD_REACTORS
330
402
102
}
330
402
100
AcDbXrecord
280
     1
102
RTVSPropertyOp0
 70
     1
102
RTVSPropertyOp1
 70
     1
102
RTVSPropertyOp2
 70
     1
102
RTVSPropertyOp3
 70
     1
102
RTVSPropertyOp4
 70
     1
102
RTVSPropertyOp5
 70
     1
102
RTVSPropertyOp6
 70
     1
102
RTVSPropertyOp7
 70
     1
102
RTVSPropertyOp8
 70
     1
102
RTVSPropertyOp9
 70
     1
102
RTVSPropertyOp10
 70
     1
102
RTVSPropertyOp11
 70
     1
102
RTVSPropertyOp12
 70
     1
102
RTVSPropertyOp13
 70
     1
102
RTVSPropertyOp14
 70
     1
102
RTVSPropertyOp15
 70
     1
102
RTVSPropertyOp16
 70
     1
102
RTVSPropertyOp17
 70
     1
102
RTVSPropertyOp18
 70
     1
102
RTVSPropertyOp19
 70
     1
102
RTVSPropertyOp20
 70
     1
102
RTVSPropertyOp21
 70
     1
102
RTVSPropertyOp22
 70
     1
102
RTVSPropertyOp23
 70
     1
102
RTVSPropertyOp24
 70
     1
102
RTVSPropertyOp25
 70
     1
102
RTVSPropertyOp26
 70
     1
102
RTVSPropertyOp27
 70
     1
  0
XRECORD
  5
40B
102
{ACAD_REACTORS
330
40A
102
}
330
40A
100
AcDbXrecord
280
     1
102
RTVSPropertyOp0
 70
     1
102
RTVSPropertyOp1
 70
     1
102
RTVSPropertyOp2
 70
     1
102
RTVSPropertyOp3
 70
     1
102
RTVSPropertyOp4
 70
     1
102
RTVSPropertyOp5
 70
     1
102
RTVSPropertyOp6
 70
     1
102
RTVSPropertyOp7
 70
     1
102
RTVSPropertyOp8
 70
     1
102
RTVSPropertyOp9
 70
     1
102
RTVSPropertyOp10
 70
     1
102
RTVSPropertyOp11
 70
     1
102
RTVSPropertyOp12
 70
     1
102
RTVSPropertyOp13
 70
     1
102
RTVSPropertyOp14
 70
     1
102
RTVSPropertyOp15
 70
     1
102
RTVSPropertyOp16
 70
     1
102
RTVSPropertyOp17
 70
     1
102
RTVSPropertyOp18
 70
     1
102
RTVSPropertyOp19
 70
     1
102
RTVSPropertyOp20
 70
     1
102
RTVSPropertyOp21
 70
     1
102
RTVSPropertyOp22
 70
     1
102
RTVSPropertyOp23
 70
     1
102
RTVSPropertyOp24
 70
     1
102
RTVSPropertyOp25
 70
     1
102
RTVSPropertyOp26
 70
     1
102
RTVSPropertyOp27
 70
     1
  0
XRECORD
  5
3FF
102
{ACAD_REACTORS
330
3FE
102
}
330
3FE
100
AcDbXrecord
280
     1
102
RTVSPropertyOp0
 70
     1
102
RTVSPropertyOp1
 70
     1
102
RTVSPropertyOp2
 70
     1
102
RTVSPropertyOp3
 70
     1
102
RTVSPropertyOp4
 70
     1
102
RTVSPropertyOp5
 70
     1
102
RTVSPropertyOp6
 70
     1
102
RTVSPropertyOp7
 70
     1
102
RTVSPropertyOp8
 70
     1
102
RTVSPropertyOp9
 70
     1
102
RTVSPropertyOp10
 70
     1
102
RTVSPropertyOp11
 70
     1
102
RTVSPropertyOp12
 70
     1
102
RTVSPropertyOp13
 70
     1
102
RTVSPropertyOp14
 70
     1
102
RTVSPropertyOp15
 70
     1
102
RTVSPropertyOp16
 70
     1
102
RTVSPropertyOp17
 70
     1
102
RTVSPropertyOp18
 70
     1
102
RTVSPropertyOp19
 70
     1
102
RTVSPropertyOp20
 70
     1
102
RTVSPropertyOp21
 70
     1
102
RTVSPropertyOp22
 70
     1
102
RTVSPropertyOp23
 70
     1
102
RTVSPropertyOp24
 70
     1
102
RTVSPropertyOp25
 70
     1
102
RTVSPropertyOp26
 70
     1
102
RTVSPropertyOp27
 70
     1
  0
XRECORD
  5
401
102
{ACAD_REACTORS
330
400
102
}
330
400
100
AcDbXrecord
280
     1
102
RTVSPropertyOp0
 70
     1
102
RTVSPropertyOp1
 70
     1
102
RTVSPropertyOp2
 70
     1
102
RTVSPropertyOp3
 70
     1
102
RTVSPropertyOp4
 70
     1
102
RTVSPropertyOp5
 70
     1
102
RTVSPropertyOp6
 70
     1
102
RTVSPropertyOp7
 70
     1
102
RTVSPropertyOp8
 70
     1
102
RTVSPropertyOp9
 70
     1
102
RTVSPropertyOp10
 70
     1
102
RTVSPropertyOp11
 70
     1
102
RTVSPropertyOp12
 70
     1
102
RTVSPropertyOp13
 70
     1
102
RTVSPropertyOp14
 70
     1
102
RTVSPropertyOp15
 70
     1
102
RTVSPropertyOp16
 70
     1
102
RTVSPropertyOp17
 70
     1
102
RTVSPropertyOp18
 70
     1
102
RTVSPropertyOp19
 70
     1
102
RTVSPropertyOp20
 70
     1
102
RTVSPropertyOp21
 70
     1
102
RTVSPropertyOp22
 70
     1
102
RTVSPropertyOp23
 70
     1
102
RTVSPropertyOp24
 70
     1
102
RTVSPropertyOp25
 70
     1
102
RTVSPropertyOp26
 70
     1
102
RTVSPropertyOp27
 70
     1
  0
XRECORD
  5
409
102
{ACAD_REACTORS
330
408
102
}
330
408
100
AcDbXrecord
280
     1
102
RTVSPropertyOp0
 70
     1
102
RTVSPropertyOp1
 70
     1
102
RTVSPropertyOp2
 70
     1
102
RTVSPropertyOp3
 70
     1
102
RTVSPropertyOp4
 70
     1
102
RTVSPropertyOp5
 70
     1
102
RTVSPropertyOp6
 70
     1
102
RTVSPropertyOp7
 70
     1
102
RTVSPropertyOp8
 70
     1
102
RTVSPropertyOp9
 70
     1
102
RTVSPropertyOp10
 70
     1
102
RTVSPropertyOp11
 70
     1
102
RTVSPropertyOp12
 70
     1
102
RTVSPropertyOp13
 70
     1
102
RTVSPropertyOp14
 70
     1
102
RTVSPropertyOp15
 70
     1
102
RTVSPropertyOp16
 70
     1
102
RTVSPropertyOp17
 70
     1
102
RTVSPropertyOp18
 70
     1
102
RTVSPropertyOp19
 70
     1
102
RTVSPropertyOp20
 70
     1
102
RTVSPropertyOp21
 70
     1
102
RTVSPropertyOp22
 70
     1
102
RTVSPropertyOp23
 70
     1
102
RTVSPropertyOp24
 70
     1
102
RTVSPropertyOp25
 70
     1
102
RTVSPropertyOp26
 70
     1
102
RTVSPropertyOp27
 70
     1
  0
XRECORD
  5
3ED
102
{ACAD_REACTORS
330
3EC
102
}
330
3EC
100
AcDbXrecord
280
     1
102
RTVSPropertyOp0
 70
     1
102
RTVSPropertyOp1
 70
     1
102
RTVSPropertyOp2
 70
     1
102
RTVSPropertyOp3
 70
     1
102
RTVSPropertyOp4
 70
     1
102
RTVSPropertyOp5
 70
     1
102
RTVSPropertyOp6
 70
     1
102
RTVSPropertyOp7
 70
     1
102
RTVSPropertyOp8
 70
     1
102
RTVSPropertyOp9
 70
     1
102
RTVSPropertyOp10
 70
     1
102
RTVSPropertyOp11
 70
     1
102
RTVSPropertyOp12
 70
     1
102
RTVSPropertyOp13
 70
     1
102
RTVSPropertyOp14
 70
     1
102
RTVSPropertyOp15
 70
     1
102
RTVSPropertyOp16
 70
     1
102
RTVSPropertyOp17
 70
     1
102
RTVSPropertyOp18
 70
     1
102
RTVSPropertyOp19
 70
     1
102
RTVSPropertyOp20
 70
     1
102
RTVSPropertyOp21
 70
     1
102
RTVSPropertyOp22
 70
     1
102
RTVSPropertyOp23
 70
     1
102
RTVSPropertyOp24
 70
     1
102
RTVSPropertyOp25
 70
     1
102
RTVSPropertyOp26
 70
     1
102
RTVSPropertyOp27
 70
     1
  0
XRECORD
  5
3EF
102
{ACAD_REACTORS
330
3EE
102
}
330
3EE
100
AcDbXrecord
280
     1
102
RTVSPropertyOp0
 70
     1
102
RTVSPropertyOp1
 70
     1
102
RTVSPropertyOp2
 70
     1
102
RTVSPropertyOp3
 70
     1
102
RTVSPropertyOp4
 70
     1
102
RTVSPropertyOp5
 70
     1
102
RTVSPropertyOp6
 70
     1
102
RTVSPropertyOp7
 70
     1
102
RTVSPropertyOp8
 70
     1
102
RTVSPropertyOp9
 70
     1
102
RTVSPropertyOp10
 70
     1
102
RTVSPropertyOp11
 70
     1
102
RTVSPropertyOp12
 70
     1
102
RTVSPropertyOp13
 70
     1
102
RTVSPropertyOp14
 70
     1
102
RTVSPropertyOp15
 70
     1
102
RTVSPropertyOp16
 70
     1
102
RTVSPropertyOp17
 70
     1
102
RTVSPropertyOp18
 70
     1
102
RTVSPropertyOp19
 70
     1
102
RTVSPropertyOp20
 70
     1
102
RTVSPropertyOp21
 70
     1
102
RTVSPropertyOp22
 70
     1
102
RTVSPropertyOp23
 70
     1
102
RTVSPropertyOp24
 70
     1
102
RTVSPropertyOp25
 70
     1
102
RTVSPropertyOp26
 70
     1
102
RTVSPropertyOp27
 70
     1
  0
XRECORD
  5
3F1
102
{ACAD_REACTORS
330
3F0
102
}
330
3F0
100
AcDbXrecord
280
     1
102
RTVSPropertyOp0
 70
     1
102
RTVSPropertyOp1
 70
     1
102
RTVSPropertyOp2
 70
     1
102
RTVSPropertyOp3
 70
     1
102
RTVSPropertyOp4
 70
     1
102
RTVSPropertyOp5
 70
     1
102
RTVSPropertyOp6
 70
     1
102
RTVSPropertyOp7
 70
     1
102
RTVSPropertyOp8
 70
     1
102
RTVSPropertyOp9
 70
     1
102
RTVSPropertyOp10
 70
     1
102
RTVSPropertyOp11
 70
     1
102
RTVSPropertyOp12
 70
     1
102
RTVSPropertyOp13
 70
     1
102
RTVSPropertyOp14
 70
     1
102
RTVSPropertyOp15
 70
     1
102
RTVSPropertyOp16
 70
     1
102
RTVSPropertyOp17
 70
     1
102
RTVSPropertyOp18
 70
     1
102
RTVSPropertyOp19
 70
     1
102
RTVSPropertyOp20
 70
     1
102
RTVSPropertyOp21
 70
     1
102
RTVSPropertyOp22
 70
     1
102
RTVSPropertyOp23
 70
     1
102
RTVSPropertyOp24
 70
     1
102
RTVSPropertyOp25
 70
     1
102
RTVSPropertyOp26
 70
     1
102
RTVSPropertyOp27
 70
     1
  0
XRECORD
  5
3F3
102
{ACAD_REACTORS
330
3F2
102
}
330
3F2
100
AcDbXrecord
280
     1
102
RTVSPropertyOp0
 70
     1
102
RTVSPropertyOp1
 70
     1
102
RTVSPropertyOp2
 70
     1
102
RTVSPropertyOp3
 70
     1
102
RTVSPropertyOp4
 70
     1
102
RTVSPropertyOp5
 70
     1
102
RTVSPropertyOp6
 70
     1
102
RTVSPropertyOp7
 70
     1
102
RTVSPropertyOp8
 70
     1
102
RTVSPropertyOp9
 70
     1
102
RTVSPropertyOp10
 70
     1
102
RTVSPropertyOp11
 70
     1
102
RTVSPropertyOp12
 70
     1
102
RTVSPropertyOp13
 70
     1
102
RTVSPropertyOp14
 70
     1
102
RTVSPropertyOp15
 70
     1
102
RTVSPropertyOp16
 70
     1
102
RTVSPropertyOp17
 70
     1
102
RTVSPropertyOp18
 70
     1
102
RTVSPropertyOp19
 70
     1
102
RTVSPropertyOp20
 70
     1
102
RTVSPropertyOp21
 70
     1
102
RTVSPropertyOp22
 70
     1
102
RTVSPropertyOp23
 70
     1
102
RTVSPropertyOp24
 70
     1
102
RTVSPropertyOp25
 70
     1
102
RTVSPropertyOp26
 70
     1
102
RTVSPropertyOp27
 70
     1
  0
XRECORD
  5
407
102
{ACAD_REACTORS
330
406
102
}
330
406
100
AcDbXrecord
280
     1
102
RTVSPropertyOp0
 70
     1
102
RTVSPropertyOp1
 70
     1
102
RTVSPropertyOp2
 70
     1
102
RTVSPropertyOp3
 70
     1
102
RTVSPropertyOp4
 70
     1
102
RTVSPropertyOp5
 70
     1
102
RTVSPropertyOp6
 70
     1
102
RTVSPropertyOp7
 70
     1
102
RTVSPropertyOp8
 70
     1
102
RTVSPropertyOp9
 70
     1
102
RTVSPropertyOp10
 70
     1
102
RTVSPropertyOp11
 70
     1
102
RTVSPropertyOp12
 70
     1
102
RTVSPropertyOp13
 70
     1
102
RTVSPropertyOp14
 70
     1
102
RTVSPropertyOp15
 70
     1
102
RTVSPropertyOp16
 70
     1
102
RTVSPropertyOp17
 70
     1
102
RTVSPropertyOp18
 70
     1
102
RTVSPropertyOp19
 70
     1
102
RTVSPropertyOp20
 70
     1
102
RTVSPropertyOp21
 70
     1
102
RTVSPropertyOp22
 70
     1
102
RTVSPropertyOp23
 70
     1
102
RTVSPropertyOp24
 70
     1
102
RTVSPropertyOp25
 70
     1
102
RTVSPropertyOp26
 70
     1
102
RTVSPropertyOp27
 70
     1
  0
XRECORD
  5
3FD
102
{ACAD_REACTORS
330
3FC
102
}
330
3FC
100
AcDbXrecord
280
     1
102
RTVSPropertyOp0
 70
     1
102
RTVSPropertyOp1
 70
     1
102
RTVSPropertyOp2
 70
     1
102
RTVSPropertyOp3
 70
     1
102
RTVSPropertyOp4
 70
     1
102
RTVSPropertyOp5
 70
     1
102
RTVSPropertyOp6
 70
     1
102
RTVSPropertyOp7
 70
     1
102
RTVSPropertyOp8
 70
     1
102
RTVSPropertyOp9
 70
     1
102
RTVSPropertyOp10
 70
     1
102
RTVSPropertyOp11
 70
     1
102
RTVSPropertyOp12
 70
     1
102
RTVSPropertyOp13
 70
     1
102
RTVSPropertyOp14
 70
     1
102
RTVSPropertyOp15
 70
     1
102
RTVSPropertyOp16
 70
     1
102
RTVSPropertyOp17
 70
     1
102
RTVSPropertyOp18
 70
     1
102
RTVSPropertyOp19
 70
     1
102
RTVSPropertyOp20
 70
     1
102
RTVSPropertyOp21
 70
     1
102
RTVSPropertyOp22
 70
     1
102
RTVSPropertyOp23
 70
     1
102
RTVSPropertyOp24
 70
     1
102
RTVSPropertyOp25
 70
     1
102
RTVSPropertyOp26
 70
     1
102
RTVSPropertyOp27
 70
     1
  0
XRECORD
  5
405
102
{ACAD_REACTORS
330
404
102
}
330
404
100
AcDbXrecord
280
     1
102
RTVSPropertyOp0
 70
     1
102
RTVSPropertyOp1
 70
     1
102
RTVSPropertyOp2
 70
     1
102
RTVSPropertyOp3
 70
     1
102
RTVSPropertyOp4
 70
     1
102
RTVSPropertyOp5
 70
     1
102
RTVSPropertyOp6
 70
     1
102
RTVSPropertyOp7
 70
     1
102
RTVSPropertyOp8
 70
     1
102
RTVSPropertyOp9
 70
     1
102
RTVSPropertyOp10
 70
     1
102
RTVSPropertyOp11
 70
     1
102
RTVSPropertyOp12
 70
     1
102
RTVSPropertyOp13
 70
     1
102
RTVSPropertyOp14
 70
     1
102
RTVSPropertyOp15
 70
     1
102
RTVSPropertyOp16
 70
     1
102
RTVSPropertyOp17
 70
     1
102
RTVSPropertyOp18
 70
     1
102
RTVSPropertyOp19
 70
     1
102
RTVSPropertyOp20
 70
     1
102
RTVSPropertyOp21
 70
     1
102
RTVSPropertyOp22
 70
     1
102
RTVSPropertyOp23
 70
     1
102
RTVSPropertyOp24
 70
     1
102
RTVSPropertyOp25
 70
     1
102
RTVSPropertyOp26
 70
     1
102
RTVSPropertyOp27
 70
     1
  0
ENDSEC
  0
EOF
